  0
SECTION
  2
HEADER
  9
$ACADVER
  1
AC1009
  9
$INSBASE
 10
0.0
 20
0.0
 30
0.0
  9
$EXTMIN
 10
0.0
 20
-70.740000000000009
 30
0.0
  9
$EXTMAX
 10
1000.0
 20
520.0
 30
0.0
  9
$LIMMIN
 10
-10.0
 20
-78.0
  9
$LIMMAX
 10
1010.0
 20
530.0
  9
$ORTHOMODE
 70
     0
  9
$REGENMODE
 70
     1
  9
$FILLMODE
 70
     1
  9
$QTEXTMODE
 70
     0
  9
$MIRRTEXT
 70
     0
  9
$DRAGMODE
 70
     2
  9
$LTSCALE
 40
300.0
  9
$OSMODE
 70
   163
  9
$ATTMODE
 70
     1
  9
$TEXTSIZE
 40
0.2
  9
$TRACEWID
 40
0.05
  9
$TEXTSTYLE
  7
STANDARD
  9
$CLAYER
  8
0
  9
$CELTYPE
  6
BYLAYER
  9
$CECOLOR
 62
   256
  9
$DIMSCALE
 40
1.0
  9
$DIMASZ
 40
1.0
  9
$DIMEXO
 40
4.4000000000000004
  9
$DIMDLI
 40
33.0
  9
$DIMRND
 40
0.0
  9
$DIMDLE
 40
0.0
  9
$DIMEXE
 40
11.0
  9
$DIMTP
 40
0.0
  9
$DIMTM
 40
0.0
  9
$DIMTXT
 40
22.0
  9
$DIMCEN
 40
22.0
  9
$DIMTSZ
 40
0.0
  9
$DIMTOL
 70
     0
  9
$DIMLIM
 70
     0
  9
$DIMTIH
 70
     0
  9
$DIMTOH
 70
     0
  9
$DIMSE1
 70
     0
  9
$DIMSE2
 70
     0
  9
$DIMTAD
 70
     1
  9
$DIMZIN
 70
     8
  9
$DIMBLK
  1
_CCMPFL2
  9
$DIMASO
 70
     1
  9
$DIMSHO
 70
     1
  9
$DIMPOST
  1

  9
$DIMAPOST
  1

  9
$DIMALT
 70
     0
  9
$DIMALTD
 70
     3
  9
$DIMALTF
 40
1.0
  9
$DIMLFAC
 40
1.0
  9
$DIMTOFL
 70
     0
  9
$DIMTVP
 40
0.0
  9
$DIMTIX
 70
     1
  9
$DIMSOXD
 70
     0
  9
$DIMSAH
 70
     0
  9
$DIMBLK1
  1

  9
$DIMBLK2
  1

  9
$DIMSTYLE
  2
CCSTANDARD
  9
$DIMCLRD
 70
     0
  9
$DIMCLRE
 70
     0
  9
$DIMCLRT
 70
     0
  9
$DIMTFAC
 40
1.0
  9
$DIMGAP
 40
4.4000000000000004
  9
$LUNITS
 70
     2
  9
$LUPREC
 70
     4
  9
$SKETCHINC
 40
0.1
  9
$FILLETRAD
 40
0.0
  9
$AUNITS
 70
     0
  9
$AUPREC
 70
     0
  9
$MENU
  1
.
  9
$ELEVATION
 40
0.0
  9
$PELEVATION
 40
0.0
  9
$THICKNESS
 40
0.0
  9
$LIMCHECK
 70
     0
  9
$BLIPMODE
 70
     0
  9
$CHAMFERA
 40
0.0
  9
$CHAMFERB
 40
0.0
  9
$SKPOLY
 70
     0
  9
$TDCREATE
 40
2454652.4624511339
  9
$TDUPDATE
 40
2454652.4628679748
  9
$TDINDWG
 40
0.0004181134
  9
$TDUSRTIMER
 40
0.0004181134
  9
$USRTIMER
 70
     1
  9
$ANGBASE
 50
0.0
  9
$ANGDIR
 70
     0
  9
$PDMODE
 70
    32
  9
$PDSIZE
 40
0.0
  9
$PLINEWID
 40
0.0
  9
$COORDS
 70
     1
  9
$SPLFRAME
 70
     0
  9
$SPLINETYPE
 70
     6
  9
$SPLINESEGS
 70
     8
  9
$ATTDIA
 70
     0
  9
$ATTREQ
 70
     1
  9
$HANDLING
 70
     1
  9
$HANDSEED
  5
103
  9
$SURFTAB1
 70
    10
  9
$SURFTAB2
 70
     6
  9
$SURFTYPE
 70
     6
  9
$SURFU
 70
     6
  9
$SURFV
 70
     6
  9
$UCSNAME
  2

  9
$UCSORG
 10
0.0
 20
0.0
 30
0.0
  9
$UCSXDIR
 10
1.0
 20
0.0
 30
0.0
  9
$UCSYDIR
 10
0.0
 20
1.0
 30
0.0
  9
$PUCSNAME
  2

  9
$PUCSORG
 10
0.0
 20
0.0
 30
0.0
  9
$PUCSXDIR
 10
1.0
 20
0.0
 30
0.0
  9
$PUCSYDIR
 10
0.0
 20
1.0
 30
0.0
  9
$USERI1
 70
     0
  9
$USERI2
 70
     0
  9
$USERI3
 70
     0
  9
$USERI4
 70
     0
  9
$USERI5
 70
     0
  9
$USERR1
 40
10.0
  9
$USERR2
 40
0.0
  9
$USERR3
 40
0.0
  9
$USERR4
 40
0.0
  9
$USERR5
 40
0.0
  9
$WORLDVIEW
 70
     0
  9
$SHADEDGE
 70
     1
  9
$SHADEDIF
 70
    70
  9
$TILEMODE
 70
     1
  9
$MAXACTVP
 70
    64
  9
$PLIMCHECK
 70
     0
  9
$PEXTMIN
 10
1.0000000000000000E+020
 20
1.0000000000000000E+020
 30
1.0000000000000000E+020
  9
$PEXTMAX
 10
-1.0000000000000000E+020
 20
-1.0000000000000000E+020
 30
-1.0000000000000000E+020
  9
$PLIMMIN
 10
0.0
 20
0.0
  9
$PLIMMAX
 10
12.0
 20
9.0
  9
$UNITMODE
 70
     0
  9
$VISRETAIN
 70
     1
  9
$PLINEGEN
 70
     0
  9
$PSLTSCALE
 70
     1
  0
ENDSEC
  0
SECTION
  2
TABLES
  0
TABLE
  2
VPORT
 70
     1
  0
VPORT
  2
*ACTIVE
 70
     0
 10
0.0
 20
0.0
 11
1.0
 21
1.0
 12
553.50169963529493
 22
294.03661182759407
 13
0.0
 23
0.0
 14
1.0
 24
1.0
 15
0.0
 25
0.0
 16
0.0
 26
0.0
 36
1.0
 17
0.0
 27
0.0
 37
0.0
 40
1109.4556379792591
 41
1.318421052631578
 42
50.0
 43
0.0
 44
0.0
 50
0.0
 51
0.0
 71
     0
 72
   100
 73
     1
 74
     1
 75
     0
 76
     0
 77
     0
 78
     0
  0
ENDTAB
  0
TABLE
  2
LTYPE
 70
     5
  0
LTYPE
  2
CONTINUOUS
 70
     0
  3
Solid Line
 72
    65
 73
     0
 40
0.0
  0
LTYPE
  2
_CCDASHED
 70
     0
  3
__ __ __ __ __ __ __ __ 
 72
    65
 73
     2
 40
0.75
 49
0.5
 49
-0.25
  0
LTYPE
  2
_CCDASHED2
 70
     0
  3
_ _ _ _ _ _ _ _ _ _ _ _ 
 72
    65
 73
     2
 40
0.375
 49
0.25
 49
-0.125
  0
LTYPE
  2
_CCCENTER
 70
     0
  3
___ _ ___ _ ___ _ ___ _ 
 72
    65
 73
     4
 40
1.125
 49
0.75
 49
-0.125
 49
0.125
 49
-0.125
  0
LTYPE
  2
_CCDIVIDE
 70
     0
  3
___ _ _ ___ _ _ ___ _ _ 
 72
    65
 73
     6
 40
1.375
 49
0.75
 49
-0.125
 49
0.125
 49
-0.125
 49
0.125
 49
-0.125
  0
ENDTAB
  0
TABLE
  2
LAYER
 70
     7
  0
LAYER
  2
0
 70
     0
 62
     8
  6
CONTINUOUS
  0
LAYER
  2
WERKSTUECK
 70
     0
 62
     8
  6
CONTINUOUS
  0
LAYER
  2
KONSTRUKTION
 70
     0
 62
     8
  6
CONTINUOUS
  0
LAYER
  2
NC-PROGRAMM
 70
     0
 62
     8
  6
CONTINUOUS
  0
LAYER
  2
MAßE
 70
     0
 62
     7
  6
CONTINUOUS
  0
LAYER
  2
DIMENSION
 70
     0
 62
     7
  6
CONTINUOUS
  0
LAYER
  2
CUSTINFO
 70
     0
 62
     7
  6
CONTINUOUS
  0
ENDTAB
  0
TABLE
  2
STYLE
 70
     1
  0
STYLE
  2
STANDARD
 70
     0
 40
0.0
 41
1.0
 50
0.0
 71
     0
 42
0.2
  3
txt
  4

  0
ENDTAB
  0
TABLE
  2
VIEW
 70
     0
  0
ENDTAB
  0
TABLE
  2
UCS
 70
     0
  0
ENDTAB
  0
TABLE
  2
APPID
 70
     6
  0
APPID
  2
ACAD
 70
     0
  0
APPID
  2
CADT-VIS-MAPPING
 70
     0
  0
APPID
  2
CADT-LAYMAT
 70
     0
  0
APPID
  2
CADT_UNIT
 70
     0
  0
APPID
  2
CADT_DFLTEL
 70
     0
  0
APPID
  2
_CADT_PPS
 70
     0
  0
ENDTAB
  0
TABLE
  2
DIMSTYLE
 70
     1
  0
DIMSTYLE
  2
CCSTANDARD
 70
     0
  3

  4

  5

  6

  7

 40
1.0
 41
22.0
 42
4.4000000000000004
 43
33.0
 44
11.0
 45
0.0
 46
0.0
 47
0.0
 48
0.0
140
22.0
141
22.0
142
0.0
143
0.0394
144
1.0
145
0.0
146
1.0
147
4.4000000000000004
 71
     0
 72
     0
 73
     0
 74
     0
 75
     0
 76
     0
 77
     1
 78
     8
170
     0
171
     3
172
     0
173
     0
174
     0
175
     0
176
     0
177
     0
178
     0
  0
ENDTAB
  0
ENDSEC
  0
SECTION
  2
BLOCKS
  0
BLOCK
  8
0
  2
$MODEL_SPACE
 70
     0
 10
0.0
 20
0.0
 30
0.0
  3
$MODEL_SPACE
  1

  0
ENDBLK
  5
38
  8
0
  0
BLOCK
 67
     1
  8
0
  2
$PAPER_SPACE
 70
     0
 10
0.0
 20
0.0
 30
0.0
  3
$PAPER_SPACE
  1

  0
ENDBLK
  5
34
 67
     1
  8
0
  0
BLOCK
  8
0
  2
_CCMPFL0
 70
     0
 10
0.0
 20
0.0
 30
0.0
  3
_CCMPFL0
  1

  0
CIRCLE
  5
47
  8
MAßE
 62
   250
 10
0.0
 20
0.0
 30
0.0
 40
0.025
  0
ENDBLK
  5
48
  8
0
  0
BLOCK
  8
0
  2
_CCMPFL1
 70
     0
 10
0.0
 20
0.0
 30
0.0
  3
_CCMPFL1
  1

  0
LINE
  5
4B
  8
MAßE
 62
   250
 10
-1.0
 20
0.17
 30
0.0
 11
0.0
 21
0.0
 31
0.0
  0
LINE
  5
4C
  8
MAßE
 62
   250
 10
-1.0
 20
-0.17
 30
0.0
 11
0.0
 21
0.0
 31
0.0
  0
LINE
  5
4D
  8
MAßE
 62
   250
 10
-1.0
 20
0.0
 30
0.0
 11
0.0
 21
0.0
 31
0.0
  0
ENDBLK
  5
4E
  8
0
  0
BLOCK
  8
0
  2
_CCMPFL2
 70
     0
 10
0.0
 20
0.0
 30
0.0
  3
_CCMPFL2
  1

  0
SOLID
  5
51
  8
MAßE
 62
   250
 10
-1.0
 20
0.17
 30
0.0
 11
0.0
 21
0.0
 31
0.0
 12
-0.6600000000000001
 22
0.0
 32
0.0
 13
-1.0
 23
-0.17
 33
0.0
  0
LINE
  5
52
  8
MAßE
 62
   250
 10
-1.0
 20
0.0
 30
0.0
 11
0.0
 21
0.0
 31
0.0
  0
ENDBLK
  5
53
  8
0
  0
BLOCK
  8
0
  2
_CCMPFL3
 70
     0
 10
0.0
 20
0.0
 30
0.0
  3
_CCMPFL3
  1

  0
LINE
  5
56
  8
MAßE
 62
   250
 10
-1.0
 20
0.17
 30
0.0
 11
0.0
 21
0.0
 31
0.0
  0
LINE
  5
57
  8
MAßE
 62
   250
 10
-1.0
 20
-0.17
 30
0.0
 11
0.0
 21
0.0
 31
0.0
  0
LINE
  5
58
  8
MAßE
 62
   250
 10
-1.0
 20
-0.17
 30
0.0
 11
-1.0
 21
0.17
 31
0.0
  0
LINE
  5
59
  8
MAßE
 62
   250
 10
-1.0
 20
0.0
 30
0.0
 11
0.0
 21
0.0
 31
0.0
  0
ENDBLK
  5
5A
  8
0
  0
BLOCK
  8
0
  2
_CCMPFL4
 70
     0
 10
0.0
 20
0.0
 30
0.0
  3
_CCMPFL4
  1

  0
SOLID
  5
5E
  8
DIMENSION
 62
   250
 10
-1.0
 20
0.17
 30
0.0
 11
0.0
 21
0.0
 31
0.0
 12
-1.0
 22
0.0
 32
0.0
 13
-1.0
 23
-0.17
 33
0.0
  0
ENDBLK
  5
5F
  8
0
  0
BLOCK
  8
0
  2
_CCMPFL5
 70
     0
 10
0.0
 20
0.0
 30
0.0
  3
_CCMPFL5
  1

  0
LINE
  5
62
  8
MAßE
 62
   250
 10
-0.5
 20
-0.5
 30
0.0
 11
0.5
 21
0.5
 31
0.0
  0
LINE
  5
63
  8
MAßE
 62
   250
 10
-1.0
 20
0.0
 30
0.0
 11
0.0
 21
0.0
 31
0.0
  0
ENDBLK
  5
64
  8
0
  0
BLOCK
  8
0
  2
_CCMPFL6
 70
     0
 10
0.0
 20
0.0
 30
0.0
  3
_CCMPFL6
  1

  0
CIRCLE
  5
67
  8
MAßE
 62
   250
 10
0.0
 20
0.0
 30
0.0
 40
0.5
  0
LINE
  5
68
  8
MAßE
 62
   250
 10
-1.0
 20
0.0
 30
0.0
 11
0.0
 21
0.0
 31
0.0
  0
ENDBLK
  5
69
  8
0
  0
BLOCK
  8
0
  2
_CCMPFL7
 70
     0
 10
0.0
 20
0.0
 30
0.0
  3
_CCMPFL7
  1

  0
POLYLINE
  5
6C
  8
MAßE
 62
   250
 66
     1
 10
0.0
 20
0.0
 30
0.0
 70
     1
 40
0.5
 41
0.5
  0
VERTEX
  5
100
  8
MAßE
 62
   250
 10
-0.25
 20
0.0
 30
0.0
 42
1.0
  0
VERTEX
  5
101
  8
MAßE
 62
   250
 10
0.25
 20
0.0
 30
0.0
 42
1.0
  0
SEQEND
  5
102
  8
MAßE
 62
   250
  0
LINE
  5
70
  8
MAßE
 62
   250
 10
-1.0
 20
0.0
 30
0.0
 11
0.0
 21
0.0
 31
0.0
  0
ENDBLK
  5
71
  8
0
  0
BLOCK
  8
0
  2
*D8
 70
     1
 10
0.0
 20
0.0
 30
0.0
  3
*D8
  1

  0
LINE
  5
74
  8
MAßE
 62
   250
 10
445.0
 20
369.0
 30
0.0
 11
445.0
 21
404.0
 31
0.0
  0
LINE
  5
75
  8
MAßE
 62
   250
 10
445.0
 20
378.0
 30
0.0
 11
402.0
 21
378.0
 31
0.0
  0
LINE
  5
76
  8
MAßE
 62
   250
 10
471.0
 20
369.0
 30
0.0
 11
445.0
 21
369.0
 31
0.0
  0
LINE
  5
77
  8
MAßE
 62
   250
 10
471.0
 20
404.0
 30
0.0
 11
445.0
 21
404.0
 31
0.0
  0
INSERT
  5
78
  8
MAßE
 62
   250
  2
_CCMPFL2
 10
445.0
 20
369.0
 30
0.0
 41
22.0
 42
22.0
 43
22.0
 50
90.0
  0
INSERT
  5
79
  8
MAßE
 62
   250
  2
_CCMPFL2
 10
445.0
 20
404.0
 30
0.0
 41
22.0
 42
22.0
 43
22.0
 50
270.0
  0
TEXT
  5
7A
  8
MAßE
 62
   250
 10
402.0
 20
387.43333333333328
 30
0.0
 40
22.0
  1
35
 11
402.0
 21
380.10000000000002
 31
0.0
 73
     1
  0
ENDBLK
  5
7B
  8
0
  0
BLOCK
  8
0
  2
*D9
 70
     1
 10
0.0
 20
0.0
 30
0.0
  3
*D9
  1

  0
LINE
  5
7E
  8
MAßE
 62
   250
 10
287.0
 20
-67.0
 30
0.0
 11
713.0
 21
-67.0
 31
0.0
  0
LINE
  5
7F
  8
MAßE
 62
   250
 10
287.0
 20
118.0
 30
0.0
 11
287.0
 21
-67.0
 31
0.0
  0
LINE
  5
80
  8
MAßE
 62
   250
 10
713.0
 20
118.0
 30
0.0
 11
713.0
 21
-67.0
 31
0.0
  0
INSERT
  5
81
  8
MAßE
 62
   250
  2
_CCMPFL2
 10
287.0
 20
-67.0
 30
0.0
 41
22.0
 42
22.0
 43
22.0
 50
180.0
  0
INSERT
  5
82
  8
MAßE
 62
   250
  2
_CCMPFL2
 10
713.0
 20
-67.0
 30
0.0
 41
22.0
 42
22.0
 43
22.0
  0
TEXT
  5
83
  8
MAßE
 62
   250
 10
476.89999999999998
 20
-57.56666666666667
 30
0.0
 40
22.0
  1
426
 11
476.89999999999998
 21
-64.900000000000006
 31
0.0
 73
     1
  0
ENDBLK
  5
84
  8
0
  0
BLOCK
  8
0
  2
*D10
 70
     1
 10
0.0
 20
0.0
 30
0.0
  3
*D10
  1

  0
LINE
  5
87
  8
MAßE
 62
   250
 10
759.0
 20
159.0
 30
0.0
 11
759.0
 21
386.5
 31
0.0
  0
LINE
  5
88
  8
MAßE
 62
   250
 10
531.0
 20
159.0
 30
0.0
 11
759.0
 21
159.0
 31
0.0
  0
LINE
  5
89
  8
MAßE
 62
   250
 10
531.0
 20
386.5
 30
0.0
 11
759.0
 21
386.5
 31
0.0
  0
INSERT
  5
8A
  8
MAßE
 62
   250
  2
_CCMPFL2
 10
759.0
 20
159.0
 30
0.0
 41
22.0
 42
22.0
 43
22.0
 50
270.0
  0
INSERT
  5
8B
  8
MAßE
 62
   250
  2
_CCMPFL2
 10
759.0
 20
386.5
 30
0.0
 41
22.0
 42
22.0
 43
22.0
 50
90.0
  0
TEXT
  5
8C
  8
MAßE
 62
   250
 10
750.56666666666661
 20
235.25
 30
0.0
 40
22.0
  1
227.5
 50
90.0
 11
757.89999999999986
 21
235.25
 31
0.0
 73
     1
  0
ENDBLK
  5
8D
  8
0
  0
BLOCK
  8
0
  2
*D11
 70
     1
 10
0.0
 20
0.0
 30
0.0
  3
*D11
  1

  0
LINE
  5
90
  8
MAßE
 62
   250
 10
181.0
 20
18.0
 30
0.0
 11
181.0
 21
300.0
 31
0.0
  0
LINE
  5
91
  8
MAßE
 62
   250
 10
419.0
 20
18.0
 30
0.0
 11
181.0
 21
18.0
 31
0.0
  0
LINE
  5
92
  8
MAßE
 62
   250
 10
419.0
 20
300.0
 30
0.0
 11
181.0
 21
300.0
 31
0.0
  0
INSERT
  5
93
  8
MAßE
 62
   250
  2
_CCMPFL2
 10
181.0
 20
18.0
 30
0.0
 41
22.0
 42
22.0
 43
22.0
 50
270.0
  0
INSERT
  5
94
  8
MAßE
 62
   250
  2
_CCMPFL2
 10
181.0
 20
300.0
 30
0.0
 41
22.0
 42
22.0
 43
22.0
 50
90.0
  0
TEXT
  5
95
  8
MAßE
 62
   250
 10
172.56666666666661
 20
136.90000000000001
 30
0.0
 40
22.0
  1
282
 50
90.0
 11
179.90000000000001
 21
136.90000000000001
 31
0.0
 73
     1
  0
ENDBLK
  5
96
  8
0
  0
BLOCK
  8
0
  2
*D12
 70
     1
 10
0.0
 20
0.0
 30
0.0
  3
*D12
  1

  0
LINE
  5
99
  8
MAßE
 62
   250
 10
759.0
 20
0.0
 30
0.0
 11
759.0
 21
159.0
 31
0.0
  0
LINE
  5
9A
  8
MAßE
 62
   250
 10
538.0
 20
0.0
 30
0.0
 11
759.0
 21
0.0
 31
0.0
  0
LINE
  5
9B
  8
MAßE
 62
   250
 10
538.0
 20
159.0
 30
0.0
 11
759.0
 21
159.0
 31
0.0
  0
INSERT
  5
9C
  8
MAßE
 62
   250
  2
_CCMPFL2
 10
759.0
 20
0.0
 30
0.0
 41
22.0
 42
22.0
 43
22.0
 50
270.0
  0
INSERT
  5
9D
  8
MAßE
 62
   250
  2
_CCMPFL2
 10
759.0
 20
159.0
 30
0.0
 41
22.0
 42
22.0
 43
22.0
 50
90.0
  0
TEXT
  5
9E
  8
MAßE
 62
   250
 10
750.56666666666661
 20
57.399999999999999
 30
0.0
 40
22.0
  1
159
 50
90.0
 11
757.89999999999986
 21
57.399999999999999
 31
0.0
 73
     1
  0
ENDBLK
  5
9F
  8
0
  0
BLOCK
  8
0
  2
*D13
 70
     1
 10
0.0
 20
0.0
 30
0.0
  3
*D13
  1

  0
LINE
  5
A2
  8
MAßE
 62
   250
 10
919.0
 20
0.0
 30
0.0
 11
919.0
 21
520.0
 31
0.0
  0
LINE
  5
A3
  8
MAßE
 62
   250
 10
922.0
 20
0.0
 30
0.0
 11
919.0
 21
0.0
 31
0.0
  0
LINE
  5
A4
  8
MAßE
 62
   250
 10
922.0
 20
520.0
 30
0.0
 11
919.0
 21
520.0
 31
0.0
  0
INSERT
  5
A5
  8
MAßE
 62
   250
  2
_CCMPFL2
 10
919.0
 20
0.0
 30
0.0
 41
22.0
 42
22.0
 43
22.0
 50
270.0
  0
INSERT
  5
A6
  8
MAßE
 62
   250
  2
_CCMPFL2
 10
919.0
 20
520.0
 30
0.0
 41
22.0
 42
22.0
 43
22.0
 50
90.0
  0
TEXT
  5
A7
  8
MAßE
 62
   250
 10
910.56666666666661
 20
237.90000000000001
 30
0.0
 40
22.0
  1
520
 50
90.0
 11
917.89999999999998
 21
237.90000000000001
 31
0.0
 73
     1
  0
ENDBLK
  5
A8
  8
0
  0
BLOCK
  8
0
  2
CUSTINFO
 70
     0
 10
0.0
 20
0.0
 30
0.0
  3
CUSTINFO
  1
CUSTINFO
  0
ENDBLK
  5
DE
  8
0
  0
BLOCK
  8
0
  2
CADT_STATUS
 70
     2
 10
0.0
 20
0.0
 30
0.0
  3
CADT_STATUS
  1
CADT_STATUS
  0
ATTDEF
  5
E3
  8
CUSTINFO
 10
0.0
 20
0.0
 30
0.0
 40
3.0
  1

  3
Dummy
  2
X1
 70
     1
  0
ENDBLK
  5
E4
  8
0
  0
ENDSEC
  0
SECTION
  2
ENTITIES
  0
ARC
  5
A9
  8
KONSTRUKTION
 10
619.3738689999999
 20
159.0
 30
0.0
 40
93.626131000000001
 50
351.51138900000001
 51
8.4886110000000006
  0
ARC
  5
AA
  8
KONSTRUKTION
 10
614.25514799999996
 20
158.236042
 30
0.0
 40
98.801546999999999
 50
8.4886110000000006
 51
24.960820999999999
  0
ARC
  5
AB
  8
KONSTRUKTION
 10
592.95462699999985
 20
148.32117299999999
 30
0.0
 40
122.29658499999999
 50
24.960820999999999
 51
39.109821999999987
  0
ARC
  5
AC
  8
KONSTRUKTION
 10
569.73615599999994
 20
129.44542300000001
 30
0.0
 40
152.219675
 50
39.109821999999987
 51
51.174720999999998
  0
ARC
  5
AD
  8
KONSTRUKTION
 10
541.11101699999995
 20
93.892453000000003
 30
0.0
 40
197.86408700000001
 50
51.171566999999989
 51
61.845406000000011
  0
ARC
  5
AE
  8
KONSTRUKTION
 10
519.564256
 20
53.653796999999997
 30
0.0
 40
243.508499
 50
61.842911999999998
 51
70.61018
  0
ARC
  5
AF
  8
KONSTRUKTION
 10
506.53853700000002
 20
16.644278
 30
0.0
 40
282.74335500000001
 50
70.61018
 51
78.722806999999989
  0
ARC
  5
B0
  8
KONSTRUKTION
 10
500.501262
 20
-13.632047
 30
0.0
 40
313.615746
 50
78.722806999999989
 51
86.274727999999996
  0
ARC
  5
B1
  8
KONSTRUKTION
 10
500.0
 20
-21.330739000000001
 30
0.0
 40
321.33073899999999
 50
86.274727999999996
 51
93.725272000000004
  0
ARC
  5
B2
  8
KONSTRUKTION
 10
499.498738
 20
-13.632047
 30
0.0
 40
313.615746
 50
93.725272000000004
 51
101.277193
  0
ARC
  5
B3
  8
KONSTRUKTION
 10
493.46146299999992
 20
16.644278
 30
0.0
 40
282.74335500000001
 50
101.277193
 51
109.38982
  0
ARC
  5
B4
  8
KONSTRUKTION
 10
480.435744
 20
53.653796999999997
 30
0.0
 40
243.508499
 50
109.38982
 51
118.167897
  0
ARC
  5
B5
  8
KONSTRUKTION
 10
458.888983
 20
93.892453000000003
 30
0.0
 40
197.86408700000001
 50
118.167897
 51
128.83895200000001
  0
ARC
  5
B6
  8
KONSTRUKTION
 10
430.26384400000001
 20
129.44542300000001
 30
0.0
 40
152.219675
 50
128.83895200000001
 51
140.89017799999999
  0
ARC
  5
B7
  8
KONSTRUKTION
 10
407.04537299999993
 20
148.32117299999999
 30
0.0
 40
122.29658499999999
 50
140.89017799999999
 51
155.03917899999999
  0
ARC
  5
B8
  8
KONSTRUKTION
 10
385.74485199999998
 20
158.236042
 30
0.0
 40
98.801546999999999
 50
155.03917899999999
 51
171.51138900000001
  0
ARC
  5
B9
  8
KONSTRUKTION
 10
380.62613099999999
 20
159.0
 30
0.0
 40
93.626131000000001
 50
171.51138900000001
 51
188.48861099999999
  0
ARC
  5
BA
  8
KONSTRUKTION
 10
385.74485199999998
 20
159.763958
 30
0.0
 40
98.801546999999999
 50
188.48861099999999
 51
204.9608210000001
  0
ARC
  5
BB
  8
KONSTRUKTION
 10
407.04537299999993
 20
169.67882700000001
 30
0.0
 40
122.29658499999999
 50
204.9608210000001
 51
219.10982200000001
  0
ARC
  5
BC
  8
KONSTRUKTION
 10
430.26384400000001
 20
188.55457699999999
 30
0.0
 40
152.219675
 50
219.10982200000001
 51
231.14737299999999
  0
ARC
  5
BD
  8
KONSTRUKTION
 10
458.888983
 20
224.10754700000001
 30
0.0
 40
197.86408700000001
 50
231.15052800000001
 51
241.83209900000011
  0
ARC
  5
BE
  8
KONSTRUKTION
 10
480.435744
 20
264.346203
 30
0.0
 40
243.508499
 50
241.8321
 51
250.61018000000001
  0
ARC
  5
BF
  8
KONSTRUKTION
 10
493.46146299999992
 20
301.35572200000001
 30
0.0
 40
282.74335500000001
 50
250.61018000000001
 51
258.72280699999999
  0
ARC
  5
C0
  8
KONSTRUKTION
 10
499.498738
 20
331.632047
 30
0.0
 40
313.615746
 50
258.72280699999999
 51
266.27472799999998
  0
ARC
  5
C1
  8
KONSTRUKTION
 10
500.0
 20
339.33073899999999
 30
0.0
 40
321.33073899999999
 50
266.27472799999998
 51
273.72527200000002
  0
ARC
  5
C2
  8
KONSTRUKTION
 10
500.501262
 20
331.632047
 30
0.0
 40
313.615746
 50
273.72527200000002
 51
281.27719300000001
  0
ARC
  5
C3
  8
KONSTRUKTION
 10
506.53853700000002
 20
301.35572200000001
 30
0.0
 40
282.74335500000001
 50
281.27719300000001
 51
289.38981999999999
  0
ARC
  5
C4
  8
KONSTRUKTION
 10
519.564256
 20
264.346203
 30
0.0
 40
243.508499
 50
289.38981999999999
 51
298.17871099999991
  0
ARC
  5
C5
  8
KONSTRUKTION
 10
541.11101699999995
 20
224.10754700000001
 30
0.0
 40
197.86408700000001
 50
298.18120399999998
 51
308.838954
  0
ARC
  5
C6
  8
KONSTRUKTION
 10
569.73615599999994
 20
188.55457699999999
 30
0.0
 40
152.219675
 50
308.838954
 51
320.89017799999999
  0
ARC
  5
C7
  8
KONSTRUKTION
 10
592.95462699999985
 20
169.67882700000001
 30
0.0
 40
122.29658499999999
 50
320.89017799999999
 51
335.03917899999999
  0
ARC
  5
C8
  8
KONSTRUKTION
 10
614.25514799999996
 20
159.763958
 30
0.0
 40
98.801546999999999
 50
335.03917899999999
 51
351.51138900000001
  0
LINE
  5
CE
  8
KONSTRUKTION
 10
713.0
 20
159.0
 30
0.0
 11
713.0
 21
159.0
 31
0.0
  0
POINT
  5
CF
  8
KONSTRUKTION
 62
   250
 10
500.0
 20
159.0
 30
0.0
  0
DIMENSION
  5
D2
  8
MAßE
 62
   250
  2
*D9
 10
580.0
 20
-68.0
 30
0.0
 11
580.0
 21
-63.0
 31
0.0
 70
     1
  1
<>
 13
287.0
 23
118.0
 33
0.0
 14
713.0
 24
118.0
 34
0.0
  0
DIMENSION
  5
D4
  8
MAßE
 62
   250
  2
*D11
 10
183.0
 20
82.0
 30
0.0
 11
183.0
 21
87.0
 31
0.0
 70
     1
  1
<>
 13
419.0
 23
300.0
 33
0.0
 14
419.0
 24
18.0
 34
0.0
  0
TEXT
  5
D7
  8
KONSTRUKTION
 62
   250
 10
394.54104671677652
 20
381.0
 30
0.0
 40
35.0
  1
BPF-701
  0
INSERT
  5
E0
  8
CUSTINFO
  6
CONTINUOUS
  2
CUSTINFO
 10
0.0
 20
0.0
 30
0.0
1001
CADT_DFLTEL
1000
dfltel
1000
{
1000
0
1000
50
1000
770
1000
820
1000
1350
1000
2250
1000
2600
1000
}
1001
CADT_UNIT
1000
MM
  0
INSERT
  5
E5
  8
CUSTINFO
  2
CADT_STATUS
 10
0.0
 20
0.0
 30
0.0
  0
ENDSEC
  0
EOF