  0
SECTION
  2
HEADER
  9
$ACADVER
  1
AC1009
  9
$INSBASE
 10
0.0
 20
0.0
 30
0.0
  9
$EXTMIN
 10
0.0
 20
-45.740000000000002
 30
0.0
  9
$EXTMAX
 10
1400.0
 20
520.0
 30
0.0
  9
$LIMMIN
 10
-10.0
 20
-52.0
  9
$LIMMAX
 10
1410.0
 20
530.0
  9
$ORTHOMODE
 70
     0
  9
$REGENMODE
 70
     1
  9
$FILLMODE
 70
     1
  9
$QTEXTMODE
 70
     0
  9
$MIRRTEXT
 70
     0
  9
$DRAGMODE
 70
     2
  9
$LTSCALE
 40
300.0
  9
$OSMODE
 70
   163
  9
$ATTMODE
 70
     1
  9
$TEXTSIZE
 40
0.2
  9
$TRACEWID
 40
0.05
  9
$TEXTSTYLE
  7
STANDARD
  9
$CLAYER
  8
0
  9
$CELTYPE
  6
BYLAYER
  9
$CECOLOR
 62
   256
  9
$DIMSCALE
 40
1.0
  9
$DIMASZ
 40
1.0
  9
$DIMEXO
 40
4.4000000000000004
  9
$DIMDLI
 40
33.0
  9
$DIMRND
 40
0.0
  9
$DIMDLE
 40
0.0
  9
$DIMEXE
 40
11.0
  9
$DIMTP
 40
0.0
  9
$DIMTM
 40
0.0
  9
$DIMTXT
 40
22.0
  9
$DIMCEN
 40
22.0
  9
$DIMTSZ
 40
0.0
  9
$DIMTOL
 70
     0
  9
$DIMLIM
 70
     0
  9
$DIMTIH
 70
     0
  9
$DIMTOH
 70
     0
  9
$DIMSE1
 70
     0
  9
$DIMSE2
 70
     0
  9
$DIMTAD
 70
     1
  9
$DIMZIN
 70
     8
  9
$DIMBLK
  1
_CCMPFL2
  9
$DIMASO
 70
     1
  9
$DIMSHO
 70
     1
  9
$DIMPOST
  1

  9
$DIMAPOST
  1

  9
$DIMALT
 70
     0
  9
$DIMALTD
 70
     3
  9
$DIMALTF
 40
1.0
  9
$DIMLFAC
 40
1.0
  9
$DIMTOFL
 70
     0
  9
$DIMTVP
 40
0.0
  9
$DIMTIX
 70
     1
  9
$DIMSOXD
 70
     0
  9
$DIMSAH
 70
     0
  9
$DIMBLK1
  1

  9
$DIMBLK2
  1

  9
$DIMSTYLE
  2
CCSTANDARD
  9
$DIMCLRD
 70
     0
  9
$DIMCLRE
 70
     0
  9
$DIMCLRT
 70
     0
  9
$DIMTFAC
 40
1.0
  9
$DIMGAP
 40
4.4000000000000004
  9
$LUNITS
 70
     2
  9
$LUPREC
 70
     4
  9
$SKETCHINC
 40
0.1
  9
$FILLETRAD
 40
0.0
  9
$AUNITS
 70
     0
  9
$AUPREC
 70
     0
  9
$MENU
  1
.
  9
$ELEVATION
 40
0.0
  9
$PELEVATION
 40
0.0
  9
$THICKNESS
 40
0.0
  9
$LIMCHECK
 70
     0
  9
$BLIPMODE
 70
     0
  9
$CHAMFERA
 40
0.0
  9
$CHAMFERB
 40
0.0
  9
$SKPOLY
 70
     0
  9
$TDCREATE
 40
2454652.4615810881
  9
$TDUPDATE
 40
2454652.4619910652
  9
$TDINDWG
 40
0.0004115972
  9
$TDUSRTIMER
 40
0.0004115972
  9
$USRTIMER
 70
     1
  9
$ANGBASE
 50
0.0
  9
$ANGDIR
 70
     0
  9
$PDMODE
 70
    32
  9
$PDSIZE
 40
0.0
  9
$PLINEWID
 40
0.0
  9
$COORDS
 70
     1
  9
$SPLFRAME
 70
     0
  9
$SPLINETYPE
 70
     6
  9
$SPLINESEGS
 70
     8
  9
$ATTDIA
 70
     0
  9
$ATTREQ
 70
     1
  9
$HANDLING
 70
     1
  9
$HANDSEED
  5
103
  9
$SURFTAB1
 70
    10
  9
$SURFTAB2
 70
     6
  9
$SURFTYPE
 70
     6
  9
$SURFU
 70
     6
  9
$SURFV
 70
     6
  9
$UCSNAME
  2

  9
$UCSORG
 10
0.0
 20
0.0
 30
0.0
  9
$UCSXDIR
 10
1.0
 20
0.0
 30
0.0
  9
$UCSYDIR
 10
0.0
 20
1.0
 30
0.0
  9
$PUCSNAME
  2

  9
$PUCSORG
 10
0.0
 20
0.0
 30
0.0
  9
$PUCSXDIR
 10
1.0
 20
0.0
 30
0.0
  9
$PUCSYDIR
 10
0.0
 20
1.0
 30
0.0
  9
$USERI1
 70
     0
  9
$USERI2
 70
     0
  9
$USERI3
 70
     0
  9
$USERI4
 70
     0
  9
$USERI5
 70
     0
  9
$USERR1
 40
10.0
  9
$USERR2
 40
0.0
  9
$USERR3
 40
0.0
  9
$USERR4
 40
0.0
  9
$USERR5
 40
0.0
  9
$WORLDVIEW
 70
     0
  9
$SHADEDGE
 70
     1
  9
$SHADEDIF
 70
    70
  9
$TILEMODE
 70
     1
  9
$MAXACTVP
 70
    64
  9
$PLIMCHECK
 70
     0
  9
$PEXTMIN
 10
1.0000000000000000E+020
 20
1.0000000000000000E+020
 30
1.0000000000000000E+020
  9
$PEXTMAX
 10
-1.0000000000000000E+020
 20
-1.0000000000000000E+020
 30
-1.0000000000000000E+020
  9
$PLIMMIN
 10
0.0
 20
0.0
  9
$PLIMMAX
 10
12.0
 20
9.0
  9
$UNITMODE
 70
     0
  9
$VISRETAIN
 70
     1
  9
$PLINEGEN
 70
     0
  9
$PSLTSCALE
 70
     1
  0
ENDSEC
  0
SECTION
  2
TABLES
  0
TABLE
  2
VPORT
 70
     1
  0
VPORT
  2
*ACTIVE
 70
     0
 10
0.0
 20
0.0
 11
1.0
 21
1.0
 12
514.82611812169284
 22
320.11491814285222
 13
0.0
 23
0.0
 14
1.0
 24
1.0
 15
0.0
 25
0.0
 16
0.0
 26
0.0
 36
1.0
 17
0.0
 27
0.0
 37
0.0
 40
1495.8682606458301
 41
1.318421052631578
 42
50.0
 43
0.0
 44
0.0
 50
0.0
 51
0.0
 71
     0
 72
   100
 73
     1
 74
     1
 75
     0
 76
     0
 77
     0
 78
     0
  0
ENDTAB
  0
TABLE
  2
LTYPE
 70
     5
  0
LTYPE
  2
CONTINUOUS
 70
     0
  3
Solid Line
 72
    65
 73
     0
 40
0.0
  0
LTYPE
  2
_CCDASHED
 70
     0
  3
__ __ __ __ __ __ __ __ 
 72
    65
 73
     2
 40
0.75
 49
0.5
 49
-0.25
  0
LTYPE
  2
_CCDASHED2
 70
     0
  3
_ _ _ _ _ _ _ _ _ _ _ _ 
 72
    65
 73
     2
 40
0.375
 49
0.25
 49
-0.125
  0
LTYPE
  2
_CCCENTER
 70
     0
  3
___ _ ___ _ ___ _ ___ _ 
 72
    65
 73
     4
 40
1.125
 49
0.75
 49
-0.125
 49
0.125
 49
-0.125
  0
LTYPE
  2
_CCDIVIDE
 70
     0
  3
___ _ _ ___ _ _ ___ _ _ 
 72
    65
 73
     6
 40
1.375
 49
0.75
 49
-0.125
 49
0.125
 49
-0.125
 49
0.125
 49
-0.125
  0
ENDTAB
  0
TABLE
  2
LAYER
 70
     7
  0
LAYER
  2
0
 70
     0
 62
     8
  6
CONTINUOUS
  0
LAYER
  2
WERKSTUECK
 70
     0
 62
     8
  6
CONTINUOUS
  0
LAYER
  2
KONSTRUKTION
 70
     0
 62
     8
  6
CONTINUOUS
  0
LAYER
  2
NC-PROGRAMM
 70
     0
 62
     8
  6
CONTINUOUS
  0
LAYER
  2
MAßE
 70
     0
 62
     7
  6
CONTINUOUS
  0
LAYER
  2
DIMENSION
 70
     0
 62
     7
  6
CONTINUOUS
  0
LAYER
  2
CUSTINFO
 70
     0
 62
     7
  6
CONTINUOUS
  0
ENDTAB
  0
TABLE
  2
STYLE
 70
     1
  0
STYLE
  2
STANDARD
 70
     0
 40
0.0
 41
1.0
 50
0.0
 71
     0
 42
0.2
  3
txt
  4

  0
ENDTAB
  0
TABLE
  2
VIEW
 70
     0
  0
ENDTAB
  0
TABLE
  2
UCS
 70
     0
  0
ENDTAB
  0
TABLE
  2
APPID
 70
     6
  0
APPID
  2
ACAD
 70
     0
  0
APPID
  2
CADT-VIS-MAPPING
 70
     0
  0
APPID
  2
CADT-LAYMAT
 70
     0
  0
APPID
  2
CADT_UNIT
 70
     0
  0
APPID
  2
CADT_DFLTEL
 70
     0
  0
APPID
  2
_CADT_PPS
 70
     0
  0
ENDTAB
  0
TABLE
  2
DIMSTYLE
 70
     1
  0
DIMSTYLE
  2
CCSTANDARD
 70
     0
  3

  4

  5

  6

  7

 40
1.0
 41
22.0
 42
4.4000000000000004
 43
33.0
 44
11.0
 45
0.0
 46
0.0
 47
0.0
 48
0.0
140
22.0
141
22.0
142
0.0
143
0.0394
144
1.0
145
0.0
146
1.0
147
4.4000000000000004
 71
     0
 72
     0
 73
     0
 74
     0
 75
     0
 76
     0
 77
     1
 78
     8
170
     0
171
     3
172
     0
173
     0
174
     0
175
     0
176
     0
177
     0
178
     0
  0
ENDTAB
  0
ENDSEC
  0
SECTION
  2
BLOCKS
  0
BLOCK
  8
0
  2
$MODEL_SPACE
 70
     0
 10
0.0
 20
0.0
 30
0.0
  3
$MODEL_SPACE
  1

  0
ENDBLK
  5
38
  8
0
  0
BLOCK
 67
     1
  8
0
  2
$PAPER_SPACE
 70
     0
 10
0.0
 20
0.0
 30
0.0
  3
$PAPER_SPACE
  1

  0
ENDBLK
  5
34
 67
     1
  8
0
  0
BLOCK
  8
0
  2
_CCMPFL0
 70
     0
 10
0.0
 20
0.0
 30
0.0
  3
_CCMPFL0
  1

  0
CIRCLE
  5
47
  8
MAßE
 62
   250
 10
0.0
 20
0.0
 30
0.0
 40
0.025
  0
ENDBLK
  5
48
  8
0
  0
BLOCK
  8
0
  2
_CCMPFL1
 70
     0
 10
0.0
 20
0.0
 30
0.0
  3
_CCMPFL1
  1

  0
LINE
  5
4B
  8
MAßE
 62
   250
 10
-1.0
 20
0.17
 30
0.0
 11
0.0
 21
0.0
 31
0.0
  0
LINE
  5
4C
  8
MAßE
 62
   250
 10
-1.0
 20
-0.17
 30
0.0
 11
0.0
 21
0.0
 31
0.0
  0
LINE
  5
4D
  8
MAßE
 62
   250
 10
-1.0
 20
0.0
 30
0.0
 11
0.0
 21
0.0
 31
0.0
  0
ENDBLK
  5
4E
  8
0
  0
BLOCK
  8
0
  2
_CCMPFL2
 70
     0
 10
0.0
 20
0.0
 30
0.0
  3
_CCMPFL2
  1

  0
SOLID
  5
51
  8
MAßE
 62
   250
 10
-1.0
 20
0.17
 30
0.0
 11
0.0
 21
0.0
 31
0.0
 12
-0.6600000000000001
 22
0.0
 32
0.0
 13
-1.0
 23
-0.17
 33
0.0
  0
LINE
  5
52
  8
MAßE
 62
   250
 10
-1.0
 20
0.0
 30
0.0
 11
0.0
 21
0.0
 31
0.0
  0
ENDBLK
  5
53
  8
0
  0
BLOCK
  8
0
  2
_CCMPFL3
 70
     0
 10
0.0
 20
0.0
 30
0.0
  3
_CCMPFL3
  1

  0
LINE
  5
56
  8
MAßE
 62
   250
 10
-1.0
 20
0.17
 30
0.0
 11
0.0
 21
0.0
 31
0.0
  0
LINE
  5
57
  8
MAßE
 62
   250
 10
-1.0
 20
-0.17
 30
0.0
 11
0.0
 21
0.0
 31
0.0
  0
LINE
  5
58
  8
MAßE
 62
   250
 10
-1.0
 20
-0.17
 30
0.0
 11
-1.0
 21
0.17
 31
0.0
  0
LINE
  5
59
  8
MAßE
 62
   250
 10
-1.0
 20
0.0
 30
0.0
 11
0.0
 21
0.0
 31
0.0
  0
ENDBLK
  5
5A
  8
0
  0
BLOCK
  8
0
  2
_CCMPFL4
 70
     0
 10
0.0
 20
0.0
 30
0.0
  3
_CCMPFL4
  1

  0
SOLID
  5
5E
  8
DIMENSION
 62
   250
 10
-1.0
 20
0.17
 30
0.0
 11
0.0
 21
0.0
 31
0.0
 12
-1.0
 22
0.0
 32
0.0
 13
-1.0
 23
-0.17
 33
0.0
  0
ENDBLK
  5
5F
  8
0
  0
BLOCK
  8
0
  2
_CCMPFL5
 70
     0
 10
0.0
 20
0.0
 30
0.0
  3
_CCMPFL5
  1

  0
LINE
  5
62
  8
MAßE
 62
   250
 10
-0.5
 20
-0.5
 30
0.0
 11
0.5
 21
0.5
 31
0.0
  0
LINE
  5
63
  8
MAßE
 62
   250
 10
-1.0
 20
0.0
 30
0.0
 11
0.0
 21
0.0
 31
0.0
  0
ENDBLK
  5
64
  8
0
  0
BLOCK
  8
0
  2
_CCMPFL6
 70
     0
 10
0.0
 20
0.0
 30
0.0
  3
_CCMPFL6
  1

  0
CIRCLE
  5
67
  8
MAßE
 62
   250
 10
0.0
 20
0.0
 30
0.0
 40
0.5
  0
LINE
  5
68
  8
MAßE
 62
   250
 10
-1.0
 20
0.0
 30
0.0
 11
0.0
 21
0.0
 31
0.0
  0
ENDBLK
  5
69
  8
0
  0
BLOCK
  8
0
  2
_CCMPFL7
 70
     0
 10
0.0
 20
0.0
 30
0.0
  3
_CCMPFL7
  1

  0
POLYLINE
  5
6C
  8
MAßE
 62
   250
 66
     1
 10
0.0
 20
0.0
 30
0.0
 70
     1
 40
0.5
 41
0.5
  0
VERTEX
  5
100
  8
MAßE
 62
   250
 10
-0.25
 20
0.0
 30
0.0
 42
1.0
  0
VERTEX
  5
101
  8
MAßE
 62
   250
 10
0.25
 20
0.0
 30
0.0
 42
1.0
  0
SEQEND
  5
102
  8
MAßE
 62
   250
  0
LINE
  5
70
  8
MAßE
 62
   250
 10
-1.0
 20
0.0
 30
0.0
 11
0.0
 21
0.0
 31
0.0
  0
ENDBLK
  5
71
  8
0
  0
BLOCK
  8
0
  2
*D8
 70
     1
 10
0.0
 20
0.0
 30
0.0
  3
*D8
  1

  0
LINE
  5
74
  8
MAßE
 62
   250
 10
1229.0
 20
0.0
 30
0.0
 11
1229.0
 21
520.0
 31
0.0
  0
LINE
  5
75
  8
MAßE
 62
   250
 10
1228.0
 20
0.0
 30
0.0
 11
1229.0
 21
0.0
 31
0.0
  0
LINE
  5
76
  8
MAßE
 62
   250
 10
1228.0
 20
520.0
 30
0.0
 11
1229.0
 21
520.0
 31
0.0
  0
INSERT
  5
77
  8
MAßE
 62
   250
  2
_CCMPFL2
 10
1229.0
 20
0.0
 30
0.0
 41
22.0
 42
22.0
 43
22.0
 50
270.0
  0
INSERT
  5
78
  8
MAßE
 62
   250
  2
_CCMPFL2
 10
1229.0
 20
520.0
 30
0.0
 41
22.0
 42
22.0
 43
22.0
 50
90.0
  0
TEXT
  5
79
  8
MAßE
 62
   250
 10
1220.5666666666671
 20
237.90000000000001
 30
0.0
 40
22.0
  1
520
 50
90.0
 11
1227.9000000000001
 21
237.90000000000001
 31
0.0
 73
     1
  0
ENDBLK
  5
7A
  8
0
  0
BLOCK
  8
0
  2
*D9
 70
     1
 10
0.0
 20
0.0
 30
0.0
  3
*D9
  1

  0
LINE
  5
7D
  8
MAßE
 62
   250
 10
645.0
 20
445.5
 30
0.0
 11
645.0
 21
480.49999999999989
 31
0.0
  0
LINE
  5
7E
  8
MAßE
 62
   250
 10
645.0
 20
456.0
 30
0.0
 11
608.0
 21
456.0
 31
0.0
  0
LINE
  5
7F
  8
MAßE
 62
   250
 10
675.0
 20
445.5
 30
0.0
 11
645.0
 21
445.5
 31
0.0
  0
LINE
  5
80
  8
MAßE
 62
   250
 10
675.0
 20
480.49999999999989
 30
0.0
 11
645.0
 21
480.49999999999989
 31
0.0
  0
INSERT
  5
81
  8
MAßE
 62
   250
  2
_CCMPFL2
 10
645.0
 20
445.5
 30
0.0
 41
22.0
 42
22.0
 43
22.0
 50
90.0
  0
INSERT
  5
82
  8
MAßE
 62
   250
  2
_CCMPFL2
 10
645.0
 20
480.49999999999989
 30
0.0
 41
22.0
 42
22.0
 43
22.0
 50
270.0
  0
TEXT
  5
83
  8
MAßE
 62
   250
 10
608.0
 20
465.43333333333328
 30
0.0
 40
22.0
  1
35
 11
608.0
 21
458.10000000000002
 31
0.0
 73
     1
  0
ENDBLK
  5
84
  8
0
  0
BLOCK
  8
0
  2
*D10
 70
     1
 10
0.0
 20
0.0
 30
0.0
  3
*D10
  1

  0
LINE
  5
87
  8
MAßE
 62
   250
 10
803.0
 20
190.0
 30
0.0
 11
803.0
 21
463.0
 31
0.0
  0
LINE
  5
88
  8
MAßE
 62
   250
 10
739.0
 20
190.0
 30
0.0
 11
803.0
 21
190.0
 31
0.0
  0
LINE
  5
89
  8
MAßE
 62
   250
 10
739.0
 20
463.0
 30
0.0
 11
803.0
 21
463.0
 31
0.0
  0
INSERT
  5
8A
  8
MAßE
 62
   250
  2
_CCMPFL2
 10
803.0
 20
190.0
 30
0.0
 41
22.0
 42
22.0
 43
22.0
 50
270.0
  0
INSERT
  5
8B
  8
MAßE
 62
   250
  2
_CCMPFL2
 10
803.0
 20
463.0
 30
0.0
 41
22.0
 42
22.0
 43
22.0
 50
90.0
  0
TEXT
  5
8C
  8
MAßE
 62
   250
 10
794.56666666666649
 20
304.39999999999998
 30
0.0
 40
22.0
  1
273
 50
90.0
 11
801.89999999999998
 21
304.39999999999998
 31
0.0
 73
     1
  0
ENDBLK
  5
8D
  8
0
  0
BLOCK
  8
0
  2
*D11
 70
     1
 10
0.0
 20
0.0
 30
0.0
  3
*D11
  1

  0
LINE
  5
90
  8
MAßE
 62
   250
 10
803.0
 20
0.0
 30
0.0
 11
803.0
 21
190.0
 31
0.0
  0
LINE
  5
91
  8
MAßE
 62
   250
 10
741.0
 20
0.0
 30
0.0
 11
803.0
 21
0.0
 31
0.0
  0
LINE
  5
92
  8
MAßE
 62
   250
 10
741.0
 20
190.0
 30
0.0
 11
803.0
 21
190.0
 31
0.0
  0
INSERT
  5
93
  8
MAßE
 62
   250
  2
_CCMPFL2
 10
803.0
 20
0.0
 30
0.0
 41
22.0
 42
22.0
 43
22.0
 50
270.0
  0
INSERT
  5
94
  8
MAßE
 62
   250
  2
_CCMPFL2
 10
803.0
 20
190.0
 30
0.0
 41
22.0
 42
22.0
 43
22.0
 50
90.0
  0
TEXT
  5
95
  8
MAßE
 62
   250
 10
794.56666666666649
 20
72.900000000000006
 30
0.0
 40
22.0
  1
190
 50
90.0
 11
801.89999999999998
 21
72.900000000000006
 31
0.0
 73
     1
  0
ENDBLK
  5
96
  8
0
  0
BLOCK
  8
0
  2
*D12
 70
     1
 10
0.0
 20
0.0
 30
0.0
  3
*D12
  1

  0
LINE
  5
99
  8
MAßE
 62
   250
 10
272.0
 20
-42.0
 30
0.0
 11
1128.0
 21
-42.0
 31
0.0
  0
LINE
  5
9A
  8
MAßE
 62
   250
 10
272.0
 20
142.0
 30
0.0
 11
272.0
 21
-42.0
 31
0.0
  0
LINE
  5
9B
  8
MAßE
 62
   250
 10
1128.0
 20
142.0
 30
0.0
 11
1128.0
 21
-42.0
 31
0.0
  0
INSERT
  5
9C
  8
MAßE
 62
   250
  2
_CCMPFL2
 10
272.0
 20
-42.0
 30
0.0
 41
22.0
 42
22.0
 43
22.0
 50
180.0
  0
INSERT
  5
9D
  8
MAßE
 62
   250
  2
_CCMPFL2
 10
1128.0
 20
-42.0
 30
0.0
 41
22.0
 42
22.0
 43
22.0
  0
TEXT
  5
9E
  8
MAßE
 62
   250
 10
676.89999999999998
 20
-32.566666666666663
 30
0.0
 40
22.0
  1
856
 11
676.89999999999998
 21
-39.899999999999999
 31
0.0
 73
     1
  0
ENDBLK
  5
9F
  8
0
  0
BLOCK
  8
0
  2
*D13
 70
     1
 10
0.0
 20
0.0
 30
0.0
  3
*D13
  1

  0
LINE
  5
A2
  8
MAßE
 62
   250
 10
211.0
 20
15.0
 30
0.0
 11
211.0
 21
365.0
 31
0.0
  0
LINE
  5
A3
  8
MAßE
 62
   250
 10
560.0
 20
15.0
 30
0.0
 11
211.0
 21
15.0
 31
0.0
  0
LINE
  5
A4
  8
MAßE
 62
   250
 10
560.0
 20
365.0
 30
0.0
 11
211.0
 21
365.0
 31
0.0
  0
INSERT
  5
A5
  8
MAßE
 62
   250
  2
_CCMPFL2
 10
211.0
 20
15.0
 30
0.0
 41
22.0
 42
22.0
 43
22.0
 50
270.0
  0
INSERT
  5
A6
  8
MAßE
 62
   250
  2
_CCMPFL2
 10
211.0
 20
365.0
 30
0.0
 41
22.0
 42
22.0
 43
22.0
 50
90.0
  0
TEXT
  5
A7
  8
MAßE
 62
   250
 10
202.56666666666661
 20
167.90000000000001
 30
0.0
 40
22.0
  1
350
 50
90.0
 11
209.90000000000001
 21
167.90000000000001
 31
0.0
 73
     1
  0
ENDBLK
  5
A8
  8
0
  0
BLOCK
  8
0
  2
CUSTINFO
 70
     0
 10
0.0
 20
0.0
 30
0.0
  3
CUSTINFO
  1
CUSTINFO
  0
ENDBLK
  5
DE
  8
0
  0
BLOCK
  8
0
  2
CADT_STATUS
 70
     2
 10
0.0
 20
0.0
 30
0.0
  3
CADT_STATUS
  1
CADT_STATUS
  0
ATTDEF
  5
E3
  8
CUSTINFO
 10
0.0
 20
0.0
 30
0.0
 40
3.0
  1

  3
Dummy
  2
X1
 70
     1
  0
ENDBLK
  5
E4
  8
0
  0
ENDSEC
  0
SECTION
  2
ENTITIES
  0
ARC
  5
A9
  8
KONSTRUKTION
 10
1055.5880689999999
 20
190.0
 30
0.0
 40
72.41193100000001
 50
346.297482
 51
13.702518
  0
ARC
  5
AA
  8
KONSTRUKTION
 10
1040.202998
 20
186.248808
 30
0.0
 40
88.247707999999989
 50
13.702518
 51
38.181733000000001
  0
ARC
  5
AB
  8
KONSTRUKTION
 10
967.88932299999988
 20
129.38087899999999
 30
0.0
 40
180.243517
 50
38.181733000000001
 51
52.561007999999987
  0
ARC
  5
AC
  8
KONSTRUKTION
 10
917.89416400000005
 20
64.082072999999994
 30
0.0
 40
262.48371500000002
 50
52.561007999999987
 51
63.110460999999987
  0
ARC
  5
AD
  8
KONSTRUKTION
 10
823.71072000000004
 20
-121.58725699999999
 30
0.0
 40
470.67502399999989
 50
63.107135
 51
71.602587999999997
  0
ARC
  5
AE
  8
KONSTRUKTION
 10
757.98100499999987
 20
-319.13022799999999
 30
0.0
 40
678.86633300000005
 50
71.600519999999989
 51
77.772755000000004
  0
ARC
  5
AF
  8
KONSTRUKTION
 10
719.25802999999985
 20
-497.819658
 30
0.0
 40
861.70336699999984
 50
77.772755000000004
 51
83.002104000000003
  0
ARC
  5
B0
  8
KONSTRUKTION
 10
701.49121600000001
 20
-642.56269499999985
 30
0.0
 40
1007.532741
 50
83.002104000000003
 51
87.69851899999999
  0
ARC
  5
B1
  8
KONSTRUKTION
 10
700.0
 20
-679.66681900000003
 30
0.0
 40
1044.666819
 50
87.69851899999999
 51
92.301480999999995
  0
ARC
  5
B2
  8
KONSTRUKTION
 10
698.50878399999999
 20
-642.56269499999985
 30
0.0
 40
1007.532741
 50
92.301480999999995
 51
96.997895999999983
  0
ARC
  5
B3
  8
KONSTRUKTION
 10
680.74197000000004
 20
-497.819658
 30
0.0
 40
861.70336699999984
 50
96.997895999999983
 51
102.227245
  0
ARC
  5
B4
  8
KONSTRUKTION
 10
642.01899500000002
 20
-319.13022799999999
 30
0.0
 40
678.86633300000005
 50
102.227245
 51
108.404155
  0
ARC
  5
B5
  8
KONSTRUKTION
 10
576.28927999999985
 20
-121.58725699999999
 30
0.0
 40
470.67502399999989
 50
108.404155
 51
116.897059
  0
ARC
  5
B6
  8
KONSTRUKTION
 10
482.10583600000001
 20
64.082072999999994
 30
0.0
 40
262.48371500000002
 50
116.897058
 51
127.438992
  0
ARC
  5
B7
  8
KONSTRUKTION
 10
432.1106769999999
 20
129.38087899999999
 30
0.0
 40
180.243517
 50
127.438992
 51
141.81826699999999
  0
ARC
  5
B8
  8
KONSTRUKTION
 10
359.79700200000002
 20
186.248808
 30
0.0
 40
88.247707999999989
 50
141.81826699999999
 51
166.297482
  0
ARC
  5
B9
  8
KONSTRUKTION
 10
344.41193099999998
 20
190.0
 30
0.0
 40
72.41193100000001
 50
166.297482
 51
193.702518
  0
ARC
  5
BA
  8
KONSTRUKTION
 10
359.79700200000002
 20
193.751192
 30
0.0
 40
88.247707999999989
 50
193.702518
 51
218.18173300000001
  0
ARC
  5
BB
  8
KONSTRUKTION
 10
432.1106769999999
 20
250.61912100000001
 30
0.0
 40
180.243517
 50
218.18173300000001
 51
232.56100799999999
  0
ARC
  5
BC
  8
KONSTRUKTION
 10
482.10583600000001
 20
315.91792700000002
 30
0.0
 40
262.48371500000002
 50
232.56100799999999
 51
243.10293899999999
  0
ARC
  5
BD
  8
KONSTRUKTION
 10
576.28927999999985
 20
501.58725699999991
 30
0.0
 40
470.67502399999989
 50
243.10293999999999
 51
251.5891
  0
ARC
  5
BE
  8
KONSTRUKTION
 10
642.01899500000002
 20
699.13022799999999
 30
0.0
 40
678.86633300000005
 50
251.59116800000001
 51
257.77275500000002
  0
ARC
  5
BF
  8
KONSTRUKTION
 10
680.74197000000004
 20
877.81965799999989
 30
0.0
 40
861.70336699999984
 50
257.77275500000002
 51
263.00210399999997
  0
ARC
  5
C0
  8
KONSTRUKTION
 10
698.50878399999999
 20
1022.562695
 30
0.0
 40
1007.532741
 50
263.00210399999997
 51
267.69851899999998
  0
ARC
  5
C1
  8
KONSTRUKTION
 10
700.0
 20
1059.666819
 30
0.0
 40
1044.666819
 50
267.69851899999998
 51
272.30148100000002
  0
ARC
  5
C2
  8
KONSTRUKTION
 10
701.49121600000001
 20
1022.562695
 30
0.0
 40
1007.532741
 50
272.30148100000002
 51
276.99789599999991
  0
ARC
  5
C3
  8
KONSTRUKTION
 10
719.25802999999985
 20
877.81965799999989
 30
0.0
 40
861.70336699999984
 50
276.99789599999991
 51
282.22724499999998
  0
ARC
  5
C4
  8
KONSTRUKTION
 10
757.98100499999987
 20
699.13022799999999
 30
0.0
 40
678.86633300000005
 50
282.22724499999998
 51
288.40883200000002
  0
ARC
  5
C5
  8
KONSTRUKTION
 10
823.71072000000004
 20
501.58725699999991
 30
0.0
 40
470.67502399999989
 50
288.41090000000003
 51
296.901253
  0
ARC
  5
C6
  8
KONSTRUKTION
 10
917.89416400000005
 20
315.91792700000002
 30
0.0
 40
262.48371500000002
 50
296.90457900000001
 51
307.43899199999998
  0
ARC
  5
C7
  8
KONSTRUKTION
 10
967.88932299999988
 20
250.61912100000001
 30
0.0
 40
180.243517
 50
307.43899199999998
 51
321.81826699999999
  0
ARC
  5
C8
  8
KONSTRUKTION
 10
1040.202998
 20
193.751192
 30
0.0
 40
88.247707999999989
 50
321.81826699999999
 51
346.297482
  0
LINE
  5
CE
  8
KONSTRUKTION
 10
1128.0
 20
190.0
 30
0.0
 11
1128.0
 21
190.0
 31
0.0
  0
POINT
  5
D0
  8
KONSTRUKTION
 62
   250
 10
700.0
 20
190.0
 30
0.0
  0
DIMENSION
  5
D5
  8
MAßE
 62
   250
  2
*D12
 10
1020.0
 20
-42.0
 30
0.0
 11
1020.0
 21
-37.0
 31
0.0
 70
     1
  1
<>
 13
272.0
 23
142.0
 33
0.0
 14
1128.0
 24
142.0
 34
0.0
  0
DIMENSION
  5
D6
  8
MAßE
 62
   250
  2
*D13
 10
211.0
 20
107.0
 30
0.0
 11
211.0
 21
112.0
 31
0.0
 70
     1
  1
<>
 13
560.0
 23
365.0
 33
0.0
 14
560.0
 24
15.0
 34
0.0
  0
TEXT
  5
D7
  8
KONSTRUKTION
 62
   250
 10
573.81467746925955
 20
404.0
 30
0.0
 40
35.0
  1
BPF-703
  0
INSERT
  5
E0
  8
CUSTINFO
  6
CONTINUOUS
  2
CUSTINFO
 10
0.0
 20
0.0
 30
0.0
1001
CADT_DFLTEL
1000
dfltel
1000
{
1000
0
1000
50
1000
770
1000
820
1000
1350
1000
2250
1000
2600
1000
}
1001
CADT_UNIT
1000
MM
  0
INSERT
  5
E5
  8
CUSTINFO
  2
CADT_STATUS
 10
0.0
 20
0.0
 30
0.0
  0
ENDSEC
  0
EOF