  0
SECTION
  2
HEADER
  9
$ACADVER
  1
AC1009
  9
$INSBASE
 10
0.0
 20
0.0
 30
0.0
  9
$EXTMIN
 10
0.0
 20
0.0
 30
0.0
  9
$EXTMAX
 10
1000.0
 20
520.0
 30
0.0
  9
$LIMMIN
 10
-10.0
 20
-10.0
  9
$LIMMAX
 10
1010.0
 20
530.0
  9
$ORTHOMODE
 70
     0
  9
$REGENMODE
 70
     1
  9
$FILLMODE
 70
     1
  9
$QTEXTMODE
 70
     0
  9
$MIRRTEXT
 70
     0
  9
$DRAGMODE
 70
     2
  9
$LTSCALE
 40
300.0
  9
$OSMODE
 70
   163
  9
$ATTMODE
 70
     1
  9
$TEXTSIZE
 40
0.2
  9
$TRACEWID
 40
0.05
  9
$TEXTSTYLE
  7
STANDARD
  9
$CLAYER
  8
0
  9
$CELTYPE
  6
BYLAYER
  9
$CECOLOR
 62
   256
  9
$DIMSCALE
 40
1.0
  9
$DIMASZ
 40
1.0
  9
$DIMEXO
 40
4.4000000000000004
  9
$DIMDLI
 40
33.0
  9
$DIMRND
 40
0.0
  9
$DIMDLE
 40
0.0
  9
$DIMEXE
 40
11.0
  9
$DIMTP
 40
0.0
  9
$DIMTM
 40
0.0
  9
$DIMTXT
 40
22.0
  9
$DIMCEN
 40
22.0
  9
$DIMTSZ
 40
0.0
  9
$DIMTOL
 70
     0
  9
$DIMLIM
 70
     0
  9
$DIMTIH
 70
     0
  9
$DIMTOH
 70
     0
  9
$DIMSE1
 70
     0
  9
$DIMSE2
 70
     0
  9
$DIMTAD
 70
     1
  9
$DIMZIN
 70
     8
  9
$DIMBLK
  1
_CCMPFL2
  9
$DIMASO
 70
     1
  9
$DIMSHO
 70
     1
  9
$DIMPOST
  1

  9
$DIMAPOST
  1

  9
$DIMALT
 70
     0
  9
$DIMALTD
 70
     3
  9
$DIMALTF
 40
1.0
  9
$DIMLFAC
 40
1.0
  9
$DIMTOFL
 70
     0
  9
$DIMTVP
 40
0.0
  9
$DIMTIX
 70
     1
  9
$DIMSOXD
 70
     0
  9
$DIMSAH
 70
     0
  9
$DIMBLK1
  1

  9
$DIMBLK2
  1

  9
$DIMSTYLE
  2
CCSTANDARD
  9
$DIMCLRD
 70
     0
  9
$DIMCLRE
 70
     0
  9
$DIMCLRT
 70
     0
  9
$DIMTFAC
 40
1.0
  9
$DIMGAP
 40
4.4000000000000004
  9
$LUNITS
 70
     2
  9
$LUPREC
 70
     4
  9
$SKETCHINC
 40
0.1
  9
$FILLETRAD
 40
0.0
  9
$AUNITS
 70
     0
  9
$AUPREC
 70
     0
  9
$MENU
  1
.
  9
$ELEVATION
 40
0.0
  9
$PELEVATION
 40
0.0
  9
$THICKNESS
 40
0.0
  9
$LIMCHECK
 70
     0
  9
$BLIPMODE
 70
     0
  9
$CHAMFERA
 40
0.0
  9
$CHAMFERB
 40
0.0
  9
$SKPOLY
 70
     0
  9
$TDCREATE
 40
2454652.4603835298
  9
$TDUPDATE
 40
2454652.4607086922
  9
$TDINDWG
 40
0.00032625
  9
$TDUSRTIMER
 40
0.00032625
  9
$USRTIMER
 70
     1
  9
$ANGBASE
 50
0.0
  9
$ANGDIR
 70
     0
  9
$PDMODE
 70
    32
  9
$PDSIZE
 40
0.0
  9
$PLINEWID
 40
0.0
  9
$COORDS
 70
     1
  9
$SPLFRAME
 70
     0
  9
$SPLINETYPE
 70
     6
  9
$SPLINESEGS
 70
     8
  9
$ATTDIA
 70
     0
  9
$ATTREQ
 70
     1
  9
$HANDLING
 70
     1
  9
$HANDSEED
  5
DA
  9
$SURFTAB1
 70
    10
  9
$SURFTAB2
 70
     6
  9
$SURFTYPE
 70
     6
  9
$SURFU
 70
     6
  9
$SURFV
 70
     6
  9
$UCSNAME
  2

  9
$UCSORG
 10
0.0
 20
0.0
 30
0.0
  9
$UCSXDIR
 10
1.0
 20
0.0
 30
0.0
  9
$UCSYDIR
 10
0.0
 20
1.0
 30
0.0
  9
$PUCSNAME
  2

  9
$PUCSORG
 10
0.0
 20
0.0
 30
0.0
  9
$PUCSXDIR
 10
1.0
 20
0.0
 30
0.0
  9
$PUCSYDIR
 10
0.0
 20
1.0
 30
0.0
  9
$USERI1
 70
     0
  9
$USERI2
 70
     0
  9
$USERI3
 70
     0
  9
$USERI4
 70
     0
  9
$USERI5
 70
     0
  9
$USERR1
 40
10.0
  9
$USERR2
 40
0.0
  9
$USERR3
 40
0.0
  9
$USERR4
 40
0.0
  9
$USERR5
 40
0.0
  9
$WORLDVIEW
 70
     0
  9
$SHADEDGE
 70
     1
  9
$SHADEDIF
 70
    70
  9
$TILEMODE
 70
     1
  9
$MAXACTVP
 70
    64
  9
$PLIMCHECK
 70
     0
  9
$PEXTMIN
 10
1.0000000000000000E+020
 20
1.0000000000000000E+020
 30
1.0000000000000000E+020
  9
$PEXTMAX
 10
-1.0000000000000000E+020
 20
-1.0000000000000000E+020
 30
-1.0000000000000000E+020
  9
$PLIMMIN
 10
0.0
 20
0.0
  9
$PLIMMAX
 10
12.0
 20
9.0
  9
$UNITMODE
 70
     0
  9
$VISRETAIN
 70
     1
  9
$PLINEGEN
 70
     0
  9
$PSLTSCALE
 70
     1
  0
ENDSEC
  0
SECTION
  2
TABLES
  0
TABLE
  2
VPORT
 70
     1
  0
VPORT
  2
*ACTIVE
 70
     0
 10
0.0
 20
0.0
 11
1.0
 21
1.0
 12
282.8561403163298
 22
367.86553116829248
 13
0.0
 23
0.0
 14
1.0
 24
1.0
 15
0.0
 25
0.0
 16
0.0
 26
0.0
 36
1.0
 17
0.0
 27
0.0
 37
0.0
 40
1243.653124103643
 41
1.318421052631578
 42
50.0
 43
0.0
 44
0.0
 50
0.0
 51
0.0
 71
     0
 72
   100
 73
     1
 74
     1
 75
     0
 76
     0
 77
     0
 78
     0
  0
ENDTAB
  0
TABLE
  2
LTYPE
 70
     5
  0
LTYPE
  2
CONTINUOUS
 70
     0
  3
Solid Line
 72
    65
 73
     0
 40
0.0
  0
LTYPE
  2
_CCDASHED
 70
     0
  3
__ __ __ __ __ __ __ __ 
 72
    65
 73
     2
 40
0.75
 49
0.5
 49
-0.25
  0
LTYPE
  2
_CCDASHED2
 70
     0
  3
_ _ _ _ _ _ _ _ _ _ _ _ 
 72
    65
 73
     2
 40
0.375
 49
0.25
 49
-0.125
  0
LTYPE
  2
_CCCENTER
 70
     0
  3
___ _ ___ _ ___ _ ___ _ 
 72
    65
 73
     4
 40
1.125
 49
0.75
 49
-0.125
 49
0.125
 49
-0.125
  0
LTYPE
  2
_CCDIVIDE
 70
     0
  3
___ _ _ ___ _ _ ___ _ _ 
 72
    65
 73
     6
 40
1.375
 49
0.75
 49
-0.125
 49
0.125
 49
-0.125
 49
0.125
 49
-0.125
  0
ENDTAB
  0
TABLE
  2
LAYER
 70
     7
  0
LAYER
  2
0
 70
     0
 62
     8
  6
CONTINUOUS
  0
LAYER
  2
WERKSTUECK
 70
     0
 62
     8
  6
CONTINUOUS
  0
LAYER
  2
KONSTRUKTION
 70
     0
 62
     8
  6
CONTINUOUS
  0
LAYER
  2
NC-PROGRAMM
 70
     0
 62
     8
  6
CONTINUOUS
  0
LAYER
  2
MAßE
 70
     0
 62
     7
  6
CONTINUOUS
  0
LAYER
  2
DIMENSION
 70
     0
 62
     7
  6
CONTINUOUS
  0
LAYER
  2
CUSTINFO
 70
     0
 62
     7
  6
CONTINUOUS
  0
ENDTAB
  0
TABLE
  2
STYLE
 70
     1
  0
STYLE
  2
STANDARD
 70
     0
 40
0.0
 41
1.0
 50
0.0
 71
     0
 42
0.2
  3
txt
  4

  0
ENDTAB
  0
TABLE
  2
VIEW
 70
     0
  0
ENDTAB
  0
TABLE
  2
UCS
 70
     0
  0
ENDTAB
  0
TABLE
  2
APPID
 70
     6
  0
APPID
  2
ACAD
 70
     0
  0
APPID
  2
CADT-VIS-MAPPING
 70
     0
  0
APPID
  2
CADT-LAYMAT
 70
     0
  0
APPID
  2
CADT_UNIT
 70
     0
  0
APPID
  2
CADT_DFLTEL
 70
     0
  0
APPID
  2
_CADT_PPS
 70
     0
  0
ENDTAB
  0
TABLE
  2
DIMSTYLE
 70
     1
  0
DIMSTYLE
  2
CCSTANDARD
 70
     0
  3

  4

  5

  6

  7

 40
1.0
 41
22.0
 42
4.4000000000000004
 43
33.0
 44
11.0
 45
0.0
 46
0.0
 47
0.0
 48
0.0
140
22.0
141
22.0
142
0.0
143
0.0394
144
1.0
145
0.0
146
1.0
147
4.4000000000000004
 71
     0
 72
     0
 73
     0
 74
     0
 75
     0
 76
     0
 77
     1
 78
     8
170
     0
171
     3
172
     0
173
     0
174
     0
175
     0
176
     0
177
     0
178
     0
  0
ENDTAB
  0
ENDSEC
  0
SECTION
  2
BLOCKS
  0
BLOCK
  8
0
  2
$MODEL_SPACE
 70
     0
 10
0.0
 20
0.0
 30
0.0
  3
$MODEL_SPACE
  1

  0
ENDBLK
  5
38
  8
0
  0
BLOCK
 67
     1
  8
0
  2
$PAPER_SPACE
 70
     0
 10
0.0
 20
0.0
 30
0.0
  3
$PAPER_SPACE
  1

  0
ENDBLK
  5
34
 67
     1
  8
0
  0
BLOCK
  8
0
  2
_CCMPFL0
 70
     0
 10
0.0
 20
0.0
 30
0.0
  3
_CCMPFL0
  1

  0
CIRCLE
  5
47
  8
MAßE
 62
   250
 10
0.0
 20
0.0
 30
0.0
 40
0.025
  0
ENDBLK
  5
48
  8
0
  0
BLOCK
  8
0
  2
_CCMPFL1
 70
     0
 10
0.0
 20
0.0
 30
0.0
  3
_CCMPFL1
  1

  0
LINE
  5
4B
  8
MAßE
 62
   250
 10
-1.0
 20
0.17
 30
0.0
 11
0.0
 21
0.0
 31
0.0
  0
LINE
  5
4C
  8
MAßE
 62
   250
 10
-1.0
 20
-0.17
 30
0.0
 11
0.0
 21
0.0
 31
0.0
  0
LINE
  5
4D
  8
MAßE
 62
   250
 10
-1.0
 20
0.0
 30
0.0
 11
0.0
 21
0.0
 31
0.0
  0
ENDBLK
  5
4E
  8
0
  0
BLOCK
  8
0
  2
_CCMPFL2
 70
     0
 10
0.0
 20
0.0
 30
0.0
  3
_CCMPFL2
  1

  0
SOLID
  5
51
  8
MAßE
 62
   250
 10
-1.0
 20
0.17
 30
0.0
 11
0.0
 21
0.0
 31
0.0
 12
-0.6600000000000001
 22
0.0
 32
0.0
 13
-1.0
 23
-0.17
 33
0.0
  0
LINE
  5
52
  8
MAßE
 62
   250
 10
-1.0
 20
0.0
 30
0.0
 11
0.0
 21
0.0
 31
0.0
  0
ENDBLK
  5
53
  8
0
  0
BLOCK
  8
0
  2
_CCMPFL3
 70
     0
 10
0.0
 20
0.0
 30
0.0
  3
_CCMPFL3
  1

  0
LINE
  5
56
  8
MAßE
 62
   250
 10
-1.0
 20
0.17
 30
0.0
 11
0.0
 21
0.0
 31
0.0
  0
LINE
  5
57
  8
MAßE
 62
   250
 10
-1.0
 20
-0.17
 30
0.0
 11
0.0
 21
0.0
 31
0.0
  0
LINE
  5
58
  8
MAßE
 62
   250
 10
-1.0
 20
-0.17
 30
0.0
 11
-1.0
 21
0.17
 31
0.0
  0
LINE
  5
59
  8
MAßE
 62
   250
 10
-1.0
 20
0.0
 30
0.0
 11
0.0
 21
0.0
 31
0.0
  0
ENDBLK
  5
5A
  8
0
  0
BLOCK
  8
0
  2
_CCMPFL4
 70
     0
 10
0.0
 20
0.0
 30
0.0
  3
_CCMPFL4
  1

  0
SOLID
  5
5E
  8
DIMENSION
 62
   250
 10
-1.0
 20
0.17
 30
0.0
 11
0.0
 21
0.0
 31
0.0
 12
-1.0
 22
0.0
 32
0.0
 13
-1.0
 23
-0.17
 33
0.0
  0
ENDBLK
  5
5F
  8
0
  0
BLOCK
  8
0
  2
_CCMPFL5
 70
     0
 10
0.0
 20
0.0
 30
0.0
  3
_CCMPFL5
  1

  0
LINE
  5
62
  8
MAßE
 62
   250
 10
-0.5
 20
-0.5
 30
0.0
 11
0.5
 21
0.5
 31
0.0
  0
LINE
  5
63
  8
MAßE
 62
   250
 10
-1.0
 20
0.0
 30
0.0
 11
0.0
 21
0.0
 31
0.0
  0
ENDBLK
  5
64
  8
0
  0
BLOCK
  8
0
  2
_CCMPFL6
 70
     0
 10
0.0
 20
0.0
 30
0.0
  3
_CCMPFL6
  1

  0
CIRCLE
  5
67
  8
MAßE
 62
   250
 10
0.0
 20
0.0
 30
0.0
 40
0.5
  0
LINE
  5
68
  8
MAßE
 62
   250
 10
-1.0
 20
0.0
 30
0.0
 11
0.0
 21
0.0
 31
0.0
  0
ENDBLK
  5
69
  8
0
  0
BLOCK
  8
0
  2
_CCMPFL7
 70
     0
 10
0.0
 20
0.0
 30
0.0
  3
_CCMPFL7
  1

  0
POLYLINE
  5
6C
  8
MAßE
 62
   250
 66
     1
 10
0.0
 20
0.0
 30
0.0
 70
     1
 40
0.5
 41
0.5
  0
VERTEX
  5
D7
  8
MAßE
 62
   250
 10
-0.25
 20
0.0
 30
0.0
 42
1.0
  0
VERTEX
  5
D8
  8
MAßE
 62
   250
 10
0.25
 20
0.0
 30
0.0
 42
1.0
  0
SEQEND
  5
D9
  8
MAßE
 62
   250
  0
LINE
  5
70
  8
MAßE
 62
   250
 10
-1.0
 20
0.0
 30
0.0
 11
0.0
 21
0.0
 31
0.0
  0
ENDBLK
  5
71
  8
0
  0
BLOCK
  8
0
  2
*D8
 70
     1
 10
0.0
 20
0.0
 30
0.0
  3
*D8
  1

  0
LINE
  5
74
  8
MAßE
 62
   250
 10
673.0
 20
133.0
 30
0.0
 11
673.0
 21
345.5
 31
0.0
  0
LINE
  5
75
  8
MAßE
 62
   250
 10
543.0
 20
133.0
 30
0.0
 11
673.0
 21
133.0
 31
0.0
  0
LINE
  5
76
  8
MAßE
 62
   250
 10
543.0
 20
345.5
 30
0.0
 11
673.0
 21
345.5
 31
0.0
  0
INSERT
  5
77
  8
MAßE
 62
   250
  2
_CCMPFL2
 10
673.0
 20
133.0
 30
0.0
 41
22.0
 42
22.0
 43
22.0
 50
270.0
  0
INSERT
  5
78
  8
MAßE
 62
   250
  2
_CCMPFL2
 10
673.0
 20
345.5
 30
0.0
 41
22.0
 42
22.0
 43
22.0
 50
90.0
  0
TEXT
  5
79
  8
MAßE
 62
   250
 10
664.56666666666661
 20
201.75
 30
0.0
 40
22.0
  1
212.5
 50
90.0
 11
671.89999999999998
 21
201.75
 31
0.0
 73
     1
  0
ENDBLK
  5
7A
  8
0
  0
BLOCK
  8
0
  2
*D9
 70
     1
 10
0.0
 20
0.0
 30
0.0
  3
*D9
  1

  0
LINE
  5
7D
  8
MAßE
 62
   250
 10
673.0
 20
0.0
 30
0.0
 11
673.0
 21
133.0
 31
0.0
  0
LINE
  5
7E
  8
MAßE
 62
   250
 10
674.0
 20
0.0
 30
0.0
 11
673.0
 21
0.0
 31
0.0
  0
LINE
  5
7F
  8
MAßE
 62
   250
 10
674.0
 20
133.0
 30
0.0
 11
673.0
 21
133.0
 31
0.0
  0
INSERT
  5
80
  8
MAßE
 62
   250
  2
_CCMPFL2
 10
673.0
 20
0.0
 30
0.0
 41
22.0
 42
22.0
 43
22.0
 50
270.0
  0
INSERT
  5
81
  8
MAßE
 62
   250
  2
_CCMPFL2
 10
673.0
 20
133.0
 30
0.0
 41
22.0
 42
22.0
 43
22.0
 50
90.0
  0
TEXT
  5
82
  8
MAßE
 62
   250
 10
664.56666666666661
 20
44.399999999999999
 30
0.0
 40
22.0
  1
133
 50
90.0
 11
671.89999999999998
 21
44.399999999999999
 31
0.0
 73
     1
  0
ENDBLK
  5
83
  8
0
  0
BLOCK
  8
0
  2
*D10
 70
     1
 10
0.0
 20
0.0
 30
0.0
  3
*D10
  1

  0
LINE
  5
86
  8
MAßE
 62
   250
 10
348.0
 20
19.0
 30
0.0
 11
348.0
 21
247.0
 31
0.0
  0
LINE
  5
87
  8
MAßE
 62
   250
 10
447.0
 20
19.0
 30
0.0
 11
348.0
 21
19.0
 31
0.0
  0
LINE
  5
88
  8
MAßE
 62
   250
 10
447.0
 20
247.0
 30
0.0
 11
348.0
 21
247.0
 31
0.0
  0
INSERT
  5
89
  8
MAßE
 62
   250
  2
_CCMPFL2
 10
348.0
 20
19.0
 30
0.0
 41
22.0
 42
22.0
 43
22.0
 50
270.0
  0
INSERT
  5
8A
  8
MAßE
 62
   250
  2
_CCMPFL2
 10
348.0
 20
247.0
 30
0.0
 41
22.0
 42
22.0
 43
22.0
 50
90.0
  0
TEXT
  5
8B
  8
MAßE
 62
   250
 10
339.56666666666672
 20
110.90000000000001
 30
0.0
 40
22.0
  1
228
 50
90.0
 11
346.89999999999998
 21
110.90000000000001
 31
0.0
 73
     1
  0
ENDBLK
  5
8C
  8
0
  0
BLOCK
  8
0
  2
*D11
 70
     1
 10
0.0
 20
0.0
 30
0.0
  3
*D11
  1

  0
LINE
  5
8F
  8
MAßE
 62
   250
 10
455.0
 20
328.0
 30
0.0
 11
455.0
 21
363.0
 31
0.0
  0
LINE
  5
90
  8
MAßE
 62
   250
 10
455.0
 20
337.0
 30
0.0
 11
419.0
 21
337.0
 31
0.0
  0
LINE
  5
91
  8
MAßE
 62
   250
 10
480.0
 20
328.0
 30
0.0
 11
455.0
 21
328.0
 31
0.0
  0
LINE
  5
92
  8
MAßE
 62
   250
 10
480.0
 20
363.0
 30
0.0
 11
455.0
 21
363.0
 31
0.0
  0
INSERT
  5
93
  8
MAßE
 62
   250
  2
_CCMPFL2
 10
455.0
 20
328.0
 30
0.0
 41
22.0
 42
22.0
 43
22.0
 50
90.0
  0
INSERT
  5
94
  8
MAßE
 62
   250
  2
_CCMPFL2
 10
455.0
 20
363.0
 30
0.0
 41
22.0
 42
22.0
 43
22.0
 50
270.0
  0
TEXT
  5
95
  8
MAßE
 62
   250
 10
419.0
 20
346.43333333333328
 30
0.0
 40
22.0
  1
35
 11
419.0
 21
339.10000000000002
 31
0.0
 73
     1
  0
ENDBLK
  5
96
  8
0
  0
BLOCK
  8
0
  2
*D12
 70
     1
 10
0.0
 20
0.0
 30
0.0
  3
*D12
  1

  0
LINE
  5
99
  8
MAßE
 62
   250
 10
920.0
 20
0.0
 30
0.0
 11
920.0
 21
520.0
 31
0.0
  0
LINE
  5
9A
  8
MAßE
 62
   250
 10
920.0
 20
0.0
 30
0.0
 11
920.0
 21
0.0
 31
0.0
  0
LINE
  5
9B
  8
MAßE
 62
   250
 10
920.0
 20
520.0
 30
0.0
 11
920.0
 21
520.0
 31
0.0
  0
INSERT
  5
9C
  8
MAßE
 62
   250
  2
_CCMPFL2
 10
920.0
 20
0.0
 30
0.0
 41
22.0
 42
22.0
 43
22.0
 50
270.0
  0
INSERT
  5
9D
  8
MAßE
 62
   250
  2
_CCMPFL2
 10
920.0
 20
520.0
 30
0.0
 41
22.0
 42
22.0
 43
22.0
 50
90.0
  0
TEXT
  5
9E
  8
MAßE
 62
   250
 10
911.56666666666649
 20
237.90000000000001
 30
0.0
 40
22.0
  1
520
 50
90.0
 11
918.89999999999998
 21
237.90000000000001
 31
0.0
 73
     1
  0
ENDBLK
  5
9F
  8
0
  0
BLOCK
  8
0
  2
CUSTINFO
 70
     0
 10
0.0
 20
0.0
 30
0.0
  3
CUSTINFO
  1
CUSTINFO
  0
ENDBLK
  5
B5
  8
0
  0
BLOCK
  8
0
  2
CADT_STATUS
 70
     2
 10
0.0
 20
0.0
 30
0.0
  3
CADT_STATUS
  1
CADT_STATUS
  0
ATTDEF
  5
BA
  8
CUSTINFO
 10
0.0
 20
0.0
 30
0.0
 40
3.0
  1

  3
Dummy
  2
X1
 70
     1
  0
ENDBLK
  5
BB
  8
0
  0
ENDSEC
  0
SECTION
  2
ENTITIES
  0
DIMENSION
  5
A2
  8
MAßE
 62
   250
  2
*D10
 10
348.0
 20
68.0
 30
0.0
 11
348.0
 21
73.0
 31
0.0
 70
     1
  1
<>
 13
447.0
 23
247.0
 33
0.0
 14
447.0
 24
19.0
 34
0.0
  0
CIRCLE
  5
A5
  8
KONSTRUKTION
 10
500.0
 20
133.0
 30
0.0
 40
114.0
  0
LINE
  5
A7
  8
KONSTRUKTION
 10
500.0
 20
363.0
 30
0.0
 11
500.0
 21
363.0
 31
0.0
  0
POINT
  5
AC
  8
KONSTRUKTION
 62
   250
 10
500.0
 20
133.0
 30
0.0
  0
TEXT
  5
AE
  8
KONSTRUKTION
 62
   250
 10
384.2109005285526
 20
362.0
 30
0.0
 40
35.0
  1
BPF-715
  0
INSERT
  5
B7
  8
CUSTINFO
  6
CONTINUOUS
  2
CUSTINFO
 10
0.0
 20
0.0
 30
0.0
1001
CADT_DFLTEL
1000
dfltel
1000
{
1000
0
1000
50
1000
770
1000
820
1000
1350
1000
2250
1000
2600
1000
}
1001
CADT_UNIT
1000
MM
  0
INSERT
  5
BC
  8
CUSTINFO
  2
CADT_STATUS
 10
0.0
 20
0.0
 30
0.0
  0
ENDSEC
  0
EOF