  0
SECTION
  2
HEADER
  9
$ACADVER
  1
AC1027
  9
$ACADMAINTVER
 70
   106
  9
$DWGCODEPAGE
  3
ANSI_1252
  9
$TITLE
  1
Vorlage für RK-Menü_v6
  9
$AUTHOR
  1
robert koch, cad-support, 2540 grenchen
  9
$COMMENTS
  1
Vorlage für RK-Menü_v6
  9
$LASTSAVEDBY
  1
pasc
  9
$CUSTOMPROPERTYTAG
  1
robert koch cad-support
  9
$CUSTOMPROPERTY
  1

  9
$CUSTOMPROPERTYTAG
  1
USERR2
  9
$CUSTOMPROPERTY
  1
0.01
  9
$REQUIREDVERSIONS
160
                 0
  9
$INSBASE
 10
0.0
 20
0.0
 30
0.0
  9
$EXTMIN
 10
-419.82656148382
 20
-203.2145419097869
 30
-0.0015258207003583
  9
$EXTMAX
 10
303.2417598528209
 20
559.3597149343564
 30
0.0000000349246037
  9
$LIMMIN
 10
0.0
 20
0.0
  9
$LIMMAX
 10
8410.0
 20
5940.0
  9
$ORTHOMODE
 70
     0
  9
$REGENMODE
 70
     1
  9
$FILLMODE
 70
     1
  9
$QTEXTMODE
 70
     0
  9
$MIRRTEXT
 70
     0
  9
$LTSCALE
 40
1.0
  9
$ATTMODE
 70
     1
  9
$TEXTSIZE
 40
2.5
  9
$TRACEWID
 40
0.05
  9
$TEXTSTYLE
  7
STANDARD
  9
$CLAYER
  8
BEM-2
  9
$CELTYPE
  6
BYLAYER
  9
$CECOLOR
 62
     7
  9
$CELTSCALE
 40
1.0
  9
$DISPSILH
 70
     0
  9
$DIMSCALE
 40
5.0
  9
$DIMASZ
 40
2.0
  9
$DIMEXO
 40
2.0
  9
$DIMDLI
 40
6.0
  9
$DIMRND
 40
0.0
  9
$DIMDLE
 40
1.0
  9
$DIMEXE
 40
1.0
  9
$DIMTP
 40
0.0
  9
$DIMTM
 40
0.0
  9
$DIMTXT
 40
3.0
  9
$DIMCEN
 40
0.0
  9
$DIMTSZ
 40
0.0
  9
$DIMTOL
 70
     0
  9
$DIMLIM
 70
     0
  9
$DIMTIH
 70
     0
  9
$DIMTOH
 70
     0
  9
$DIMSE1
 70
     0
  9
$DIMSE2
 70
     0
  9
$DIMTAD
 70
     1
  9
$DIMZIN
 70
     8
  9
$DIMBLK
  1

  9
$DIMASO
 70
     1
  9
$DIMSHO
 70
     1
  9
$DIMPOST
  1

  9
$DIMAPOST
  1

  9
$DIMALT
 70
     0
  9
$DIMALTD
 70
     2
  9
$DIMALTF
 40
0.03937
  9
$DIMLFAC
 40
1.0
  9
$DIMTOFL
 70
     1
  9
$DIMTVP
 40
0.0
  9
$DIMTIX
 70
     1
  9
$DIMSOXD
 70
     0
  9
$DIMSAH
 70
     1
  9
$DIMBLK1
  1
OBLIQUE
  9
$DIMBLK2
  1
OBLIQUE
  9
$DIMSTYLE
  2
BEM-5
  9
$DIMCLRD
 70
    10
  9
$DIMCLRE
 70
    10
  9
$DIMCLRT
 70
     7
  9
$DIMTFAC
 40
1.0
  9
$DIMGAP
 40
1.0
  9
$DIMJUST
 70
     0
  9
$DIMSD1
 70
     0
  9
$DIMSD2
 70
     0
  9
$DIMTOLJ
 70
     1
  9
$DIMTZIN
 70
     8
  9
$DIMALTZ
 70
     0
  9
$DIMALTTZ
 70
     0
  9
$DIMUPT
 70
     0
  9
$DIMDEC
 70
     1
  9
$DIMTDEC
 70
     1
  9
$DIMALTU
 70
     2
  9
$DIMALTTD
 70
     2
  9
$DIMTXSTY
  7
BEMASSUNG
  9
$DIMAUNIT
 70
     0
  9
$DIMADEC
 70
     1
  9
$DIMALTRND
 40
0.0
  9
$DIMAZIN
 70
     2
  9
$DIMDSEP
 70
    46
  9
$DIMATFIT
 70
     3
  9
$DIMFRAC
 70
     0
  9
$DIMLDRBLK
  1

  9
$DIMLUNIT
 70
     2
  9
$DIMLWD
 70
    -2
  9
$DIMLWE
 70
    -2
  9
$DIMTMOVE
 70
     2
  9
$DIMFXL
 40
1.0
  9
$DIMFXLON
 70
     0
  9
$DIMJOGANG
 40
0.7853981633974483
  9
$DIMTFILL
 70
     0
  9
$DIMTFILLCLR
 70
     0
  9
$DIMARCSYM
 70
     0
  9
$DIMLTYPE
  6

  9
$DIMLTEX1
  6

  9
$DIMLTEX2
  6

  9
$DIMTXTDIRECTION
 70
     0
  9
$LUNITS
 70
     2
  9
$LUPREC
 70
     2
  9
$SKETCHINC
 40
0.1
  9
$FILLETRAD
 40
0.0
  9
$AUNITS
 70
     0
  9
$AUPREC
 70
     2
  9
$MENU
  1
acad
  9
$ELEVATION
 40
0.0
  9
$PELEVATION
 40
0.0
  9
$THICKNESS
 40
0.0
  9
$LIMCHECK
 70
     0
  9
$CHAMFERA
 40
10.0
  9
$CHAMFERB
 40
10.0
  9
$CHAMFERC
 40
20.0
  9
$CHAMFERD
 40
0.0
  9
$SKPOLY
 70
     0
  9
$TDCREATE
 40
2459412.434442859
  9
$TDUCREATE
 40
2459412.351109526
  9
$TDUPDATE
 40
2459412.638530996
  9
$TDUUPDATE
 40
2459412.555197662
  9
$TDINDWG
 40
0.2040883912
  9
$TDUSRTIMER
 40
0.2040882870
  9
$USRTIMER
 70
     1
  9
$ANGBASE
 50
0.0
  9
$ANGDIR
 70
     0
  9
$PDMODE
 70
    35
  9
$PDSIZE
 40
3.0
  9
$PLINEWID
 40
0.0
  9
$SPLFRAME
 70
     0
  9
$SPLINETYPE
 70
     6
  9
$SPLINESEGS
 70
     8
  9
$HANDSEED
  5
10C1F
  9
$SURFTAB1
 70
     6
  9
$SURFTAB2
 70
     6
  9
$SURFTYPE
 70
     6
  9
$SURFU
 70
     6
  9
$SURFV
 70
     6
  9
$UCSBASE
  2

  9
$UCSNAME
  2

  9
$UCSORG
 10
0.0
 20
0.0
 30
0.0
  9
$UCSXDIR
 10
1.0
 20
0.0
 30
0.0
  9
$UCSYDIR
 10
0.0
 20
1.0
 30
0.0
  9
$UCSORTHOREF
  2

  9
$UCSORTHOVIEW
 70
     0
  9
$UCSORGTOP
 10
0.0
 20
0.0
 30
0.0
  9
$UCSORGBOTTOM
 10
0.0
 20
0.0
 30
0.0
  9
$UCSORGLEFT
 10
0.0
 20
0.0
 30
0.0
  9
$UCSORGRIGHT
 10
0.0
 20
0.0
 30
0.0
  9
$UCSORGFRONT
 10
0.0
 20
0.0
 30
0.0
  9
$UCSORGBACK
 10
0.0
 20
0.0
 30
0.0
  9
$PUCSBASE
  2

  9
$PUCSNAME
  2

  9
$PUCSORG
 10
0.0
 20
0.0
 30
0.0
  9
$PUCSXDIR
 10
1.0
 20
0.0
 30
0.0
  9
$PUCSYDIR
 10
0.0
 20
1.0
 30
0.0
  9
$PUCSORTHOREF
  2

  9
$PUCSORTHOVIEW
 70
     0
  9
$PUCSORGTOP
 10
0.0
 20
0.0
 30
0.0
  9
$PUCSORGBOTTOM
 10
0.0
 20
0.0
 30
0.0
  9
$PUCSORGLEFT
 10
0.0
 20
0.0
 30
0.0
  9
$PUCSORGRIGHT
 10
0.0
 20
0.0
 30
0.0
  9
$PUCSORGFRONT
 10
0.0
 20
0.0
 30
0.0
  9
$PUCSORGBACK
 10
0.0
 20
0.0
 30
0.0
  9
$USERI1
 70
     2
  9
$USERI2
 70
     0
  9
$USERI3
 70
     0
  9
$USERI4
 70
     0
  9
$USERI5
 70
     0
  9
$USERR1
 40
0.0
  9
$USERR2
 40
0.01
  9
$USERR3
 40
0.0
  9
$USERR4
 40
0.0
  9
$USERR5
 40
0.0
  9
$WORLDVIEW
 70
     1
  9
$SHADEDGE
 70
     3
  9
$SHADEDIF
 70
    70
  9
$TILEMODE
 70
     0
  9
$MAXACTVP
 70
    64
  9
$PINSBASE
 10
0.0
 20
0.0
 30
0.0
  9
$PLIMCHECK
 70
     0
  9
$PEXTMIN
 10
-286.0
 20
-1.0
 30
0.0
  9
$PEXTMAX
 10
1.0
 20
199.0
 30
0.0
  9
$PLIMMIN
 10
-291.0044479284649
 20
-5.997880389972067
  9
$PLIMMAX
 10
5.995552071535087
 20
204.0021196100279
  9
$UNITMODE
 70
     0
  9
$VISRETAIN
 70
     0
  9
$PLINEGEN
 70
     0
  9
$PSLTSCALE
 70
     1
  9
$TREEDEPTH
 70
  3020
  9
$CMLSTYLE
  2
STANDARD
  9
$CMLJUST
 70
     0
  9
$CMLSCALE
 40
20.0
  9
$PROXYGRAPHICS
 70
     1
  9
$MEASUREMENT
 70
     1
  9
$CELWEIGHT
370
    -1
  9
$ENDCAPS
280
     0
  9
$JOINSTYLE
280
     0
  9
$LWDISPLAY
290
     0
  9
$INSUNITS
 70
     4
  9
$HYPERLINKBASE
  1

  9
$STYLESHEET
  1
_RK alles FEIN und SCHWARZ.ctb
  9
$XEDIT
290
     1
  9
$CEPSNTYPE
380
     0
  9
$PSTYLEMODE
290
     1
  9
$FINGERPRINTGUID
  2
{A081801B-C80A-41DE-AC81-EE2F7B7731A0}
  9
$VERSIONGUID
  2
{2D781D19-DBE1-44FB-B1AF-7EF1305622EB}
  9
$EXTNAMES
290
     1
  9
$PSVPSCALE
 40
0.0
  9
$OLESTARTUP
290
     0
  9
$SORTENTS
280
   127
  9
$INDEXCTL
280
     0
  9
$HIDETEXT
280
     0
  9
$XCLIPFRAME
280
     0
  9
$HALOGAP
280
     0
  9
$OBSCOLOR
 70
   257
  9
$OBSLTYPE
280
     0
  9
$INTERSECTIONDISPLAY
280
     0
  9
$INTERSECTIONCOLOR
 70
   257
  9
$DIMASSOC
280
     2
  9
$PROJECTNAME
  1

  9
$CAMERADISPLAY
290
     0
  9
$LENSLENGTH
 40
50.0
  9
$CAMERAHEIGHT
 40
0.0
  9
$STEPSPERSEC
 40
2.0
  9
$STEPSIZE
 40
6.0
  9
$3DDWFPREC
 40
2.0
  9
$PSOLWIDTH
 40
0.25
  9
$PSOLHEIGHT
 40
4.0
  9
$LOFTANG1
 40
1.570796326794896
  9
$LOFTANG2
 40
1.570796326794896
  9
$LOFTMAG1
 40
0.0
  9
$LOFTMAG2
 40
0.0
  9
$LOFTPARAM
 70
     7
  9
$LOFTNORMALS
280
     1
  9
$LATITUDE
 40
37.795
  9
$LONGITUDE
 40
-122.394
  9
$NORTHDIRECTION
 40
0.0
  9
$TIMEZONE
 70
 -8000
  9
$LIGHTGLYPHDISPLAY
280
     1
  9
$TILEMODELIGHTSYNCH
280
     1
  9
$CMATERIAL
347
1BD6
  9
$SOLIDHIST
280
     1
  9
$SHOWHIST
280
     1
  9
$DWFFRAME
280
     2
  9
$DGNFRAME
280
     0
  9
$REALWORLDSCALE
290
     1
  9
$INTERFERECOLOR
 62
     1
  9
$INTERFEREOBJVS
345
1BE3
  9
$INTERFEREVPVS
346
1BE0
  9
$CSHADOW
280
     0
  9
$SHADOWPLANELOCATION
 40
0.0
  0
ENDSEC
  0
SECTION
  2
CLASSES
  0
CLASS
  1
DICTIONARYVAR
  2
AcDbDictionaryVar
  3
ObjectDBX Classes
 90
        0
 91
       12
280
     0
281
     0
  0
CLASS
  1
ACDBDICTIONARYWDFLT
  2
AcDbDictionaryWithDefault
  3
ObjectDBX Classes
 90
        0
 91
        1
280
     0
281
     0
  0
CLASS
  1
RTEXT
  2
RText
  3
RText|AutoCAD Express Tool|expresstools@autodesk.com
 90
     3071
 91
        0
280
     0
281
     1
  0
CLASS
  1
TABLESTYLE
  2
AcDbTableStyle
  3
ObjectDBX Classes
 90
     4095
 91
        5
280
     0
281
     0
  0
CLASS
  1
FIELD
  2
AcDbField
  3
ObjectDBX Classes
 90
     1152
 91
        0
280
     0
281
     0
  0
CLASS
  1
FIELDLIST
  2
AcDbFieldList
  3
ObjectDBX Classes
 90
     1152
 91
        1
280
     0
281
     0
  0
CLASS
  1
SORTENTSTABLE
  2
AcDbSortentsTable
  3
ObjectDBX Classes
 90
        0
 91
       11
280
     0
281
     0
  0
CLASS
  1
MATERIAL
  2
AcDbMaterial
  3
ObjectDBX Classes
 90
     1153
 91
        3
280
     0
281
     0
  0
CLASS
  1
VISUALSTYLE
  2
AcDbVisualStyle
  3
ObjectDBX Classes
 90
     4095
 91
       26
280
     0
281
     0
  0
CLASS
  1
ACAD_TABLE
  2
AcDbTable
  3
ObjectDBX Classes
 90
     1025
 91
        6
280
     0
281
     1
  0
CLASS
  1
SCALE
  2
AcDbScale
  3
ObjectDBX Classes
 90
     1153
 91
       33
280
     0
281
     0
  0
CLASS
  1
MLEADERSTYLE
  2
AcDbMLeaderStyle
  3
ACDB_MLEADERSTYLE_CLASS
 90
     4095
 91
        7
280
     0
281
     0
  0
CLASS
  1
CELLSTYLEMAP
  2
AcDbCellStyleMap
  3
ObjectDBX Classes
 90
     1152
 91
       23
280
     0
281
     0
  0
CLASS
  1
PLOTSETTINGS
  2
AcDbPlotSettings
  3
ObjectDBX Classes
 90
        0
 91
       18
280
     0
281
     0
  0
CLASS
  1
DIMASSOC
  2
AcDbDimAssoc
  3
"AcDbDimAssoc|Product Desc:     AcDim ARX App For Dimension|Company:          Autodesk, Inc.|WEB Address:      www.autodesk.com"
 90
        0
 91
      189
280
     0
281
     0
  0
CLASS
  1
SOLID_BACKGROUND
  2
AcDbSolidBackground
  3
SCENEOE
 90
     4095
 91
        0
280
     0
281
     0
  0
CLASS
  1
NPOCOLLECTION
  2
AcDbImpNonPersistentObjectsCollection
  3
ObjectDBX Classes
 90
     1153
 91
        0
280
     0
281
     0
  0
CLASS
  1
ACAD_EVALUATION_GRAPH
  2
AcDbEvalGraph
  3
ObjectDBX Classes
 90
     1153
 91
        3
280
     0
281
     0
  0
CLASS
  1
ACAECUSTOBJ
  2
AcAeEditorObj
  3
AcAeEditorObj
 90
     1024
 91
        1
280
     0
281
     0
  0
CLASS
  1
ACDB_DYNAMICBLOCKPURGEPREVENTER_VERSION
  2
AcDbDynamicBlockPurgePreventer
  3
ObjectDBX Classes
 90
     1153
 91
        4
280
     0
281
     0
  0
CLASS
  1
BLOCKPOLARPARAMETER
  2
AcDbBlockPolarParameter
  3
ObjectDBX Classes
 90
     1153
 91
        0
280
     0
281
     0
  0
CLASS
  1
BLOCKPOLARGRIP
  2
AcDbBlockPolarGrip
  3
ObjectDBX Classes
 90
     1153
 91
        0
280
     0
281
     0
  0
CLASS
  1
BLOCKGRIPLOCATIONCOMPONENT
  2
AcDbBlockGripExpr
  3
ObjectDBX Classes
 90
     1153
 91
        6
280
     0
281
     0
  0
CLASS
  1
BLOCKPOLARSTRETCHACTION
  2
AcDbBlockPolarStretchAction
  3
ObjectDBX Classes
 90
     1153
 91
        0
280
     0
281
     0
  0
CLASS
  1
EXACXREFPANELOBJECT
  2
ExAcXREFPanelObject
  3
EXAC_ESW
 90
     1025
 91
        0
280
     0
281
     0
  0
CLASS
  1
ACDB_ALDIMOBJECTCONTEXTDATA_CLASS
  2
AcDbAlignedDimensionObjectContextData
  3
ObjectDBX Classes
 90
     1153
 91
       69
280
     0
281
     0
  0
CLASS
  1
MULTILEADER
  2
AcDbMLeader
  3
ACDB_MLEADER_CLASS
 90
     1025
 91
        9
280
     0
281
     1
  0
CLASS
  1
ACDB_MLEADEROBJECTCONTEXTDATA_CLASS
  2
AcDbMLeaderObjectContextData
  3
ObjectDBX Classes
 90
     1153
 91
        9
280
     0
281
     0
  0
CLASS
  1
ACDB_MTEXTOBJECTCONTEXTDATA_CLASS
  2
AcDbMTextObjectContextData
  3
ObjectDBX Classes
 90
     1153
 91
        3
280
     0
281
     0
  0
CLASS
  1
TABLECONTENT
  2
AcDbTableContent
  3
ObjectDBX Classes
 90
     1152
 91
        0
280
     0
281
     0
  0
CLASS
  1
TABLEGEOMETRY
  2
AcDbTableGeometry
  3
ObjectDBX Classes
 90
     1152
 91
        0
280
     0
281
     0
  0
CLASS
  1
ACDB_ANGDIMOBJECTCONTEXTDATA_CLASS
  2
AcDbAngularDimensionObjectContextData
  3
ObjectDBX Classes
 90
     1153
 91
        3
280
     0
281
     0
  0
CLASS
  1
ACDB_DMDIMOBJECTCONTEXTDATA_CLASS
  2
AcDbDiametricDimensionObjectContextData
  3
ObjectDBX Classes
 90
     1153
 91
        3
280
     0
281
     0
  0
CLASS
  1
ACDB_RADIMOBJECTCONTEXTDATA_CLASS
  2
AcDbRadialDimensionObjectContextData
  3
ObjectDBX Classes
 90
     1153
 91
        9
280
     0
281
     0
  0
CLASS
  1
ACDBSECTIONVIEWSTYLE
  2
AcDbSectionViewStyle
  3
ObjectDBX Classes
 90
     1025
 91
        2
280
     0
281
     0
  0
CLASS
  1
ACDBDETAILVIEWSTYLE
  2
AcDbDetailViewStyle
  3
ObjectDBX Classes
 90
     1025
 91
        2
280
     0
281
     0
  0
CLASS
  1
BLOCKPROPERTIESTABLE
  2
AcDbBlockPropertiesTable
  3
ObjectDBX Classes
 90
     1153
 91
        0
280
     0
281
     0
  0
CLASS
  1
BLOCKPROPERTIESTABLEGRIP
  2
AcDbBlockPropertiesTableGrip
  3
ObjectDBX Classes
 90
     1153
 91
        0
280
     0
281
     0
  0
CLASS
  1
BLOCKPROPERTIESTABLEGRIPENTITY
  2
AcDbBlockPropertiesTableGripEntity
  3
ObjectDBX Classes
 90
     1025
 91
        0
280
     0
281
     1
  0
CLASS
  1
ACAEEEMGROBJ
  2
AcAeEEMgrObj
  3
AcAeEEMgrObj
 90
     1024
 91
        1
280
     0
281
     0
  0
CLASS
  1
BLOCKPROPERTIESTABLEENTITY
  2
AcDbBlockPropertiesTableEntity
  3
ObjectDBX Classes
 90
     1025
 91
        0
280
     0
281
     1
  0
CLASS
  1
ACDB_DYNAMICBLOCKPROXYNODE
  2
AcDbDynamicBlockProxyNode
  3
ObjectDBX Classes
 90
     1153
 91
        1
280
     0
281
     0
  0
CLASS
  1
ACDB_BLOCKREPRESENTATION_DATA
  2
AcDbBlockRepresentationData
  3
ObjectDBX Classes
 90
     1153
 91
        2
280
     0
281
     0
  0
CLASS
  1
BLOCKLOOKUPACTION
  2
AcDbBlockLookupAction
  3
ObjectDBX Classes
 90
     1153
 91
        0
280
     0
281
     0
  0
CLASS
  1
BLOCKLOOKUPPARAMETER
  2
AcDbBlockLookupParameter
  3
ObjectDBX Classes
 90
     1153
 91
        0
280
     0
281
     0
  0
CLASS
  1
BLOCKLOOKUPGRIP
  2
AcDbBlockLookupGrip
  3
ObjectDBX Classes
 90
     1153
 91
        0
280
     0
281
     0
  0
CLASS
  1
LOOKUPGRIPENTITY
  2
AcDbBlockLookupGripEntity
  3
ObjectDBX Classes
 90
     1025
 91
        0
280
     0
281
     1
  0
CLASS
  1
LOOKUPPARAMETERENTITY
  2
AcDbBlockLookupParameterEntity
  3
ObjectDBX Classes
 90
     1025
 91
        0
280
     0
281
     1
  0
CLASS
  1
LOOKUPACTIONENTITY
  2
AcDbBlockLookupActionEntity
  3
ObjectDBX Classes
 90
     1025
 91
        0
280
     0
281
     1
  0
CLASS
  1
BLOCKVISIBILITYPARAMETER
  2
AcDbBlockVisibilityParameter
  3
ObjectDBX Classes
 90
     1153
 91
        3
280
     0
281
     0
  0
CLASS
  1
BLOCKVISIBILITYGRIP
  2
AcDbBlockVisibilityGrip
  3
ObjectDBX Classes
 90
     1153
 91
        3
280
     0
281
     0
  0
CLASS
  1
VISIBILITYGRIPENTITY
  2
AcDbBlockVisibilityGripEntity
  3
ObjectDBX Classes
 90
     1025
 91
        1
280
     0
281
     1
  0
CLASS
  1
VISIBILITYPARAMETERENTITY
  2
AcDbBlockVisibilityParameterEntity
  3
ObjectDBX Classes
 90
     1025
 91
        1
280
     0
281
     1
  0
CLASS
  1
BLOCKFLIPPARAMETER
  2
AcDbBlockFlipParameter
  3
ObjectDBX Classes
 90
     1153
 91
        0
280
     0
281
     0
  0
CLASS
  1
BLOCKFLIPGRIP
  2
AcDbBlockFlipGrip
  3
ObjectDBX Classes
 90
     1153
 91
        0
280
     0
281
     0
  0
CLASS
  1
FLIPGRIPENTITY
  2
AcDbBlockFlipGripEntity
  3
ObjectDBX Classes
 90
     1025
 91
        0
280
     0
281
     1
  0
CLASS
  1
FLIPPARAMETERENTITY
  2
AcDbBlockFlipParameterEntity
  3
ObjectDBX Classes
 90
     1025
 91
        0
280
     0
281
     1
  0
CLASS
  1
BLOCKFLIPACTION
  2
AcDbBlockFlipAction
  3
ObjectDBX Classes
 90
     1153
 91
        0
280
     0
281
     0
  0
CLASS
  1
FLIPACTIONENTITY
  2
AcDbBlockFlipActionEntity
  3
ObjectDBX Classes
 90
     1025
 91
        0
280
     0
281
     1
  0
CLASS
  1
RAPIDRTRENDERSETTINGS
  2
AcDbRapidRTRenderSettings
  3
ObjectDBX Classes
 90
     1024
 91
        7
280
     0
281
     0
  0
CLASS
  1
IMAGEDEF
  2
AcDbRasterImageDef
  3
ISM
 90
        0
 91
        3
280
     0
281
     0
  0
CLASS
  1
RASTERVARIABLES
  2
AcDbRasterVariables
  3
ISM
 90
        0
 91
        1
280
     0
281
     0
  0
CLASS
  1
IMAGEDEF_REACTOR
  2
AcDbRasterImageDefReactor
  3
ISM
 90
        1
 91
        2
280
     0
281
     0
  0
CLASS
  1
IMAGE
  2
AcDbRasterImage
  3
ISM
 90
     2175
 91
        2
280
     0
281
     1
  0
CLASS
  1
ACDBASSOCNETWORK
  2
AcDbAssocNetwork
  3
ObjectDBX Classes
 90
     1025
 91
        3
280
     0
281
     0
  0
CLASS
  1
ACDBASSOC2DCONSTRAINTGROUP
  2
AcDbAssoc2dConstraintGroup
  3
ObjectDBX Classes
 90
     1025
 91
        0
280
     0
281
     0
  0
CLASS
  1
ACDBASSOCGEOMDEPENDENCY
  2
AcDbAssocGeomDependency
  3
ObjectDBX Classes
 90
     1025
 91
        0
280
     0
281
     0
  0
CLASS
  1
MENTALRAYRENDERSETTINGS
  2
AcDbMentalRayRenderSettings
  3
SCENEOE
 90
     1024
 91
        1
280
     0
281
     0
  0
CLASS
  1
BLOCKUSERPARAMETER
  2
AcDbBlockUserParameter
  3
ObjectDBX Classes
 90
     1153
 91
        1
280
     0
281
     0
  0
CLASS
  1
ACDBASSOCVARIABLE
  2
AcDbAssocVariable
  3
ObjectDBX Classes
 90
     1025
 91
        2
280
     0
281
     0
  0
CLASS
  1
BLOCKPOINTPARAMETER
  2
AcDbBlockPointParameter
  3
ObjectDBX Classes
 90
     1153
 91
        0
280
     0
281
     0
  0
CLASS
  1
BLOCKXYGRIP
  2
AcDbBlockXYGrip
  3
ObjectDBX Classes
 90
     1153
 91
        0
280
     0
281
     0
  0
CLASS
  1
XYGRIPENTITY
  2
AcDbBlockXYGripEntity
  3
ObjectDBX Classes
 90
     1025
 91
        0
280
     0
281
     1
  0
CLASS
  1
POINTPARAMETERENTITY
  2
AcDbBlockPointParameterEntity
  3
ObjectDBX Classes
 90
     1025
 91
        0
280
     0
281
     1
  0
ENDSEC
  0
SECTION
  2
TABLES
  0
TABLE
  2
VPORT
  5
8
330
0
100
AcDbSymbolTable
 70
     1
  0
VPORT
  5
1BD4
330
8
100
AcDbSymbolTableRecord
100
AcDbViewportTableRecord
  2
*Active
 70
     0
 10
0.0
 20
0.0
 11
1.0
 21
1.0
 12
-50.68457598447094
 22
53.12710295488432
 13
0.0
 23
0.0
 14
0.25
 24
0.25
 15
100.0
 25
100.0
 16
0.0
 26
0.0
 36
1.0
 17
0.0
 27
0.0
 37
0.0
 40
1081.04276164162
 41
1.749216300940438
 42
50.0
 43
0.0
 44
0.0
 50
0.0
 51
0.0
 71
     0
 72
  1000
 73
     1
 74
     3
 75
     0
 76
     1
 77
     0
 78
     0
281
     0
 65
     1
110
0.0
120
0.0
130
0.0
111
1.0
121
0.0
131
0.0
112
0.0
122
1.0
132
0.0
 79
     0
146
0.0
348
1BDF
 60
     2
 61
     5
292
     1
282
     1
141
0.0
142
0.0
 63
   250
421
  3355443
1001
ACAD_NAV_VCDISPLAY
1070
     3
  0
ENDTAB
  0
TABLE
  2
LTYPE
  5
5
330
0
100
AcDbSymbolTable
 70
    28
  0
LTYPE
  5
13
330
5
100
AcDbSymbolTableRecord
100
AcDbLinetypeTableRecord
  2
BYBLOCK
 70
     0
  3

 72
    65
 73
     0
 40
0.0
  0
LTYPE
  5
14
330
5
100
AcDbSymbolTableRecord
100
AcDbLinetypeTableRecord
  2
BYLAYER
 70
     0
  3

 72
    65
 73
     0
 40
0.0
  0
LTYPE
  5
15
330
5
100
AcDbSymbolTableRecord
100
AcDbLinetypeTableRecord
  2
CONTINUOUS
 70
     0
  3
Solid line
 72
    65
 73
     0
 40
0.0
  0
LTYPE
  5
F0B3
330
5
100
AcDbSymbolTableRecord
100
AcDbLinetypeTableRecord
  2
VERDECKT
 70
     0
  3
__ __ __ __ __ __ __ __ __ __ __ __ __ __ __ __
 72
    65
 73
     2
 40
0.375
 49
0.25
 74
     0
 49
-0.125
 74
     0
  0
ENDTAB
  0
TABLE
  2
LAYER
  5
2
102
{ACAD_XDICTIONARY
360
11DB
102
}
330
0
100
AcDbSymbolTable
 70
   140
  0
LAYER
  5
F
102
{ACAD_XDICTIONARY
360
2152
102
}
330
2
100
AcDbSymbolTableRecord
100
AcDbLayerTableRecord
  2
0
 70
     0
 62
     7
  6
CONTINUOUS
370
    -3
390
576
347
1BD8
348
0
  0
LAYER
  5
AE76
102
{ACAD_XDICTIONARY
360
C21B
102
}
330
2
100
AcDbSymbolTableRecord
100
AcDbLayerTableRecord
  2
Bestellung Angaben D
 70
     0
 62
   250
  6
CONTINUOUS
370
    -3
390
576
347
1BD8
348
0
1001
AcAecLayerStandard
1000

1000

1001
AcCmTransparency
1071
        0
  0
LAYER
  5
AEC5
102
{ACAD_XDICTIONARY
360
C21D
102
}
330
2
100
AcDbSymbolTableRecord
100
AcDbLayerTableRecord
  2
Bestellung Angaben F
 70
     0
 62
   250
  6
CONTINUOUS
370
    -3
390
576
347
1BD8
348
0
1001
AcAecLayerStandard
1000

1000

1001
AcCmTransparency
1071
        0
  0
LAYER
  5
B623
102
{ACAD_XDICTIONARY
360
C221
102
}
330
2
100
AcDbSymbolTableRecord
100
AcDbLayerTableRecord
  2
Plankopf_Text
 70
     0
 62
     7
  6
CONTINUOUS
370
    -3
390
576
347
1BD8
348
0
1001
AcAecLayerStandard
1000

1000

1001
AcCmTransparency
1071
        0
  0
LAYER
  5
B625
102
{ACAD_XDICTIONARY
360
C225
102
}
330
2
100
AcDbSymbolTableRecord
100
AcDbLayerTableRecord
  2
Plankopf_Variablen
 70
     0
 62
     7
  6
CONTINUOUS
370
    -3
390
576
347
1BD8
348
0
1001
AcAecLayerStandard
1000

1000

1001
AcCmTransparency
1071
        0
  0
LAYER
  5
B775
102
{ACAD_XDICTIONARY
360
C229
102
}
330
2
100
AcDbSymbolTableRecord
100
AcDbLayerTableRecord
  2
Plankopf_Anschrift
 70
     0
 62
     7
  6
CONTINUOUS
370
    -3
390
576
347
1BD8
348
0
1001
AcAecLayerStandard
1000

1000

1001
AcCmTransparency
1071
        0
  0
LAYER
  5
BAC5
102
{ACAD_XDICTIONARY
360
BAF0
102
}
330
2
100
AcDbSymbolTableRecord
100
AcDbLayerTableRecord
  2
Bestellung_Symbole
 70
     0
 62
     7
  6
CONTINUOUS
370
    20
390
576
347
1BD8
348
0
1001
AcAecLayerStandard
1000

1000

1001
AcCmTransparency
1071
        0
  0
LAYER
  5
CF41
102
{ACAD_XDICTIONARY
360
DB03
102
}
330
2
100
AcDbSymbolTableRecord
100
AcDbLayerTableRecord
  2
Verdeckt
 70
     0
 62
     3
  6
CONTINUOUS
290
     0
370
    -3
390
576
347
1BD8
348
0
1001
AcAecLayerStandard
1000

1000

1001
AcCmTransparency
1071
        0
  0
LAYER
  5
CF49
102
{ACAD_XDICTIONARY
360
DB05
102
}
330
2
100
AcDbSymbolTableRecord
100
AcDbLayerTableRecord
  2
Zeichnungsfenster
 70
     0
 62
    30
  6
CONTINUOUS
290
     0
370
    -3
390
576
347
1BD8
348
0
1001
AcAecLayerStandard
1000

1000

1001
AcCmTransparency
1071
        0
  0
LAYER
  5
D025
102
{ACAD_XDICTIONARY
360
DB07
102
}
330
2
100
AcDbSymbolTableRecord
100
AcDbLayerTableRecord
  2
Bestellung_Eingabe
 70
     0
 62
     5
  6
CONTINUOUS
370
    -3
390
576
347
1BD8
348
0
1001
AcAecLayerStandard
1000

1000

1001
AcCmTransparency
1071
        0
  0
LAYER
  5
DC05
102
{ACAD_XDICTIONARY
360
DC06
102
}
330
2
100
AcDbSymbolTableRecord
100
AcDbLayerTableRecord
  2
DEFPOINTS
 70
     0
 62
   211
  6
CONTINUOUS
290
     0
370
    -3
390
576
347
1BD8
348
0
  0
LAYER
  5
E2AA
102
{ACAD_XDICTIONARY
360
E2AB
102
}
330
2
100
AcDbSymbolTableRecord
100
AcDbLayerTableRecord
  2
AUßENKONTUR
 70
     0
 62
     7
  6
CONTINUOUS
370
    -3
390
576
347
1BD8
348
0
  0
LAYER
  5
F5ED
102
{ACAD_XDICTIONARY
360
F5EE
102
}
330
2
100
AcDbSymbolTableRecord
100
AcDbLayerTableRecord
  2
BEM-2
 70
     0
 62
    10
  6
CONTINUOUS
370
    -3
390
576
347
1BD8
348
0
  0
ENDTAB
  0
TABLE
  2
STYLE
  5
3
330
0
100
AcDbSymbolTable
 70
    23
  0
STYLE
  5
10
330
3
100
AcDbSymbolTableRecord
100
AcDbTextStyleTableRecord
  2
STANDARD
 70
     0
 40
0.0
 41
1.0
 50
0.0
 71
     0
 42
2.5
  3
arial.ttf
  4

1001
ACAD
1000
Arial
1071
       34
  0
STYLE
  5
54
330
3
100
AcDbSymbolTableRecord
100
AcDbTextStyleTableRecord
  2
BEMASSUNG
 70
     0
 40
0.0
 41
1.0
 50
0.0
 71
     0
 42
2.5
  3
arial.ttf
  4

1001
ACAD
1000
Arial
1071
       34
  0
STYLE
  5
2836
330
3
100
AcDbSymbolTableRecord
100
AcDbTextStyleTableRecord
  2
Plankopf_cad-support
 70
     0
 40
0.0
 41
1.0
 50
0.0
 71
     0
 42
2.5
  3
arial.ttf
  4

1001
ACAD
1000
Arial
1071
       34
  0
STYLE
  5
49A2
330
3
100
AcDbSymbolTableRecord
100
AcDbTextStyleTableRecord
  2
robert_koch
 70
     0
 40
0.0
 41
1.0
 50
0.0
 71
     0
 42
2.5
  3
arial.ttf
  4

1001
ACAD
1000
Arial
1071
       34
  0
ENDTAB
  0
TABLE
  2
VIEW
  5
6
330
0
100
AcDbSymbolTable
 70
    17
  0
VIEW
  5
2C9F
102
{ACAD_XDICTIONARY
360
2CA0
102
}
330
6
100
AcDbSymbolTableRecord
100
AcDbViewTableRecord
  2
robert koch cad-support
 70
     0
 40
6512.0
 10
4898.242857142857
 20
2940.0
 41
12599.68085106383
 11
0.0
 21
0.0
 31
1.0
 12
0.0
 22
0.0
 32
0.0
 42
50.0
 43
0.0
 44
0.0
 50
0.0
 71
     0
281
     0
 72
     1
110
0.0
120
0.0
130
0.0
111
1.0
121
0.0
131
0.0
112
0.0
122
1.0
132
0.0
 79
     0
146
0.0
 73
     0
348
1BDF
  0
ENDTAB
  0
TABLE
  2
UCS
  5
7
330
0
100
AcDbSymbolTable
 70
     0
  0
ENDTAB
  0
TABLE
  2
APPID
  5
9
330
0
100
AcDbSymbolTable
 70
    38
  0
APPID
  5
11
330
9
100
AcDbSymbolTableRecord
100
AcDbRegAppTableRecord
  2
ACAD
 70
     0
  0
APPID
  5
2E2
330
9
100
AcDbSymbolTableRecord
100
AcDbRegAppTableRecord
  2
CONTENTTABDATA
 70
     0
  0
APPID
  5
2E3
330
9
100
AcDbSymbolTableRecord
100
AcDbRegAppTableRecord
  2
CONTENTCURRENTTAB
 70
     0
  0
APPID
  5
4B1
330
9
100
AcDbSymbolTableRecord
100
AcDbRegAppTableRecord
  2
DRAWINGVARIABLESXDATA
 70
     0
  0
APPID
  5
4F7
330
9
100
AcDbSymbolTableRecord
100
AcDbRegAppTableRecord
  2
CONTENTBLOCKDESCRIPTION
 70
     0
  0
APPID
  5
4F8
330
9
100
AcDbSymbolTableRecord
100
AcDbRegAppTableRecord
  2
CONTENTBLOCKICON
 70
     0
  0
APPID
  5
10A3
330
9
100
AcDbSymbolTableRecord
100
AcDbRegAppTableRecord
  2
ACAD_DSTYLE_DIMTEXT_FILL
 70
     0
  0
APPID
  5
11CD
330
9
100
AcDbSymbolTableRecord
100
AcDbRegAppTableRecord
  2
PE_URL
 70
     0
  0
APPID
  5
136A
330
9
100
AcDbSymbolTableRecord
100
AcDbRegAppTableRecord
  2
ACAD_EXEMPT_FROM_CAD_STANDARDS
 70
     0
  0
APPID
  5
15D0
330
9
100
AcDbSymbolTableRecord
100
AcDbRegAppTableRecord
  2
ACAD_PSEXT
 70
     0
  0
APPID
  5
1F5E
330
9
100
AcDbSymbolTableRecord
100
AcDbRegAppTableRecord
  2
ACAD_MLEADERVER
 70
     0
  0
APPID
  5
205B
330
9
100
AcDbSymbolTableRecord
100
AcDbRegAppTableRecord
  2
ACAD_DSTYLE_DIMJAG
 70
     0
  0
APPID
  5
205C
330
9
100
AcDbSymbolTableRecord
100
AcDbRegAppTableRecord
  2
ACAD_DSTYLE_DIMTALN
 70
     0
  0
APPID
  5
23F0
330
9
100
AcDbSymbolTableRecord
100
AcDbRegAppTableRecord
  2
ACAD_DSTYLE_DIMEXT_ENABLED
 70
     0
  0
APPID
  5
23F1
330
9
100
AcDbSymbolTableRecord
100
AcDbRegAppTableRecord
  2
ACAD_DSTYLE_DIMEXT_LENGTH
 70
     0
  0
APPID
  5
23F2
330
9
100
AcDbSymbolTableRecord
100
AcDbRegAppTableRecord
  2
DCO15
 70
     0
  0
APPID
  5
23F3
330
9
100
AcDbSymbolTableRecord
100
AcDbRegAppTableRecord
  2
AcadAnnotative
 70
     0
  0
APPID
  5
23F4
330
9
100
AcDbSymbolTableRecord
100
AcDbRegAppTableRecord
  2
AcadAnnoPO
 70
     0
  0
APPID
  5
23F5
330
9
100
AcDbSymbolTableRecord
100
AcDbRegAppTableRecord
  2
ACAD_DSTYLE_DIMRADIAL_EXTENSION
 70
     0
  0
APPID
  5
23F6
330
9
100
AcDbSymbolTableRecord
100
AcDbRegAppTableRecord
  2
ACAD_DSTYLE_DIMBREAK
 70
     0
  0
APPID
  5
23F7
330
9
100
AcDbSymbolTableRecord
100
AcDbRegAppTableRecord
  2
AcAecLayerStandard
 70
     0
  0
APPID
  5
279F
330
9
100
AcDbSymbolTableRecord
100
AcDbRegAppTableRecord
  2
AcadAnnoAV
 70
     0
  0
APPID
  5
27C8
330
9
100
AcDbSymbolTableRecord
100
AcDbRegAppTableRecord
  2
ACAUTHENVIRON
 70
     0
  0
APPID
  5
27CE
330
9
100
AcDbSymbolTableRecord
100
AcDbRegAppTableRecord
  2
AcDbDynamicBlockTrueName
 70
     0
  0
APPID
  5
27CF
330
9
100
AcDbSymbolTableRecord
100
AcDbRegAppTableRecord
  2
AcDbDynamicBlockGUID
 70
     0
  0
APPID
  5
2B3B
330
9
100
AcDbSymbolTableRecord
100
AcDbRegAppTableRecord
  2
AECBASE
 70
     0
  0
APPID
  5
2DEF
330
9
100
AcDbSymbolTableRecord
100
AcDbRegAppTableRecord
  2
ACAD_NAV_VCDISPLAY
 70
     0
  0
APPID
  5
310B
330
9
100
AcDbSymbolTableRecord
100
AcDbRegAppTableRecord
  2
AcCmTransparency
 70
     0
  0
APPID
  5
3348
330
9
100
AcDbSymbolTableRecord
100
AcDbRegAppTableRecord
  2
AcDbBlockRepETag
 70
     0
  0
APPID
  5
4231
330
9
100
AcDbSymbolTableRecord
100
AcDbRegAppTableRecord
  2
AcadBPTGraphNodeId
 70
     0
  0
APPID
  5
4238
330
9
100
AcDbSymbolTableRecord
100
AcDbRegAppTableRecord
  2
AcDbDynamicBlockTrueName2
 70
     0
  0
APPID
  5
4245
330
9
100
AcDbSymbolTableRecord
100
AcDbRegAppTableRecord
  2
AcDbBlockRepBTag
 70
     0
  0
APPID
  5
BB9C
330
9
100
AcDbSymbolTableRecord
100
AcDbRegAppTableRecord
  2
GradientColor1ACI
 70
     0
  0
APPID
  5
BB9D
330
9
100
AcDbSymbolTableRecord
100
AcDbRegAppTableRecord
  2
GradientColor2ACI
 70
     0
  0
APPID
  5
DFC0
330
9
100
AcDbSymbolTableRecord
100
AcDbRegAppTableRecord
  2
AEC_ISOLATEDOBJECTS_XDATA
 70
     0
  0
APPID
  5
F649
330
9
100
AcDbSymbolTableRecord
100
AcDbRegAppTableRecord
  2
AcadAnnoMonitorAlertIconDisabled
 70
     0
  0
APPID
  5
F64A
330
9
100
AcDbSymbolTableRecord
100
AcDbRegAppTableRecord
  2
RAK
 70
     0
  0
APPID
  5
F64B
330
9
100
AcDbSymbolTableRecord
100
AcDbRegAppTableRecord
  2
PalladioXData
 70
     0
  0
ENDTAB
  0
TABLE
  2
DIMSTYLE
  5
A
330
0
100
AcDbSymbolTable
 70
   141
100
AcDbDimStyleTable
 71
     2
340
F643
340
49A6
  0
DIMSTYLE
105
49A6
330
A
100
AcDbSymbolTableRecord
100
AcDbDimStyleTableRecord
  2
Standard
 70
     0
 41
2.5
 42
0.0
 43
6.0
 44
0.5
 73
     0
 74
     0
 77
     1
 78
     8
 79
     2
140
2.5
141
0.0
147
0.5
172
     1
176
    10
177
    10
179
     1
271
     1
272
     1
279
     2
340
10
1001
ACAD_DSTYLE_DIMJAG
1070
   388
1040
1.5
1001
ACAD_DSTYLE_DIMTALN
1070
   392
1070
     0
  0
DIMSTYLE
105
F643
102
{ACAD_REACTORS
330
10B35
330
10B42
330
10B61
330
104EF
330
10BA4
330
10BBC
330
10BE6
102
}
330
A
100
AcDbSymbolTableRecord
100
AcDbDimStyleTableRecord
  2
BEM-5
 70
     0
 40
5.0
 41
2.0
 42
2.0
 43
6.0
 44
1.0
 46
1.0
 73
     0
 74
     0
 77
     1
 78
     8
 79
     2
140
3.0
141
0.0
143
0.03937
147
1.0
172
     1
173
     1
174
     1
176
    10
177
    10
178
     7
179
     1
271
     1
272
     1
279
     2
284
     8
340
54
343
41
344
41
1001
ACAD_DSTYLE_DIMBREAK
1070
   391
1040
3.75
1001
ACAD_DSTYLE_DIMJAG
1070
   388
1040
1.5
1001
ACAD_DSTYLE_DIMTALN
1070
   392
1070
     0
  0
DIMSTYLE
105
F645
102
{ACAD_REACTORS
330
10B94
102
}
330
A
100
AcDbSymbolTableRecord
100
AcDbDimStyleTableRecord
  2
BEM-5$4
 70
     0
 40
5.0
 41
3.0
 42
2.0
 43
6.0
 44
1.0
 46
1.0
 73
     0
 74
     0
 77
     1
 78
     8
 79
     2
140
3.0
141
0.0
143
0.03937
147
1.0
173
     1
174
     1
176
    10
177
    10
178
     7
179
     1
271
     1
272
     1
284
     8
288
     1
340
54
343
41
1001
ACAD_DSTYLE_DIMBREAK
1070
   391
1040
3.75
1001
ACAD_DSTYLE_DIMJAG
1070
   388
1040
1.5
1001
ACAD_DSTYLE_DIMTALN
1070
   392
1070
     0
  0
ENDTAB
  0
TABLE
  2
BLOCK_RECORD
  5
1
330
0
100
AcDbSymbolTable
 70
   331
  0
BLOCK_RECORD
  5
19
102
{ACAD_XDICTIONARY
360
2792
102
}
330
1
100
AcDbSymbolTableRecord
100
AcDbBlockTableRecord
  2
*MODEL_SPACE
340
579
 70
     0
280
     1
281
     0
  0
BLOCK_RECORD
  5
ACD
102
{ACAD_XDICTIONARY
360
BB9F
102
}
330
1
100
AcDbSymbolTableRecord
100
AcDbBlockTableRecord
  2
*Paper_Space
340
ACE
 70
     0
280
     1
281
     0
  0
BLOCK_RECORD
  5
41
330
1
100
AcDbSymbolTableRecord
100
AcDbBlockTableRecord
  2
_OBLIQUE
340
0
310
2800000020000000200000000100080000000000000400000000000000000000000000000000000000000000000080000080000000808000800000008000800080800000C0C0C000C0DCC000F0CAA6000020400000206000002080000020A0000020C0000020E00000400000004020000040400000406000004080000040A0
310
000040C0000040E00000600000006020000060400000606000006080000060A0000060C0000060E00000800000008020000080400000806000008080000080A0000080C0000080E00000A0000000A0200000A0400000A0600000A0800000A0A00000A0C00000A0E00000C0000000C0200000C0400000C0600000C0800000C0
310
A00000C0C00000C0E00000E0000000E0200000E0400000E0600000E0800000E0A00000E0C00000E0E00040000000400020004000400040006000400080004000A0004000C0004000E00040200000402020004020400040206000402080004020A0004020C0004020E000404000004040200040404000404060004040800040
310
40A0004040C0004040E00040600000406020004060400040606000406080004060A0004060C0004060E00040800000408020004080400040806000408080004080A0004080C0004080E00040A0000040A0200040A0400040A0600040A0800040A0A00040A0C00040A0E00040C0000040C0200040C0400040C0600040C08000
310
40C0A00040C0C00040C0E00040E0000040E0200040E0400040E0600040E0800040E0A00040E0C00040E0E00080000000800020008000400080006000800080008000A0008000C0008000E00080200000802020008020400080206000802080008020A0008020C0008020E00080400000804020008040400080406000804080
310
008040A0008040C0008040E00080600000806020008060400080606000806080008060A0008060C0008060E00080800000808020008080400080806000808080008080A0008080C0008080E00080A0000080A0200080A0400080A0600080A0800080A0A00080A0C00080A0E00080C0000080C0200080C0400080C0600080C0
310
800080C0A00080C0C00080C0E00080E0000080E0200080E0400080E0600080E0800080E0A00080E0C00080E0E000C0000000C0002000C0004000C0006000C0008000C000A000C000C000C000E000C0200000C0202000C0204000C0206000C0208000C020A000C020C000C020E000C0400000C0402000C0404000C0406000C0
310
408000C040A000C040C000C040E000C0600000C0602000C0604000C0606000C0608000C060A000C060C000C060E000C0800000C0802000C0804000C0806000C0808000C080A000C080C000C080E000C0A00000C0A02000C0A04000C0A06000C0A08000C0A0A000C0A0C000C0A0E000C0C00000C0C02000C0C04000C0C06000
310
C0C08000C0C0A000F0FBFF00A4A0A000808080000000FF0000FF000000FFFF00FF000000FF00FF00FFFF0000FFFFFF00F6F6F6F6F6F6F6F6F6F6F6F6F6F6F6F6F6F6F6F6F6F6F6F6F6F6F6F6F6F6F6F6F600F6F6F6F6F6F6F6F6F6F6F6F6F6F6F6F6F6F6F6F6F6F6F6F6F6F6F6F6F6F6F6F600F6F6F6F6F6F6F6F6F6F6F6F6
310
F6F6F6F6F6F6F6F6F6F6F6F6F6F6F6F6F6F6F6F600F6F6F6F6F6F6F6F6F6F6F6F6F6F6F6F6F6F6F6F6F6F6F6F6F6F6F6F6F6F6F6F600F6F6F6F6F6F6F6F6F6F6F6F6F6F6F6F6F6F6F6F6F6F6F6F6F6F6F6F6F6F6F6F600F6F6F6F6F6F6F6F6F6F6F6F6F6F6F6F6F6F6F6F6F6F6F6F6F6F6F6F6F6F6F6F600F6F6F6F6F6F6F6
310
F6F6F6F6F6F6F6F6F6F6F6F6F6F6F6F6F6F6F6F6F6F6F6F6F600F6F6F6F6F6F6F6F6F6F6F6F6F6F6F6F6F6F6F6F6F6F6F6F6F6F6F6F6F6F6F6F600F6F6F6F6F6F6F6F6F6F6F6F6F6F6F6F6F6F6F6F6F6F6F6F6F6F6F6F6F6F6F6F600F6F6F6F6F6F6F6F6F6F6F6F6F6F6F6F6F6F6F6F6F6F6F6F6F6F6F6F6F6F6F6F600F6F6
310
F6F6F6F6F6F6F6F6F6F6F6F6F6F6F6F6F6F6F6F6F6F6F6F6F6F6F6F6F6F600F6F6F6F6F6F6F6F6F6F6F6F6F6F6F6F6F6F6F6F6F6F6F6F6F6F6F6F6F6F6F6F600F6F6F6F6F6F6F6F6F6F6F6F6F6F6F6F6F6F6F6F6F6F6F6F6F6F6F6F6F6F6F6F600F6F6F6F6F6F6F6F6F6F6F6F6F6F6F6F6F6F6F6F6F6F6F6F6F6F6F6F6F6F6
310
F6F600F6F6F6F6F6F6F6F6F6F6F6F6F6F6F6F6F6F6F6F6F6F6F6F6F6F6F6F6F6F6F6F600F6F6F6F6F6F6F6F6F6F6F6F6F6F6F6F6F6F6F6F6F6F6F6F6F6F6F6F6F6F6F6F600F6F6F6F6F6F6F6F6F6F6F6F6F6F6F6F6F6F6F6F6F6F6F6F6F6F6F6F6F6F6F6F600F6F6F6F6F6F6F6F6F6F6F6F6F6F6F6F6F6F6F6F6F6F6F6F6F6
310
F6F6F6F6F6F6F600F6F6F6F6F6F6F6F6F6F6F6F6F6F6F6F6F6F6F6F6F6F6F6F6F6F6F6F6F6F6F6F600F6F6F6F6F6F6F6F6F6F6F6F6F6F6F6F6F6F6F6F6F6F6F6F6F6F6F6F6F6F6F6F600F6F6F6F6F6F6F6F6F6F6F6F6F6F6F6F6F6F6F6F6F6F6F6F6F6F6F6F6F6F6F6F600F6F6F6F6F6F6F6F6F6F6F6F6F6F6F6F6F6F6F6F6
310
F6F6F6F6F6F6F6F6F6F6F6F600F6F6F6F6F6F6F6F6F6F6F6F6F6F6F6F6F6F6F6F6F6F6F6F6F6F6F6F6F6F6F6F600F6F6F6F6F6F6F6F6F6F6F6F6F6F6F6F6F6F6F6F6F6F6F6F6F6F6F6F6F6F6F6F600F6F6F6F6F6F6F6F6F6F6F6F6F6F6F6F6F6F6F6F6F6F6F6F6F6F6F6F6F6F6F6F600F6F6F6F6F6F6F6F6F6F6F6F6F6F6F6
310
F6F6F6F6F6F6F6F6F6F6F6F6F6F6F6F6F600F6F6F6F6F6F6F6F6F6F6F6F6F6F6F6F6F6F6F6F6F6F6F6F6F6F6F6F6F6F6F6F600F6F6F6F6F6F6F6F6F6F6F6F6F6F6F6F6F6F6F6F6F6F6F6F6F6F6F6F6F6F6F6F600F6F6F6F6F6F6F6F6F6F6F6F6F6F6F6F6F6F6F6F6F6F6F6F6F6F6F6F6F6F6F6F600F6F6F6F6F6F6F6F6F6F6
310
F6F6F6F6F6F6F6F6F6F6F6F6F6F6F6F6F6F6F6F6F6F600F6F6F6F6F6F6F6F6F6F6F6F6F6F6F6F6F6F6F6F6F6F6F6F6F6F6F6F6F6F6F6F6F6
102
{BLKREFS
331
10B3C
331
10B3D
331
10B5B
331
10B5C
331
10B68
331
10B69
331
10B7A
331
10B7B
331
10BD7
331
10BD8
331
10BE0
331
10BE1
331
10C07
331
10C08
102
}
 70
     0
280
     1
281
     0
  0
BLOCK_RECORD
  5
2CD1
102
{ACAD_XDICTIONARY
360
DAA5
102
}
330
1
100
AcDbSymbolTableRecord
100
AcDbBlockTableRecord
  2
RK_Plankopf_klein_cad-support
340
0
 70
     4
280
     1
281
     0
1001
AcDbBlockRepETag
1070
     1
1071
       36
1001
AcDbDynamicBlockTrueName2
1000
RK_Plankopf_klein_cad-support
1001
AcDbDynamicBlockGUID
1000
{0F13E9CE-9146-449A-BD03-240D178B9CF9}
  0
BLOCK_RECORD
  5
C31F
102
{ACAD_XDICTIONARY
360
EF68
102
}
330
1
100
AcDbSymbolTableRecord
100
AcDbBlockTableRecord
  2
Beste
340
0
310
28000000200000002000000001002000000000000010000001000000010000000000000000000000FFFFFFFFFFFFFFFFFFFFFFFFFFFFFFFFFFFFFFFFFFFFFFFFFFFFFFFFFFFFFFFFFFFFFFFFFFFFFFFFFFFFFFFFFFFFFFFFFFFFFFFFFFFFFFFFFFFFFFFFFFFFFFFFFFFFFFFFFFFFFFFFFFFFFFFFFFFFFFFFFFFFFFFFFFFFFF
310
FFFFFFFFFFFFFFFFFFFFFFFFFFFFFFFFFFFFFFFFFFFFFFFFFFFFFFFFFFFFFFFFFFFFFFFFFFFFFFFFFFFFFFFFFFFFFFFFFFFFFFFFFFFFFFFFFFFFFFFFFFFFFFFFFFFFFFFFFFFFFFFFFFFFFFFFFFFFFFFFFFFFFFFFFFFFFFFFFFFFFFFFFFFFFFFFFFFFFFFFFFFFFFFFFFFFFFFFFFFFFFFFFFFFFFFFFFFFFFFFFFFFFFFFFFFFFF
310
FFFFFFFFFFFFFFFFFFFFFFFFFFFFFFFFFFFFFFFFFFFFFFFFFFFFFFFFFFFFFFFFFFFFFFFFFFFFFFFFFFFFFFFFFFFFFFFFFFFFFFFFFFFFFFFFFFFFFFFFFFFFFFFFFFFFFFFFFFFFFFFFFFFFFFFFFFFFFFFFFFFFFFFFFFFFFFFFFFFFFFFFFFFFFFFFFFFFFFFFFFFFFFFFFFFFFFFFFFFFFFFFFFFFFFFFFFFFFFFFFFFFFFFFFFFFFF
310
FFFFFFFFFFFFFFFFFFFFFFFFFFFFFFFFFFFFFFFFFFFFFFFFFFFFFFFFFFFFFFFFFFFFFFFFFFFFFFFFFFFFFFFFFFFFFFFFFFFFFFFFFFFFFFFFFFFFFFFFFFFFFFFFFFFFFFFFFFFFFFFFFFFFFFFFFFFFFFFFFFFFFFFFFFFFFFFFFFFFFFFFFFFFFFFFFFFFFFFFFFFFFFFFFFFFFFFFFFFFFFFFFFFFFFFFFFFFFFFFFFFFFFFFFFFFFF
310
FFFFFFFFFFFFFFFFFFFFFFFFFFFFFFFFFFFFFFFFFFFFFFFFFFFFFFFFFFFFFFFFFFFFFFFFFFFFFFFFFFFFFFFFFFFFFFFFFFFFFFFFFFFFFFFFFFFFFFFFFFFFFFFFFFFFFFFFFFFFFFFFFFFFFFFFFFFFFFFFFFFFFFFFFFFFFFFFFFFFFFFFFFFFFFFFFFFFFFFFFFFFFFFFFFFFFFFFFFFFFFFFFFFFFFFFFFFFFFFFFFFFFFFFFFFFFF
310
FFFFFFFFFFFFFFFFFFFFFFFFFFFFFFFFFFFFFFFFFFFFFFFFFFFFFFFFFFFFFFFFFFFFFFFFFFFFFFFFFFFFFFFFFFFFFFFFFFFFFFFFFFFFFFFFFFFFFFFFFFFFFFFFFFFFFFFFFFFFFFFFFFFFFFFFFFFFFFFFFFFFFFFFFFFFFFFFFFFFFFFFFFFFFFFFFFFFFFFFFFFFFFFFFFFFFFFFFFFFFFFFFFFFFFFFFFFFFFFFFFFFFFFFFFFFFF
310
FFFFFFFFFFFFFFFFFFFFFFFFFFFFFFFFFFFFFFFFFFFFFFFFFFFFFFFFFFFFFFFFFFFFFFFFFFFFFFFFFFFFFFFFFFFFFFFFFFFFFFFFFFFFFFFFFFFFFFFFFFFFFFFFFFFFFFFFFFFFFFFFFFFFFFFFFFFFFFFFFFFFFFFFFFFFFFFFFFFFFFFFFFFFFFFFFFFFFFFFFFFFFFFFFFFFFFFFFFFFFFFFFFFFFFFFFFFFFFFFFFFFFFFFFFFFFF
310
FFFFFFFFFFFFFFFFFFFFFFFFFFFFFFFFFFFFFFFFFFFFFFFFFFFFFFFFFFFFFFFFFFFFFFFFFFFFFFFFFFFFFFFFFFFFFFFFFFFFFFFFFFFFFFFFFFFFFFFFFFFFFFFFFFFFFFFFFFFFFFFFFFFFFFFFFFFFFFFFFFFFFFFFFFFFFFFFFFFFFFFFFFFFFFFFFFFFFFFFFFFFFFFFFFFFFFFFFFFFFFFFFFFFFFFFFFFFFFFFFFFFFFFFFFFFFF
310
FFFFFFFFFFFFFFFFFFFFFFFFFFFFFFFFFFFFFFFFFFFFFFFFFFFFFFFFFFFFFFFFFFFFFFFFFFFFFFFFFFFFFFFFFFFFFFFFFFFFFFFFFFFFFFFFFFFFFFFFFFFFFFFFFFFFFFFFFFFFFFFFFFFFFFFFFFFFFFFFFFFFFFFFFFFFFFFFFFFFFFFFFFFFFFFFFFFFFFFFFFFFFFFFFFFFFFFFFFFFFFFFFFFFFFFFFFFFFFFFFFFFFFFFFFFFFF
310
FFFFFFFFFFFFFFFFFFFFFFFFFFFFFFFFFFFFFFFFFFFFFFFFFFFFFFFFFFFFFFFFFFFFFFFFFFFFFFFFFFFFFFFFFFFFFFFFFFFFFFFFFFFFFFFFFFFFFFFFFFFFFFFFFFFFFFFFFFFFFFFFFFFFFFFFFFFFFFFFFFFFFFFFFFFFFFFFFFFFFFFFFFFFFFFFFFFFFFFFFFFFFFFFFFFFFFFFFFFFFFFFFFFFFFFFFFFFFFFFFFFFFFFFFFFFFF
310
FFFFFFFFFFFFFFFFFFFFFFFFFFFFFFFFFFFFFFFFFFFFFFFFFFFFFFFFFFFFFFFFFFFFFFFFFFFFFFFFFFFFFFFFFFFFFFFFFFFFFFFFFFFFFFFFFFFFFFFFFFFFFFFFFFFFFFFFFFFFFFFFFFFFFFFFFFFFFFFFFFFFFFFFFFFFFFFFFFFFFFFFFFFFFFFFFFFFFFFFFFFFFFFFFFFFFFFFFFFFFFFFFFFFFFFFFFFFFFFFFFFFFFFFFFFFFF
310
FFFFFFFFFFFFFFFFFFFFFFFFFFFFFFFFFFFFFFFFFFFFFFFFFFFFFFFFFFFFFFFFFFFFFFFFFFFFFFFFFFFFFFFFFFFFFFFFFFFFFFFFFFFFFFFFFFFFFFFFFFFFFFFFFFFFFFFFFFFFFFFFFFFFFFFFFFFFFFFFFFFFFFFFFFFFFFFFFFFFFFFFFFFFFFFFFFFFFFFFFFFFFFFFFFFFFFFFFFFFFFFFFFFFFFFFFFFFFFFFFFFFFFFFFFFFFF
310
FFFFFFFFFFFFFFFFFFFFFFFFFFFFFFFFFFFFFFFFFFFFFFFFFFFFFFFFFFFFFFFFFFFFFFFFFFFFFFFFFFFFFFFFFFFFFFFFFFFFFFFFFFFFFFFFFF0000FFFF0000FFFF0000FFFF0000FFFF0000FFFF0000FFFF0000FFFFFFFFFFFFFFFFFFFFFFFFFFFFFFFFFFFFFFFFFF000000FF000000FF000000FF000000FF000000FF000000
310
FF000000FF000000FF000000FF000000FF000000FF000000FFFFFFFFFFFFFFFFFFFFFFFFFFFFFFFFFFFFFFFFFFFFFFFFFFFFFFFFFFFFFFFFFFFF0000FFFF0000FFFF0000FFFF0000FFFF0000FFFF0000FFFF0000FFFFFFFFFFFFFFFFFFFFFFFFFFFFFFFFFFFFFFFFFFFF0000FFFF0000FFFF0000FF000000FF000000FF0000
310
00FF000000FF000000FF000000FF000000FF000000FF000000FFFFFFFFFFFFFFFFFFFFFFFFFFFFFFFFFFFFFFFFFFFFFFFFFFFFFFFFFFFFFFFFFFFF0000FFFF0000FFFF0000FFFF0000FFFF0000FFFF0000FFFF0000FFFF0000FFFF0000FFFF0000FFFF0000FFFF0000FF000000FF000000FF000000FF000000FF000000FF00
310
0000FF000000FF000000FF000000FF000000FF000000FF000000FFFFFFFFFFFFFFFFFFFFFFFFFFFFFFFFFFFFFFFFFFFFFFFFFFFFFFFFFFFFFFFFFFFF0000FFFF0000FFFF0000FFFF0000FFFF0000FFFFFFFFFFFFFFFFFFFFFFFFFFFFFFFFFFFFFFFFFFFFFFFFFFFFFFFFFFFF0000FFFF0000FFFF0000FF000000FF000000FF
310
000000FF000000FF000000FF000000FF000000FF000000FF000000FFFFFFFFFFFFFFFFFFFFFFFFFFFFFFFFFFFFFFFFFFFFFFFFFFFFFFFFFFFFFFFFFFFF0000FFFF0000FFFF0000FFFF0000FFFF0000FFFF0000FFFF0000FFFF0000FFFF0000FFFF0000FFFF0000FFFF0000FFFF0000FFFF0000FFFF0000FF000000FFFF0000
310
FFFF0000FF000000FF000000FF000000FF000000FF000000FF000000FFFFFFFFFFFFFFFFFFFFFFFFFFFFFFFFFFFFFFFFFFFFFFFFFFFFFFFFFFFFFFFFFFFF0000FFFF0000FFFF0000FFFF0000FFFFFFFFFFFFFFFFFFFFFFFFFFFFFFFFFFFFFFFFFFFFFFFFFFFFFFFFFFFFFFFFFF000000FF000000FF000000FF000000FFFF00
310
00FFFF0000FF000000FF000000FF000000FF000000FF000000FF000000FFFFFFFFFFFFFFFFFFFFFFFFFFFFFFFFFFFFFFFFFFFFFFFFFFFFFFFFFFFFFFFFFFFF0000FFFF0000FFFF0000FFFF0000FFFF0000FFFF0000FFFF0000FFFF0000FFFF0000FFFF0000FFFF0000FFFF0000FFFF0000FFFF0000FFFF0000FF000000FFFF
310
0000FF000000FF000000FF000000FFFFFFFFFFFFFFFFFFFFFFFFFF000000FFFFFFFFFFFFFFFFFFFFFFFFFFFFFFFFFFFFFFFFFFFFFFFFFFFFFFFFFFFFFFFFFFFF0000FFFF0000FFFF0000FFFFFFFFFFFF0000FFFF0000FFFF0000FFFF0000FFFFFFFFFFFF0000FFFF0000FFFFFFFFFF000000FF000000FF000000FF000000FF
310
000000FF000000FF000000FF000000FF000000FF000000FF000000FF000000FFFFFFFFFFFFFFFFFFFFFFFFFFFFFFFFFFFFFFFFFFFFFFFFFFFFFFFFFFFFFFFFFFFFFFFFFFFFFFFFFFFFFFFFFFFFFFFFFFFFFFFFFFFFFFFFFFFFFFFFFFFFFFFFFFFFFFFFFFFFFFFFFFFFFFFFFFFFFFFFFFFFFFFFFFFFFFFFFFFFFFFFFFFFFFFF
310
FFFFFFFFFFFFFFFFFFFFFFFFFFFFFFFFFFFFFFFFFFFFFFFFFFFFFFFFFFFFFFFFFFFFFFFFFFFFFFFFFFFFFFFFFFFFFFFFFFFFFFFFFFFFFFFFFFFFFFFFFFFFFFFFFFFFFFFFFFFFFFFFFFFFFFFFFFFFFFFFFFFFFFFFFFFFFFFFFFFFFFFFFFFFFFFFFFFFFFFFFFFFFFFFFFFFFFFFFFFFFFFFFFFFFFFFFFFFFFFFFFFFFFFFFFFFFF
310
FFFFFFFFFFFFFFFFFFFFFFFFFFFFFFFFFFFFFFFFFFFFFFFFFFFFFFFFFFFFFFFFFFFFFFFFFFFFFFFFFFFFFFFFFFFFFFFFFFFFFFFFFFFFFFFFFFFFFFFFFFFFFFFFFFFFFFFFFFFFFFFFFFFFFFFFFFFFFFFFFFFFFFFFFFFFFFFFFFFFFFFFFFFFFFFFFFFFFFFFFFFFFFFFFFFFFFFFFFFFFFFFFFFFFFFFFFFFFFFFFFFFFFFFFFFFFF
310
FFFFFFFFFFFFFFFFFFFFFFFFFFFFFFFFFFFFFFFFFFFFFFFFFFFFFFFFFFFFFFFFFFFFFFFFFFFFFFFFFFFFFFFFFFFFFFFFFFFFFFFFFFFFFFFFFFFFFFFFFFFFFFFFFFFFFFFFFFFFFFFFFFFFFFFFFFFFFFFFFFFFFFFFFFFFFFFFFFFFFFFFFFFFFFFFFFFFFFFFFFFFFFFFFFFFFFFFFFFFFFFFFFFFFFFFFFFFFFFFFFFFFFFFFFFFFF
310
FFFFFFFFFFFFFFFFFFFFFFFFFFFFFFFFFFFFFFFFFFFFFFFFFFFFFFFFFFFFFFFFFFFFFFFFFFFFFFFFFFFFFFFFFFFFFFFFFFFFFFFFFFFFFFFFFFFFFFFFFFFFFFFFFFFFFFFFFFFFFFFFFFFFFFFFFFFFFFFFFFFFFFFFFFFFFFFFFFFFFFFFFFFFFFFFFFFFFFFFFFFFFFFFFFFFFFFFFFFFFFFFFFFFFFFFFFFFFFFFFFFFFFFFFFFFFF
310
FFFFFFFFFFFFFFFFFFFFFFFFFFFFFFFFFFFFFFFFFFFFFFFFFFFFFFFFFFFFFFFFFFFFFFFFFFFFFFFFFFFFFFFFFFFFFFFFFFFFFFFFFFFFFFFFFFFFFFFFFFFFFFFFFFFFFFFFFFFFFFFFFFFFFFFFFFFFFFFFFFFFFFFFFFFFFFFFFFFFFFFFFFFFFFFFFFFFFFFFFFFFFFFFFFFFFFFFFFFFFFFFFFFFFFFFFFFFFFFFFFFFFFFFFFFFFF
310
FFFFFFFFFFFFFFFFFFFFFFFFFFFFFFFFFFFFFFFFFFFFFFFFFFFFFFFFFFFFFFFFFFFFFFFFFFFFFFFFFFFFFFFFFFFFFFFFFFFFFFFFFFFFFFFFFFFFFFFFFFFFFFFFFFFFFFFFFFFFFFFFFFFFFFFFFFFFFFFFFFFFFFFFFFFFFFFFFFFFFFFFFFFFFFFFFFFFFFFFFFFFFFFFFFFFFFFFFFFFFFFFFFFFFFFFFFFFFFFFFFFFFFFFFFFFFF
310
FFFFFFFFFFFFFFFFFFFFFFFFFFFFFFFFFFFFFFFFFFFFFFFFFFFFFFFFFFFFFFFFFFFFFFFFFFFFFFFFFFFFFFFFFFFFFFFFFFFFFFFFFFFFFFFFFFFFFFFFFFFFFFFFFFFFFFFFFFFFFFFFFFFFFFFFFFFFFFFFFFFFFFFFFFFFFFFFFFFFFFFFFFFFFFFFFFFFFFFFFFFFFFFFFFFFFFFFFFFFFFFFFFFFFFFFFFFFFFFFFFFFFFFFFFFFFF
310
FFFFFFFFFFFFFFFFFFFFFFFFFFFFFFFFFFFFFFFFFFFFFFFFFFFFFFFFFFFFFFFFFFFFFFFFFFFFFFFFFFFFFFFFFFFFFFFFFFFFFFFFFFFFFFFFFFFFFFFFFFFFFFFFFFFFFFFFFFFFFFFFFFFFFFFFFFFFFFFFFFFFFFFFFFFFFFFFFFFFFFFFFFFFFFFFFFFFFFFFFFFFFFFFFFFFFFFFFFFFFFFFFFFFFFFFFFFFFFFFFFFFFFFFFFFFFF
310
FFFFFFFFFFFFFFFFFFFFFFFFFFFFFFFFFFFFFFFFFFFFFFFFFFFFFFFFFFFFFFFFFFFFFFFFFFFFFFFFFFFFFFFFFFFFFFFFFFFFFFFFFFFFFFFFFFFFFFFFFFFFFFFFFFFFFFFFFFFFFFFFFFFFFFFFFFFFFFFFFFFFFFFFFFFFFFFFFFFFFFFFFFFFFFFFFFFFFFFFFFFFFFFFFFFFFFFFFFFFFFFFFFFFFFFFFFFFFFFFFFFFFFFFFFFFFF
310
FFFFFFFFFFFFFFFFFFFFFFFFFFFFFFFFFFFFFFFFFFFFFFFFFFFFFFFFFFFFFFFFFFFFFFFFFFFFFFFFFFFFFFFFFFFFFFFFFFFFFFFFFFFFFFFFFFFFFFFFFFFFFFFFFFFFFFFFFFFFFFFFFFFFFFFFFFFFFFFFFFFFFFFFFFFFFFFFFFFFFFFFFFFFFFFFFFFFFFFFFFFFFFFFFFFFFFFFFFFFFFFFFFFFFFFFFFFFFFFFFFFFFFFFFFFFFF
310
FFFFFFFFFFFFFFFFFFFFFFFFFFFFFFFFFFFFFFFFFFFFFFFFFFFFFFFFFFFFFFFFFFFFFFFFFFFFFFFFFFFFFFFFFFFFFFFFFFFFFFFFFFFFFFFFFFFFFFFFFFFFFFFFFFFFFFFFFFFFFFFFFFFFFFFFFFFFFFFFFFFFFFFFFFFFFFFFFFFFFFFFFFFFFFFFFFFFFFFFFFFFFFFFFFFFFFFFFFFFFFFFFFFFFFFFFFFFFFFFFFFFFFFFFFFFFF
310
FFFFFFFFFFFFFFFFFFFFFFFFFFFFFFFFFFFFFFFFFFFFFFFFFFFFFFFFFFFFFFFFFFFFFFFFFFFFFFFFFFFFFFFFFFFFFFFFFFFFFFFFFFFFFFFFFFFFFFFFFFFFFFFFFFFFFFFFFFFFFFFF
 70
     4
280
     1
281
     0
1001
AcDbDynamicBlockTrueName
1000
Beste
1001
AcDbDynamicBlockGUID
1000
{3BC679EF-546F-4722-8871-6E25257A883D}
1001
AcDbBlockRepETag
1070
     1
1071
       74
  0
BLOCK_RECORD
  5
DABB
102
{ACAD_XDICTIONARY
360
DAD0
102
}
330
1
100
AcDbSymbolTableRecord
100
AcDbBlockTableRecord
  2
*U3
340
0
102
{BLKREFS
331
6AB7
102
}
 70
     0
280
     1
281
     0
1001
AcDbBlockRepBTag
1070
     1
1005
2CD1
  0
BLOCK_RECORD
  5
EFD1
102
{ACAD_XDICTIONARY
360
F009
102
}
330
1
100
AcDbSymbolTableRecord
100
AcDbBlockTableRecord
  2
*U14
340
0
102
{BLKREFS
331
E105
102
}
 70
     0
280
     1
281
     0
1001
AcDbBlockRepBTag
1070
     1
1005
C31F
  0
BLOCK_RECORD
  5
10536
330
1
100
AcDbSymbolTableRecord
100
AcDbBlockTableRecord
  2
*D246
340
0
 70
     0
280
     1
281
     0
  0
BLOCK_RECORD
  5
10B36
330
1
100
AcDbSymbolTableRecord
100
AcDbBlockTableRecord
  2
*D324
340
0
 70
     0
280
     1
281
     0
  0
BLOCK_RECORD
  5
10B43
330
1
100
AcDbSymbolTableRecord
100
AcDbBlockTableRecord
  2
*D325
340
0
 70
     0
280
     1
281
     0
  0
BLOCK_RECORD
  5
10B62
330
1
100
AcDbSymbolTableRecord
100
AcDbBlockTableRecord
  2
*D326
340
0
 70
     0
280
     1
281
     0
  0
BLOCK_RECORD
  5
10B95
330
1
100
AcDbSymbolTableRecord
100
AcDbBlockTableRecord
  2
*D327
340
0
 70
     0
280
     1
281
     0
  0
BLOCK_RECORD
  5
10BA5
330
1
100
AcDbSymbolTableRecord
100
AcDbBlockTableRecord
  2
*D328
340
0
 70
     0
280
     1
281
     0
  0
BLOCK_RECORD
  5
10BBD
330
1
100
AcDbSymbolTableRecord
100
AcDbBlockTableRecord
  2
*D329
340
0
 70
     0
280
     1
281
     0
  0
BLOCK_RECORD
  5
10BE7
330
1
100
AcDbSymbolTableRecord
100
AcDbBlockTableRecord
  2
*D330
340
0
 70
     0
280
     1
281
     0
  0
ENDTAB
  0
ENDSEC
  0
SECTION
  2
BLOCKS
  0
BLOCK
  5
1A
330
19
100
AcDbEntity
  8
0
100
AcDbBlockBegin
  2
*MODEL_SPACE
 70
     0
 10
0.0
 20
0.0
 30
0.0
  3
*MODEL_SPACE
  1

  0
ENDBLK
  5
1B
330
19
100
AcDbEntity
  8
0
100
AcDbBlockEnd
  0
BLOCK
  5
ACF
330
ACD
100
AcDbEntity
 67
     1
  8
0
100
AcDbBlockBegin
  2
*Paper_Space
 70
     0
 10
0.0
 20
0.0
 30
0.0
  3
*Paper_Space
  1

  0
ENDBLK
  5
AD0
330
ACD
100
AcDbEntity
 67
     1
  8
0
100
AcDbBlockEnd
  0
BLOCK
  5
42
330
41
100
AcDbEntity
  8
0
100
AcDbBlockBegin
  2
_OBLIQUE
 70
     0
 10
0.0
 20
0.0
 30
0.0
  3
_OBLIQUE
  1

  0
LINE
  5
43
330
41
100
AcDbEntity
  8
0
  6
ByBlock
 62
     0
100
AcDbLine
 10
-0.5
 20
-0.5
 30
0.0
 11
0.5
 21
0.5
 31
0.0
  0
ENDBLK
  5
44
330
41
100
AcDbEntity
  8
0
100
AcDbBlockEnd
  0
BLOCK
  5
2CEC
330
2CD1
100
AcDbEntity
  8
0
100
AcDbBlockBegin
  2
RK_Plankopf_klein_cad-support
 70
     2
 10
0.0
 20
0.0
 30
0.0
  3
RK_Plankopf_klein_cad-support
  1

  0
TEXT
  5
DA96
330
2CD1
100
AcDbEntity
  8
Plankopf_Variablen
100
AcDbText
 10
-34.18332480369922
 20
20.6389974660471
 30
0.0
 40
1.8
  1
Ech.
  7
Plankopf_cad-support
 72
     2
 11
-29.15167405335816
 21
20.6389974660471
 31
0.0
100
AcDbText
1001
AcDbBlockRepETag
1070
     1
1071
        3
1005
DA96
  0
TEXT
  5
DA97
330
2CD1
100
AcDbEntity
  8
Plankopf_Variablen
100
AcDbText
 10
-79.54207546896475
 20
20.72346510224173
 30
0.0
 40
1.8
  1
Date:
  7
Plankopf_cad-support
100
AcDbText
1001
AcDbBlockRepETag
1070
     1
1071
        5
1005
DA97
  0
ATTDEF
  5
DA98
330
2CD1
100
AcDbEntity
  8
Plankopf_Variablen
100
AcDbText
 10
-26.37590902967417
 20
20.72346510224173
 30
0.0
 40
2.0
  1
1:15
  7
robert_koch
100
AcDbAttributeDefinition
280
     0
  3
Massstab:
  2
MASSSTAB
 70
     4
280
     0
1001
AcDbBlockRepETag
1070
     1
1071
        4
1005
0
  0
ATTDEF
  5
DA99
330
2CD1
100
AcDbEntity
  8
Plankopf_Variablen
100
AcDbText
 10
-64.04207546896476
 20
20.72346510224173
 30
0.0
 40
2.0
  1
dd.mm.jjjj
  7
robert_koch
100
AcDbAttributeDefinition
280
     0
  3
Datum Erstellt:
  2
DATUM-ERST
 70
     4
280
     0
1001
AcDbBlockRepETag
1070
     1
1071
        6
1005
0
  0
LINE
  5
DA9A
330
2CD1
100
AcDbEntity
  8
0
100
AcDbLine
 10
-155.1096586774657
 20
19.31430228908696
 30
0.0
 11
0.0
 21
19.31430228908695
 31
0.0
1001
AcDbBlockRepETag
1070
     1
1071
       11
1005
DA9A
  0
LWPOLYLINE
  5
DA9B
330
2CD1
100
AcDbEntity
  8
0
100
AcDbPolyline
 90
        4
 70
     1
 43
0.0
 10
0.0
 20
0.0
 10
-155.1096586774657
 20
-0.2645942145166771
 10
-155.1096586774657
 20
34.99354328505923
 10
0.0000000000000142
 20
35.25813749957591
1001
AcDbBlockRepETag
1070
     1
1071
       13
1005
DA9B
  0
LWPOLYLINE
  5
DA9C
330
2CD1
100
AcDbEntity
  8
0
100
AcDbPolyline
 90
        3
 70
     0
 43
0.0
 10
-81.47309283979494
 20
35.12584039231757
 10
-81.47309283979494
 20
35.12584039231757
 10
-81.47309283979495
 20
0.3974901491781679
1001
AcDbBlockRepETag
1070
     1
1071
       19
1005
DA9C
  0
MTEXT
  5
DA9D
330
2CD1
100
AcDbEntity
  8
Plankopf_Text
100
AcDbMText
 10
-79.57945067512731
 20
16.00489694425158
 30
0.0
 40
1.8
 41
77.95493821702439
 46
0.0
 71
     1
 72
     5
  1
Alle Abmessungen in mm. Farbe und Abmessungen können aufgrund des Produktionsprozesses geringfügig abweichen. Weitergabe sowie Verfielfältigung dieser Unterlage und Mitteilung ihres Inhalts ist nicht gestattet., soweit nicht ausdrücklich zugestanden.
  7
robert_koch
 73
     1
 44
1.0
1001
AcDbBlockRepETag
1070
     1
1071
       25
1005
DA9D
1001
ACAD
1000
ACAD_MTEXT_COLUMN_INFO_BEGIN
1070
    75
1070
     2
1070
    79
1070
     0
1070
    76
1070
     1
1070
    78
1070
     0
1070
    48
1040
77.95493821702439
1070
    49
1040
12.5
1070
    50
1070
     1
1040
0.0
1000
ACAD_MTEXT_COLUMN_INFO_END
  0
MTEXT
  5
DA9E
330
2CD1
100
AcDbEntity
  8
Plankopf_Anschrift
100
AcDbMText
 10
-152.9465280856904
 20
6.45380978811579
 30
0.0
 40
2.0
 41
56.00456736621527
 46
0.0
 71
     7
 72
     5
  1
{\C0;Studer Handels AG\PHarbirbenweg 1\fCalibri|b0|i0|c0|p34;^J\fArial|b0|i0|c0|p34;8181 Höri}
 73
     1
 44
1.0
1001
AcDbBlockRepETag
1070
     1
1071
       27
1005
DA9E
1001
ACAD
1000
ACAD_MTEXT_COLUMN_INFO_BEGIN
1070
    75
1070
     2
1070
    79
1070
     0
1070
    76
1070
     1
1070
    78
1070
     0
1070
    48
1040
56.00456736621527
1070
    49
1040
12.5
1070
    50
1070
     1
1040
0.0
1000
ACAD_MTEXT_COLUMN_INFO_END
  0
MTEXT
  5
DA9F
330
2CD1
100
AcDbEntity
  8
Plankopf_Anschrift
100
AcDbMText
 10
-113.3494038308032
 20
6.45380978811579
 30
0.0
 40
2.0
 41
56.00456736621527
 46
0.0
 71
     7
 72
     5
  1
{\C0;Telefon: 044 823 18 80\fCalibri|b0|i0|c0|p34;^J\fArial|b0|i0|c0|p34;www.studerhandels.ch \Pinfo@studerhandels.ch}
 73
     1
 44
1.0
1001
AcDbBlockRepETag
1070
     1
1071
       28
1005
DA9F
1001
ACAD
1000
ACAD_MTEXT_COLUMN_INFO_BEGIN
1070
    75
1070
     2
1070
    79
1070
     0
1070
    76
1070
     1
1070
    78
1070
     0
1070
    48
1040
56.00456736621527
1070
    49
1040
12.5
1070
    50
1070
     1
1040
0.0
1000
ACAD_MTEXT_COLUMN_INFO_END
  0
ATTDEF
  5
DAA0
330
2CD1
100
AcDbEntity
  8
Plankopf_Variablen
100
AcDbText
 10
-64.42938305725771
 20
27.53059164123852
 30
0.0
 40
3.5
  1

  7
Plankopf_cad-support
100
AcDbAttributeDefinition
280
     0
  3
Typ/Type
  2
TYP/TYPE:
 70
     4
280
     0
1001
AcDbBlockRepETag
1070
     1
1071
       30
1005
0
  0
TEXT
  5
DAA1
330
2CD1
100
AcDbEntity
  8
Plankopf_Variablen
100
AcDbText
 10
-79.92938305725771
 20
27.53059164123852
 30
0.0
 40
3.5
  1
Typ:
  7
Plankopf_cad-support
100
AcDbText
1001
AcDbBlockRepETag
1070
     1
1071
       31
1005
DAA1
  0
MTEXT
  5
DAA2
330
2CD1
100
AcDbEntity
  8
0
 60
     1
100
AcDbMText
 10
-79.57945067512731
 20
16.00489694425158
 30
0.0
 40
1.8
 41
77.95493821702439
 46
0.0
 71
     1
 72
     5
  3
Toutes les dimensions en mm. En raison du processus de\Pproduction les coloris et dimensions peuvent légèrement différer du\Pfichier. La transmission et la reproduction de ce document ainsi que\Pla communication de son contenu sont interdites, sauf a
  1
ccord formel.
  7
robert_koch
 73
     1
 44
1.0
1001
AcDbBlockRepETag
1070
     1
1071
       32
1005
DAA2
1001
ACAD
1000
ACAD_MTEXT_COLUMN_INFO_BEGIN
1070
    75
1070
     2
1070
    79
1070
     0
1070
    76
1070
     1
1070
    78
1070
     0
1070
    48
1040
77.95493821702439
1070
    49
1040
12.5
1070
    50
1070
     1
1040
0.0
1000
ACAD_MTEXT_COLUMN_INFO_END
  0
IMAGE
  5
DAA3
330
2CD1
100
AcDbEntity
  8
0
 62
     7
160
               140
310
8C00000001000000840000000600000005000000BC4143890E4863C0C593FD3366F135400000000000000000BC4143890E4863C0601AE4EB3014404000000000000000005A4739A7969D54C0601AE4EB3014404000000000000000005A4739A7969D54C0C593FD3366F135400000000000000000BC4143890E4863C0C593FD
310
3366F135400000000000000000
100
AcDbRasterImage
 90
        0
 10
-154.2517744363412
 20
21.94296574536181
 30
0.0
 11
0.0408591088751599
 21
0.0
 31
0.0
 12
0.0
 22
0.0408591088751599
 32
0.0
 13
1757.0
 23
250.0
340
D790
 70
     7
280
     0
281
    50
282
    50
283
     0
290
     0
360
DAA4
 71
     1
 91
        2
 14
-0.5
 24
-0.5
 14
1756.5
 24
249.5
1001
AcDbBlockRepETag
1070
     1
1071
       35
1005
DAA3
  0
ENDBLK
  5
2CED
330
2CD1
100
AcDbEntity
  8
0
100
AcDbBlockEnd
  0
BLOCK
  5
C320
330
C31F
100
AcDbEntity
  8
0
 62
     7
100
AcDbBlockBegin
  2
Beste
 70
     0
 10
0.0
 20
0.0
 30
0.0
  3
Beste
  1

  0
CIRCLE
  5
EF23
330
C31F
100
AcDbEntity
  8
Bestellung_Symbole
100
AcDbCircle
 10
-202.8184196596068
 20
16.51848021816525
 30
0.0
 40
1.445345169475509
1001
AcDbBlockRepETag
1070
     1
1071
        0
1005
EF23
  0
LINE
  5
EF24
330
C31F
100
AcDbEntity
  8
Bestellung_Symbole
100
AcDbLine
 10
-203.4077514933053
 20
15.84998238243017
 30
0.0
 11
-202.085734366442
 21
15.84998238243017
 31
0.0
1001
AcDbBlockRepETag
1070
     1
1071
        1
1005
EF24
  0
LINE
  5
EF25
330
C31F
100
AcDbEntity
  8
Bestellung_Symbole
100
AcDbLine
 10
-202.085734366442
 20
15.84998238243017
 30
0.0
 11
-202.085734366442
 21
15.84998238243017
 31
0.0
1001
AcDbBlockRepETag
1070
     1
1071
        2
1005
EF25
  0
LINE
  5
EF26
330
C31F
100
AcDbEntity
  8
Bestellung_Symbole
100
AcDbLine
 10
-202.085734366442
 20
15.84998238243017
 30
0.0
 11
-202.085734366442
 21
17.17106245491132
 31
0.0
1001
AcDbBlockRepETag
1070
     1
1071
        3
1005
EF26
  0
CIRCLE
  5
EF2B
330
C31F
100
AcDbEntity
  8
Bestellung_Symbole
100
AcDbCircle
 10
-202.8184196596068
 20
25.19359369046812
 30
0.0
 40
1.445345169475509
1001
AcDbBlockRepETag
1070
     1
1071
        8
1005
EF2B
  0
CIRCLE
  5
EF2C
330
C31F
100
AcDbEntity
  8
Bestellung_Symbole
100
AcDbCircle
 10
-202.8191454233125
 20
28.69359387268516
 30
0.0
 40
1.445345169475509
1001
AcDbBlockRepETag
1070
     1
1071
        9
1005
EF2C
  0
CIRCLE
  5
EF2D
330
C31F
100
AcDbEntity
  8
Bestellung_Symbole
100
AcDbCircle
 10
-202.8184196596068
 20
33.62848730273679
 30
0.0
 40
1.445345169475509
1001
AcDbBlockRepETag
1070
     1
1071
       10
1005
EF2D
  0
LINE
  5
EF2F
330
C31F
100
AcDbEntity
  8
Bestellung_Symbole
100
AcDbLine
 10
-203.6894587970163
 20
32.47509514044895
 30
0.0
 11
-201.9473805221973
 21
34.7818794650246
 31
0.0
1001
AcDbBlockRepETag
1070
     1
1071
       13
1005
EF2F
  0
LINE
  5
EF30
330
C31F
100
AcDbEntity
  8
Bestellung_Symbole
370
    70
100
AcDbLine
 10
-202.8928512393241
 20
25.84161160611542
 30
0.0
 11
-202.8928512393241
 21
24.30535591478661
 31
0.0
1001
AcDbBlockRepETag
1070
     1
1071
       14
1005
EF30
  0
LINE
  5
EF31
330
C31F
100
AcDbEntity
  8
Bestellung_Symbole
100
AcDbLine
 10
-202.8928512393241
 20
24.30535591478661
 30
0.0
 11
-202.8928512393241
 21
24.30535591478661
 31
0.0
1001
AcDbBlockRepETag
1070
     1
1071
       15
1005
EF31
  0
LINE
  5
EF34
330
C31F
100
AcDbEntity
  8
Bestellung_Symbole
 62
     7
100
AcDbLine
 10
-203.1557058637651
 20
28.25250682165695
 30
0.0
 11
-203.1557058637651
 21
27.91065444565977
 31
0.0
1001
AcDbBlockRepETag
1070
     1
1071
       21
1005
EF34
  0
LINE
  5
EF35
330
C31F
100
AcDbEntity
  8
Bestellung_Symbole
 62
     7
100
AcDbLine
 10
-203.1557058637651
 20
27.91065444565977
 30
0.0
 11
-202.3964839831671
 21
27.91065444565977
 31
0.0
1001
AcDbBlockRepETag
1070
     1
1071
       22
1005
EF35
  0
LINE
  5
EF36
330
C31F
100
AcDbEntity
  8
Bestellung_Symbole
 62
     7
100
AcDbLine
 10
-202.3964839831671
 20
27.91065444565977
 30
0.0
 11
-202.3964839831671
 21
28.67773667544266
 31
0.0
1001
AcDbBlockRepETag
1070
     1
1071
       23
1005
EF36
  0
LINE
  5
EF37
330
C31F
100
AcDbEntity
  8
Bestellung_Symbole
 62
     7
100
AcDbLine
 10
-202.3964839831671
 20
28.67773667544266
 30
0.0
 11
-203.172392928531
 21
28.67773667544266
 31
0.0
1001
AcDbBlockRepETag
1070
     1
1071
       24
1005
EF37
  0
LINE
  5
EF38
330
C31F
100
AcDbEntity
  8
Bestellung_Symbole
 62
     7
100
AcDbLine
 10
-203.172392928531
 20
28.67773667544266
 30
0.0
 11
-203.172392928531
 21
29.19468422563888
 31
0.0
1001
AcDbBlockRepETag
1070
     1
1071
       25
1005
EF38
  0
LINE
  5
EF39
330
C31F
100
AcDbEntity
  8
Bestellung_Symbole
 62
     7
100
AcDbLine
 10
-203.172392928531
 20
29.19468422563888
 30
0.0
 11
-202.3964839831671
 21
29.19468422563888
 31
0.0
1001
AcDbBlockRepETag
1070
     1
1071
       26
1005
EF39
  0
LWPOLYLINE
  5
EF3B
330
C31F
100
AcDbEntity
  8
Bestellung_Eingabe
100
AcDbPolyline
 90
        4
 70
     1
 43
0.0
 10
-198.441528703599
 20
32.08541717949549
 10
-192.4574493739312
 20
32.08541717949549
 10
-192.4574493739312
 20
35.17155742597804
 10
-198.441528703599
 20
35.17155742597804
1001
AcDbBlockRepETag
1070
     1
1071
       31
1005
EF3B
  0
MTEXT
  5
EF3C
330
C31F
100
AcDbEntity
  8
Bestellung Angaben D
100
AcDbMText
 10
-190.8900653399021
 20
34.73395550061562
 30
0.0
 40
1.7
 41
61.82327442795304
 46
0.0
 71
     1
 72
     5
  1
OHNE
 73
     1
 44
1.0
1001
AcDbBlockRepETag
1070
     1
1071
       32
1005
EF3C
1001
ACAD
1000
ACAD_MTEXT_COLUMN_INFO_BEGIN
1070
    75
1070
     2
1070
    79
1070
     0
1070
    76
1070
     1
1070
    78
1070
     0
1070
    48
1040
61.82327442795304
1070
    49
1040
12.5
1070
    50
1070
     1
1040
0.0
1000
ACAD_MTEXT_COLUMN_INFO_END
  0
MTEXT
  5
EF3E
330
C31F
100
AcDbEntity
  8
Bestellung Angaben D
 62
     7
100
AcDbMText
 10
-199.2675143603675
 20
17.4819563482379
 30
0.0
 40
1.7
 41
39.05808297608564
 46
0.0
 71
     1
 72
     5
  1
Top Aufsatzbecken, Aufsatzschale
 73
     1
 44
1.0
1001
AcDbBlockRepETag
1070
     1
1071
       34
1005
EF3E
1001
ACAD
1000
ACAD_MTEXT_COLUMN_INFO_BEGIN
1070
    75
1070
     2
1070
    79
1070
     0
1070
    76
1070
     1
1070
    78
1070
     0
1070
    48
1040
39.05808297608564
1070
    49
1040
12.5
1070
    50
1070
     1
1040
0.0
1000
ACAD_MTEXT_COLUMN_INFO_END
  0
MTEXT
  5
EF40
330
C31F
100
AcDbEntity
  8
Bestellung Angaben D
 62
     7
100
AcDbMText
 10
-190.8900653399021
 20
26.15706982054077
 30
0.0
 40
1.7
 41
39.05808297608564
 46
0.0
 71
     1
 72
     5
  1
Integriert (Option)
 73
     1
 44
1.0
1001
AcDbBlockRepETag
1070
     1
1071
       36
1005
EF40
1001
ACAD
1000
ACAD_MTEXT_COLUMN_INFO_BEGIN
1070
    75
1070
     2
1070
    79
1070
     0
1070
    76
1070
     1
1070
    78
1070
     0
1070
    48
1040
39.05808297608564
1070
    49
1040
12.5
1070
    50
1070
     1
1040
0.0
1000
ACAD_MTEXT_COLUMN_INFO_END
  0
MTEXT
  5
EF41
330
C31F
100
AcDbEntity
  8
Bestellung Angaben D
 62
     7
100
AcDbMText
 10
-190.8900653399021
 20
29.65706982054077
 30
0.0
 40
1.7
 41
39.05808297608564
 46
0.0
 71
     1
 72
     5
  1
Standard
 73
     1
 44
1.0
1001
AcDbBlockRepETag
1070
     1
1071
       37
1005
EF41
1001
ACAD
1000
ACAD_MTEXT_COLUMN_INFO_BEGIN
1070
    75
1070
     2
1070
    79
1070
     0
1070
    76
1070
     1
1070
    78
1070
     0
1070
    48
1040
39.05808297608564
1070
    49
1040
12.5
1070
    50
1070
     1
1040
0.0
1000
ACAD_MTEXT_COLUMN_INFO_END
  0
MTEXT
  5
EF44
330
C31F
100
AcDbEntity
  8
Bestellung Angaben D
100
AcDbMText
 10
-281.5221708216398
 20
18.87348710634419
 30
0.0
 40
2.5
 41
39.09569939019121
 46
0.0
 71
     1
 72
     5
  1
Farbe / Code:
 73
     1
 44
1.0
1001
AcDbBlockRepETag
1070
     1
1071
       40
1005
EF44
1001
ACAD
1000
ACAD_MTEXT_COLUMN_INFO_BEGIN
1070
    75
1070
     2
1070
    79
1070
     0
1070
    76
1070
     1
1070
    78
1070
     0
1070
    48
1040
39.09569939019121
1070
    49
1040
12.5
1070
    50
1070
     1
1040
0.0
1000
ACAD_MTEXT_COLUMN_INFO_END
  0
LINE
  5
EF45
330
C31F
100
AcDbEntity
  8
Bestellung_Eingabe
100
AcDbLine
 10
-259.5448287445003
 20
16.28822107633055
 30
0.0
 11
-226.2190906184021
 21
16.28822107633055
 31
0.0
1001
AcDbBlockRepETag
1070
     1
1071
       41
1005
EF45
  0
LWPOLYLINE
  5
EF46
330
C31F
100
AcDbEntity
  8
Bestellung_Symbole
 62
     7
100
AcDbPolyline
 90
        4
 70
     1
 43
0.0
 10
-221.3630295459457
 20
30.75195449901488
 10
-157.9279299824344
 20
30.75195449901489
 10
-157.9279299824344
 20
23.19695095672912
 10
-221.3630295459457
 20
23.19695095672912
1001
AcDbBlockRepETag
1070
     1
1071
       42
1005
EF46
  0
MTEXT
  5
EF47
330
C31F
100
AcDbEntity
  8
Bestellung Angaben D
100
AcDbMText
 10
-220.5068622150195
 20
28.34159795716912
 30
0.0
 40
1.7
 41
61.82327442795304
 46
0.0
 71
     1
 72
     5
  1
Ablauf:
 73
     1
 44
1.0
1001
AcDbBlockRepETag
1070
     1
1071
       43
1005
EF47
1001
ACAD
1000
ACAD_MTEXT_COLUMN_INFO_BEGIN
1070
    75
1070
     2
1070
    79
1070
     0
1070
    76
1070
     1
1070
    78
1070
     0
1070
    48
1040
61.82327442795304
1070
    49
1040
12.5
1070
    50
1070
     1
1040
0.0
1000
ACAD_MTEXT_COLUMN_INFO_END
  0
LWPOLYLINE
  5
EF48
330
C31F
100
AcDbEntity
  8
Bestellung_Symbole
 62
     7
100
AcDbPolyline
 90
        4
 70
     1
 43
0.0
 10
-221.3630295459457
 20
22.19695095672913
 10
-157.9279299824344
 20
22.19695095672913
 10
-157.9279299824344
 20
14.64194741444337
 10
-221.3630295459457
 20
14.64194741444337
1001
AcDbBlockRepETag
1070
     1
1071
       44
1005
EF48
  0
MTEXT
  5
EF49
330
C31F
100
AcDbEntity
  8
Bestellung Angaben D
100
AcDbMText
 10
-220.4324306353021
 20
19.78659441488336
 30
0.0
 40
1.7
 41
61.82327442795304
 46
0.0
 71
     1
 72
     5
  1
Einbau:
 73
     1
 44
1.0
1001
AcDbBlockRepETag
1070
     1
1071
       45
1005
EF49
1001
ACAD
1000
ACAD_MTEXT_COLUMN_INFO_BEGIN
1070
    75
1070
     2
1070
    79
1070
     0
1070
    76
1070
     1
1070
    78
1070
     0
1070
    48
1040
61.82327442795304
1070
    49
1040
12.5
1070
    50
1070
     1
1040
0.0
1000
ACAD_MTEXT_COLUMN_INFO_END
  0
LWPOLYLINE
  5
EF4A
330
C31F
100
AcDbEntity
  8
Bestellung_Symbole
 62
     7
100
AcDbPolyline
 90
        4
 70
     1
 43
0.0
 10
-221.3630295459457
 20
13.64194741444337
 10
-157.9279299824344
 20
13.64194741444337
 10
-157.9279299824344
 20
6.086943872157608
 10
-221.3630295459457
 20
6.086943872157608
1001
AcDbBlockRepETag
1070
     1
1071
       46
1005
EF4A
  0
MTEXT
  5
EF4B
330
C31F
100
AcDbEntity
  8
Bestellung Angaben D
100
AcDbMText
 10
-220.4324306353021
 20
11.23159087259759
 30
0.0
 40
1.7
 41
61.82327442795304
 46
0.0
 71
     1
 72
     5
  1
Farben:
 73
     1
 44
1.0
1001
AcDbBlockRepETag
1070
     1
1071
       47
1005
EF4B
1001
ACAD
1000
ACAD_MTEXT_COLUMN_INFO_BEGIN
1070
    75
1070
     2
1070
    79
1070
     0
1070
    76
1070
     1
1070
    78
1070
     0
1070
    48
1040
61.82327442795304
1070
    49
1040
12.5
1070
    50
1070
     1
1040
0.0
1000
ACAD_MTEXT_COLUMN_INFO_END
  0
LWPOLYLINE
  5
EF4C
330
C31F
100
AcDbEntity
  8
Bestellung_Symbole
 62
     7
100
AcDbPolyline
 90
        4
 70
     1
 43
0.0
 10
-221.3630295459457
 20
39.30695804130065
 10
-157.9279299824344
 20
39.30695804130065
 10
-157.9279299824344
 20
31.75195449901488
 10
-221.3630295459457
 20
31.75195449901488
1001
AcDbBlockRepETag
1070
     1
1071
       48
1005
EF4C
  0
MTEXT
  5
EF4D
330
C31F
100
AcDbEntity
  8
Bestellung Angaben D
100
AcDbMText
 10
-220.4324306353021
 20
36.89660149945487
 30
0.0
 40
1.7
 41
61.82327442795304
 46
0.0
 71
     1
 72
     5
  1
Überlauf:
 73
     1
 44
1.0
1001
AcDbBlockRepETag
1070
     1
1071
       49
1005
EF4D
1001
ACAD
1000
ACAD_MTEXT_COLUMN_INFO_BEGIN
1070
    75
1070
     2
1070
    79
1070
     0
1070
    76
1070
     1
1070
    78
1070
     0
1070
    48
1040
61.82327442795304
1070
    49
1040
12.5
1070
    50
1070
     1
1040
0.0
1000
ACAD_MTEXT_COLUMN_INFO_END
  0
MTEXT
  5
EF4E
102
{ACAD_XDICTIONARY
360
EF4F
102
}
330
C31F
100
AcDbEntity
  8
Bestellung Angaben D
100
AcDbMText
 10
-281.5221708216397
 20
13.00414277615152
 30
0.0
 40
1.5
 41
34.75629395314513
 46
0.0
 71
     1
 72
     5
  1
\A1;\pt6;INFO:\PBatterie und Ablaufventil 1 {\H0.7x;\S1#4;}" sind nicht im Lieferumfang enthalten.
 73
     1
 44
1.0
1001
AcDbBlockRepETag
1070
     1
1071
       50
1005
EF4E
1001
ACAD
1000
ACAD_MTEXT_COLUMN_INFO_BEGIN
1070
    75
1070
     2
1070
    79
1070
     0
1070
    76
1070
     1
1070
    78
1070
     0
1070
    48
1040
34.75629395314513
1070
    49
1040
12.5
1070
    50
1070
     1
1040
0.0
1000
ACAD_MTEXT_COLUMN_INFO_END
  0
MTEXT
  5
EF50
330
C31F
100
AcDbEntity
  8
Bestellung Angaben D
100
AcDbMText
 10
-281.5221708216397
 20
28.77182952962476
 30
0.0
 40
2.5
 41
39.09569939019121
 46
0.0
 71
     1
 72
     5
  1
Material:
 73
     1
 44
1.0
1001
AcDbBlockRepETag
1070
     1
1071
       51
1005
EF50
1001
ACAD
1000
ACAD_MTEXT_COLUMN_INFO_BEGIN
1070
    75
1070
     2
1070
    79
1070
     0
1070
    76
1070
     1
1070
    78
1070
     0
1070
    48
1040
39.09569939019121
1070
    49
1040
12.5
1070
    50
1070
     1
1040
0.0
1000
ACAD_MTEXT_COLUMN_INFO_END
  0
LINE
  5
EF51
330
C31F
100
AcDbEntity
  8
Bestellung_Eingabe
100
AcDbLine
 10
-267.8959940882249
 20
26.18656349961111
 30
0.0
 11
-226.2190906184021
 21
26.18656349961111
 31
0.0
1001
AcDbBlockRepETag
1070
     1
1071
       52
1005
EF51
  0
MTEXT
  5
EF52
330
C31F
100
AcDbEntity
  8
Bestellung Angaben D
100
AcDbMText
 10
-281.5221708216397
 20
39.11115651772765
 30
0.0
 40
2.5
 41
60.15914127569402
 46
0.0
 71
     1
 72
     5
  1
{\C5;Bestellung Angaben }/ Eigenschaften:
 73
     1
 44
1.0
1001
AcDbBlockRepETag
1070
     1
1071
       53
1005
EF52
1001
ACAD
1000
ACAD_MTEXT_COLUMN_INFO_BEGIN
1070
    75
1070
     2
1070
    79
1070
     0
1070
    76
1070
     1
1070
    78
1070
     0
1070
    48
1040
60.15914127569402
1070
    49
1040
12.5
1070
    50
1070
     1
1040
0.0
1000
ACAD_MTEXT_COLUMN_INFO_END
  0
LWPOLYLINE
  5
EF53
330
C31F
100
AcDbEntity
  8
Bestellung_Eingabe
100
AcDbPolyline
 90
        4
 70
     1
 43
0.0
 10
-198.4704761447482
 20
27.22837194348182
 10
-192.4574493739312
 20
27.22837194348182
 10
-192.4574493739312
 20
30.31451218996438
 10
-198.4704761447482
 20
30.31451218996437
1001
AcDbBlockRepETag
1070
     1
1071
       54
1005
EF53
  0
LWPOLYLINE
  5
EF54
330
C31F
100
AcDbEntity
  8
Bestellung_Eingabe
100
AcDbPolyline
 90
        4
 70
     1
 43
0.0
 10
-198.441528703599
 20
23.72837194348182
 10
-192.4574493739312
 20
23.72837194348182
 10
-192.4574493739312
 20
26.81451218996438
 10
-198.441528703599
 20
26.81451218996438
1001
AcDbBlockRepETag
1070
     1
1071
       55
1005
EF54
  0
MTEXT
  5
EF55
330
C31F
100
AcDbEntity
  8
Bestellung Angaben F
 60
     1
100
AcDbMText
 10
-190.8900653399021
 20
34.73395550061562
 30
0.0
 40
1.7
 41
61.82327442795304
 46
0.0
 71
     1
 72
     5
  1
sans
 73
     1
 44
1.0
1001
AcDbBlockRepETag
1070
     1
1071
       56
1005
EF55
1001
ACAD
1000
ACAD_MTEXT_COLUMN_INFO_BEGIN
1070
    75
1070
     2
1070
    79
1070
     0
1070
    76
1070
     1
1070
    78
1070
     0
1070
    48
1040
61.82327442795304
1070
    49
1040
12.5
1070
    50
1070
     1
1040
0.0
1000
ACAD_MTEXT_COLUMN_INFO_END
  0
MTEXT
  5
EF57
330
C31F
100
AcDbEntity
  8
Bestellung Angaben F
 62
     7
 60
     1
100
AcDbMText
 10
-199.2675143603675
 20
17.4819563482379
 30
0.0
 40
1.5
 41
39.05808297608564
 46
0.0
 71
     1
 72
     5
  1
{\C256;lavabo Top en applique, vasque à poser}
 73
     1
 44
1.0
1001
AcDbBlockRepETag
1070
     1
1071
       58
1005
EF57
1001
ACAD
1000
ACAD_MTEXT_COLUMN_INFO_BEGIN
1070
    75
1070
     2
1070
    79
1070
     0
1070
    76
1070
     1
1070
    78
1070
     0
1070
    48
1040
39.05808297608564
1070
    49
1040
12.5
1070
    50
1070
     1
1040
0.0
1000
ACAD_MTEXT_COLUMN_INFO_END
  0
MTEXT
  5
EF59
330
C31F
100
AcDbEntity
  8
Bestellung Angaben F
 62
     7
 60
     1
100
AcDbMText
 10
-190.8900653399021
 20
26.15706982054077
 30
0.0
 40
1.7
 41
39.05808297608564
 46
0.0
 71
     1
 72
     5
  1
{\C256;intégré} (option)
 73
     1
 44
1.0
1001
AcDbBlockRepETag
1070
     1
1071
       60
1005
EF59
1001
ACAD
1000
ACAD_MTEXT_COLUMN_INFO_BEGIN
1070
    75
1070
     2
1070
    79
1070
     0
1070
    76
1070
     1
1070
    78
1070
     0
1070
    48
1040
39.05808297608564
1070
    49
1040
12.5
1070
    50
1070
     1
1040
0.0
1000
ACAD_MTEXT_COLUMN_INFO_END
  0
MTEXT
  5
EF5A
330
C31F
100
AcDbEntity
  8
Bestellung Angaben F
 62
     7
 60
     1
100
AcDbMText
 10
-190.8900653399021
 20
29.65706982054077
 30
0.0
 40
1.7
 41
39.05808297608564
 46
0.0
 71
     1
 72
     5
  1
Standard
 73
     1
 44
1.0
1001
AcDbBlockRepETag
1070
     1
1071
       61
1005
EF5A
1001
ACAD
1000
ACAD_MTEXT_COLUMN_INFO_BEGIN
1070
    75
1070
     2
1070
    79
1070
     0
1070
    76
1070
     1
1070
    78
1070
     0
1070
    48
1040
39.05808297608564
1070
    49
1040
12.5
1070
    50
1070
     1
1040
0.0
1000
ACAD_MTEXT_COLUMN_INFO_END
  0
MTEXT
  5
EF5D
330
C31F
100
AcDbEntity
  8
Bestellung Angaben F
 60
     1
100
AcDbMText
 10
-281.5221708216398
 20
18.8734871063442
 30
0.0
 40
2.5
 41
39.09569939019121
 46
0.0
 71
     1
 72
     5
  1
Coloris / Code:
 73
     1
 44
1.0
1001
AcDbBlockRepETag
1070
     1
1071
       64
1005
EF5D
1001
ACAD
1000
ACAD_MTEXT_COLUMN_INFO_BEGIN
1070
    75
1070
     2
1070
    79
1070
     0
1070
    76
1070
     1
1070
    78
1070
     0
1070
    48
1040
39.09569939019121
1070
    49
1040
12.5
1070
    50
1070
     1
1040
0.0
1000
ACAD_MTEXT_COLUMN_INFO_END
  0
MTEXT
  5
EF5E
330
C31F
100
AcDbEntity
  8
Bestellung Angaben F
 60
     1
100
AcDbMText
 10
-220.5068622150195
 20
28.34159795716912
 30
0.0
 40
1.7
 41
61.82327442795304
 46
0.0
 71
     1
 72
     5
  1
Écoulement:
 73
     1
 44
1.0
1001
AcDbBlockRepETag
1070
     1
1071
       65
1005
EF5E
1001
ACAD
1000
ACAD_MTEXT_COLUMN_INFO_BEGIN
1070
    75
1070
     2
1070
    79
1070
     0
1070
    76
1070
     1
1070
    78
1070
     0
1070
    48
1040
61.82327442795304
1070
    49
1040
12.5
1070
    50
1070
     1
1040
0.0
1000
ACAD_MTEXT_COLUMN_INFO_END
  0
MTEXT
  5
EF5F
330
C31F
100
AcDbEntity
  8
Bestellung Angaben F
 60
     1
100
AcDbMText
 10
-220.4324306353021
 20
19.78659441488335
 30
0.0
 40
1.7
 41
61.82327442795304
 46
0.0
 71
     1
 72
     5
  1
Encastrement:
 73
     1
 44
1.0
1001
AcDbBlockRepETag
1070
     1
1071
       66
1005
EF5F
1001
ACAD
1000
ACAD_MTEXT_COLUMN_INFO_BEGIN
1070
    75
1070
     2
1070
    79
1070
     0
1070
    76
1070
     1
1070
    78
1070
     0
1070
    48
1040
61.82327442795304
1070
    49
1040
12.5
1070
    50
1070
     1
1040
0.0
1000
ACAD_MTEXT_COLUMN_INFO_END
  0
MTEXT
  5
EF60
330
C31F
100
AcDbEntity
  8
Bestellung Angaben F
 60
     1
100
AcDbMText
 10
-220.4324306353021
 20
11.23159087259759
 30
0.0
 40
1.7
 41
61.82327442795304
 46
0.0
 71
     1
 72
     5
  1
Coloris:
 73
     1
 44
1.0
1001
AcDbBlockRepETag
1070
     1
1071
       67
1005
EF60
1001
ACAD
1000
ACAD_MTEXT_COLUMN_INFO_BEGIN
1070
    75
1070
     2
1070
    79
1070
     0
1070
    76
1070
     1
1070
    78
1070
     0
1070
    48
1040
61.82327442795304
1070
    49
1040
12.5
1070
    50
1070
     1
1040
0.0
1000
ACAD_MTEXT_COLUMN_INFO_END
  0
MTEXT
  5
EF61
330
C31F
100
AcDbEntity
  8
Bestellung Angaben F
 60
     1
100
AcDbMText
 10
-220.4324306353021
 20
36.89660149945487
 30
0.0
 40
1.7
 41
61.82327442795304
 46
0.0
 71
     1
 72
     5
  1
Trop-plein:
 73
     1
 44
1.0
1001
AcDbBlockRepETag
1070
     1
1071
       68
1005
EF61
1001
ACAD
1000
ACAD_MTEXT_COLUMN_INFO_BEGIN
1070
    75
1070
     2
1070
    79
1070
     0
1070
    76
1070
     1
1070
    78
1070
     0
1070
    48
1040
61.82327442795304
1070
    49
1040
12.5
1070
    50
1070
     1
1040
0.0
1000
ACAD_MTEXT_COLUMN_INFO_END
  0
MTEXT
  5
EF62
102
{ACAD_XDICTIONARY
360
EF63
102
}
330
C31F
100
AcDbEntity
  8
Bestellung Angaben F
 60
     1
100
AcDbMText
 10
-281.5221708216397
 20
13.00414277615152
 30
0.0
 40
1.5
 41
34.75629395314513
 46
0.0
 71
     1
 72
     5
  1
\A1;\pt6;INFO:\P\ptz;{\A0;Batterie et bonde de vidage 1 ¼“ ne sont pas compris dans la livraison}
 73
     1
 44
1.0
1001
AcDbBlockRepETag
1070
     1
1071
       69
1005
EF62
1001
ACAD
1000
ACAD_MTEXT_COLUMN_INFO_BEGIN
1070
    75
1070
     2
1070
    79
1070
     0
1070
    76
1070
     1
1070
    78
1070
     0
1070
    48
1040
34.75629395314513
1070
    49
1040
12.5
1070
    50
1070
     1
1040
0.0
1000
ACAD_MTEXT_COLUMN_INFO_END
  0
MTEXT
  5
EF64
330
C31F
100
AcDbEntity
  8
Bestellung Angaben F
 60
     1
100
AcDbMText
 10
-281.5221708216397
 20
28.77182952962476
 30
0.0
 40
2.5
 41
39.09569939019121
 46
0.0
 71
     1
 72
     5
  1
Matériau:
 73
     1
 44
1.0
1001
AcDbBlockRepETag
1070
     1
1071
       70
1005
EF64
1001
ACAD
1000
ACAD_MTEXT_COLUMN_INFO_BEGIN
1070
    75
1070
     2
1070
    79
1070
     0
1070
    76
1070
     1
1070
    78
1070
     0
1070
    48
1040
39.09569939019121
1070
    49
1040
12.5
1070
    50
1070
     1
1040
0.0
1000
ACAD_MTEXT_COLUMN_INFO_END
  0
MTEXT
  5
EF65
330
C31F
100
AcDbEntity
  8
Bestellung Angaben F
 60
     1
100
AcDbMText
 10
-281.5221708216397
 20
39.11115651772765
 30
0.0
 40
2.5
 41
60.15914127569402
 46
0.0
 71
     1
 72
     5
  1
{\C5;Commande détails\C251;\c5526612;/caractéristiques:}
 73
     1
 44
1.0
1001
AcDbBlockRepETag
1070
     1
1071
       71
1005
EF65
1001
ACAD
1000
ACAD_MTEXT_COLUMN_INFO_BEGIN
1070
    75
1070
     2
1070
    79
1070
     0
1070
    76
1070
     1
1070
    78
1070
     0
1070
    48
1040
60.15914127569402
1070
    49
1040
12.5
1070
    50
1070
     1
1040
0.0
1000
ACAD_MTEXT_COLUMN_INFO_END
  0
MTEXT
  5
EF66
330
C31F
100
AcDbEntity
  8
Bestellung Angaben D
 62
     7
100
AcDbMText
 10
-204.3707972776433
 20
12.30175704125685
 30
0.0
 40
1.7
 41
39.05808297608564
 46
0.0
 71
     1
 72
     5
  1
Empfohlene Farbe Weiss, jedoch\Peingeschränkte Farben lieferbar
 73
     1
 44
1.0
1001
AcDbBlockRepETag
1070
     1
1071
       72
1005
EF66
1001
ACAD
1000
ACAD_MTEXT_COLUMN_INFO_BEGIN
1070
    75
1070
     2
1070
    79
1070
     0
1070
    76
1070
     1
1070
    78
1070
     0
1070
    48
1040
39.05808297608564
1070
    49
1040
12.5
1070
    50
1070
     1
1040
0.0
1000
ACAD_MTEXT_COLUMN_INFO_END
  0
MTEXT
  5
EF67
330
C31F
100
AcDbEntity
  8
Bestellung Angaben D
 62
     7
 60
     1
100
AcDbMText
 10
-204.3707972776433
 20
12.30175704125685
 30
0.0
 40
1.7
 41
39.05808297608564
 46
0.0
 71
     1
 72
     5
  1
coloris recommandé blanc\Pchoix limité de coloris
 73
     1
 44
1.0
1001
AcDbBlockRepETag
1070
     1
1071
       73
1005
EF67
1001
ACAD
1000
ACAD_MTEXT_COLUMN_INFO_BEGIN
1070
    75
1070
     2
1070
    79
1070
     0
1070
    76
1070
     1
1070
    78
1070
     0
1070
    48
1040
39.05808297608564
1070
    49
1040
12.5
1070
    50
1070
     1
1040
0.0
1000
ACAD_MTEXT_COLUMN_INFO_END
  0
ENDBLK
  5
C321
330
C31F
100
AcDbEntity
  8
0
 62
     7
100
AcDbBlockEnd
  0
BLOCK
  5
DABC
330
DABB
100
AcDbEntity
  8
0
 62
     7
100
AcDbBlockBegin
  2
*U3
 70
     3
 10
0.0
 20
0.0
 30
0.0
  3
*U3
  1

  0
TEXT
  5
DABE
330
DABB
100
AcDbEntity
  8
Plankopf_Variablen
100
AcDbText
 10
-34.18332480369922
 20
20.6389974660471
 30
0.0
 40
1.8
  1
Ech.
  7
Plankopf_cad-support
 72
     2
 11
-29.15167405335816
 21
20.6389974660471
 31
0.0
100
AcDbText
1001
AcDbBlockRepETag
1070
     1
1071
        3
1005
DABE
  0
TEXT
  5
DABF
330
DABB
100
AcDbEntity
  8
Plankopf_Variablen
100
AcDbText
 10
-79.54207546896475
 20
20.72346510224173
 30
0.0
 40
1.8
  1
Date:
  7
Plankopf_cad-support
100
AcDbText
1001
AcDbBlockRepETag
1070
     1
1071
        5
1005
DABF
  0
ATTDEF
  5
DAC0
330
DABB
100
AcDbEntity
  8
Plankopf_Variablen
100
AcDbText
 10
-26.37590902967417
 20
20.72346510224173
 30
0.0
 40
2.0
  1
1:15
  7
robert_koch
100
AcDbAttributeDefinition
280
     0
  3
Massstab:
  2
MASSSTAB
 70
     4
280
     0
1001
AcDbBlockRepETag
1070
     1
1071
        4
1005
0
  0
ATTDEF
  5
DAC1
330
DABB
100
AcDbEntity
  8
Plankopf_Variablen
100
AcDbText
 10
-64.04207546896476
 20
20.72346510224173
 30
0.0
 40
2.0
  1
dd.mm.jjjj
  7
robert_koch
100
AcDbAttributeDefinition
280
     0
  3
Datum Erstellt:
  2
DATUM-ERST
 70
     4
280
     0
1001
AcDbBlockRepETag
1070
     1
1071
        6
1005
0
  0
LINE
  5
DAC2
330
DABB
100
AcDbEntity
  8
0
100
AcDbLine
 10
-155.1096586774657
 20
19.31430228908696
 30
0.0
 11
0.0
 21
19.31430228908695
 31
0.0
1001
AcDbBlockRepETag
1070
     1
1071
       11
1005
DAC2
  0
LWPOLYLINE
  5
DAC3
330
DABB
100
AcDbEntity
  8
0
100
AcDbPolyline
 90
        4
 70
     1
 43
0.0
 10
0.0
 20
0.0
 10
-155.1096586774657
 20
-0.2645942145166771
 10
-155.1096586774657
 20
34.99354328505923
 10
0.0000000000000142
 20
35.25813749957591
1001
AcDbBlockRepETag
1070
     1
1071
       13
1005
DAC3
  0
LWPOLYLINE
  5
DAC4
330
DABB
100
AcDbEntity
  8
0
100
AcDbPolyline
 90
        3
 70
     0
 43
0.0
 10
-81.47309283979494
 20
35.12584039231757
 10
-81.47309283979494
 20
35.12584039231757
 10
-81.47309283979495
 20
0.3974901491781679
1001
AcDbBlockRepETag
1070
     1
1071
       19
1005
DAC4
  0
MTEXT
  5
DAC5
330
DABB
100
AcDbEntity
  8
Plankopf_Text
100
AcDbMText
 10
-79.57945067512731
 20
16.00489694425158
 30
0.0
 40
1.8
 41
77.95493821702439
 46
0.0
 71
     1
 72
     5
  1
Alle Abmessungen in mm. Farbe und Abmessungen können aufgrund des Produktionsprozesses geringfügig abweichen. Weitergabe sowie Verfielfältigung dieser Unterlage und Mitteilung ihres Inhalts ist nicht gestattet., soweit nicht ausdrücklich zugestanden.
  7
robert_koch
 73
     1
 44
1.0
1001
AcDbBlockRepETag
1070
     1
1071
       25
1005
DAC5
1001
ACAD
1000
ACAD_MTEXT_COLUMN_INFO_BEGIN
1070
    75
1070
     2
1070
    79
1070
     0
1070
    76
1070
     1
1070
    78
1070
     0
1070
    48
1040
77.95493821702439
1070
    49
1040
12.5
1070
    50
1070
     1
1040
0.0
1000
ACAD_MTEXT_COLUMN_INFO_END
  0
MTEXT
  5
DAC6
330
DABB
100
AcDbEntity
  8
Plankopf_Anschrift
100
AcDbMText
 10
-152.9465280856904
 20
6.45380978811579
 30
0.0
 40
2.0
 41
56.00456736621527
 46
0.0
 71
     7
 72
     5
  1
{\C0;Studer Handels AG\PHarbirbenweg 1\fCalibri|b0|i0|c0|p34;^J\fArial|b0|i0|c0|p34;8181 Höri}
 73
     1
 44
1.0
1001
AcDbBlockRepETag
1070
     1
1071
       27
1005
DAC6
1001
ACAD
1000
ACAD_MTEXT_COLUMN_INFO_BEGIN
1070
    75
1070
     2
1070
    79
1070
     0
1070
    76
1070
     1
1070
    78
1070
     0
1070
    48
1040
56.00456736621527
1070
    49
1040
12.5
1070
    50
1070
     1
1040
0.0
1000
ACAD_MTEXT_COLUMN_INFO_END
  0
MTEXT
  5
DAC7
330
DABB
100
AcDbEntity
  8
Plankopf_Anschrift
100
AcDbMText
 10
-113.3494038308032
 20
6.45380978811579
 30
0.0
 40
2.0
 41
56.00456736621527
 46
0.0
 71
     7
 72
     5
  1
{\C0;Telefon: 044 823 18 80\fCalibri|b0|i0|c0|p34;^J\fArial|b0|i0|c0|p34;www.studerhandels.ch \Pinfo@studerhandels.ch}
 73
     1
 44
1.0
1001
AcDbBlockRepETag
1070
     1
1071
       28
1005
DAC7
1001
ACAD
1000
ACAD_MTEXT_COLUMN_INFO_BEGIN
1070
    75
1070
     2
1070
    79
1070
     0
1070
    76
1070
     1
1070
    78
1070
     0
1070
    48
1040
56.00456736621527
1070
    49
1040
12.5
1070
    50
1070
     1
1040
0.0
1000
ACAD_MTEXT_COLUMN_INFO_END
  0
ATTDEF
  5
DAC8
330
DABB
100
AcDbEntity
  8
Plankopf_Variablen
100
AcDbText
 10
-64.42938305725771
 20
27.53059164123852
 30
0.0
 40
3.5
  1

  7
Plankopf_cad-support
100
AcDbAttributeDefinition
280
     0
  3
Typ/Type
  2
TYP/TYPE:
 70
     4
280
     0
1001
AcDbBlockRepETag
1070
     1
1071
       30
1005
0
  0
TEXT
  5
DAC9
330
DABB
100
AcDbEntity
  8
Plankopf_Variablen
100
AcDbText
 10
-79.92938305725771
 20
27.53059164123852
 30
0.0
 40
3.5
  1
Typ:
  7
Plankopf_cad-support
100
AcDbText
1001
AcDbBlockRepETag
1070
     1
1071
       31
1005
DAC9
  0
MTEXT
  5
DACA
330
DABB
100
AcDbEntity
  8
0
 60
     1
100
AcDbMText
 10
-79.57945067512731
 20
16.00489694425158
 30
0.0
 40
1.8
 41
77.95493821702439
 46
0.0
 71
     1
 72
     5
  3
Toutes les dimensions en mm. En raison du processus de\Pproduction les coloris et dimensions peuvent légèrement différer du\Pfichier. La transmission et la reproduction de ce document ainsi que\Pla communication de son contenu sont interdites, sauf a
  1
ccord formel.
  7
robert_koch
 73
     1
 44
1.0
1001
AcDbBlockRepETag
1070
     1
1071
       32
1005
DACA
1001
ACAD
1000
ACAD_MTEXT_COLUMN_INFO_BEGIN
1070
    75
1070
     2
1070
    79
1070
     0
1070
    76
1070
     1
1070
    78
1070
     0
1070
    48
1040
77.95493821702439
1070
    49
1040
12.5
1070
    50
1070
     1
1040
0.0
1000
ACAD_MTEXT_COLUMN_INFO_END
  0
IMAGE
  5
DACB
330
DABB
100
AcDbEntity
  8
0
 62
     7
160
               140
310
8C00000001000000840000000600000005000000BC4143890E4863C0C593FD3366F135400000000000000000BC4143890E4863C0601AE4EB3014404000000000000000005A4739A7969D54C0601AE4EB3014404000000000000000005A4739A7969D54C0C593FD3366F135400000000000000000BC4143890E4863C0C593FD
310
3366F135400000000000000000
100
AcDbRasterImage
 90
        0
 10
-154.2517744363412
 20
21.94296574536181
 30
0.0
 11
0.0408591088751599
 21
0.0
 31
0.0
 12
0.0
 22
0.0408591088751599
 32
0.0
 13
1757.0
 23
250.0
340
D790
 70
     7
280
     0
281
    50
282
    50
283
     0
290
     0
360
DACC
 71
     1
 91
        2
 14
-0.5
 24
-0.5
 14
1756.5
 24
249.5
1001
AcDbBlockRepETag
1070
     1
1071
       35
1005
DACB
  0
ENDBLK
  5
DABD
330
DABB
100
AcDbEntity
  8
0
 62
     7
100
AcDbBlockEnd
  0
BLOCK
  5
EFD2
330
EFD1
100
AcDbEntity
  8
0
 62
     7
100
AcDbBlockBegin
  2
*U14
 70
     1
 10
0.0
 20
0.0
 30
0.0
  3
*U14
  1

  0
CIRCLE
  5
EFD4
330
EFD1
100
AcDbEntity
  8
Bestellung_Symbole
100
AcDbCircle
 10
-202.8184196596068
 20
16.51848021816525
 30
0.0
 40
1.445345169475509
1001
AcDbBlockRepETag
1070
     1
1071
        0
1005
EFD4
  0
LINE
  5
EFD5
330
EFD1
100
AcDbEntity
  8
Bestellung_Symbole
100
AcDbLine
 10
-203.4077514933053
 20
15.84998238243017
 30
0.0
 11
-202.085734366442
 21
15.84998238243017
 31
0.0
1001
AcDbBlockRepETag
1070
     1
1071
        1
1005
EFD5
  0
LINE
  5
EFD6
330
EFD1
100
AcDbEntity
  8
Bestellung_Symbole
100
AcDbLine
 10
-202.085734366442
 20
15.84998238243017
 30
0.0
 11
-202.085734366442
 21
15.84998238243017
 31
0.0
1001
AcDbBlockRepETag
1070
     1
1071
        2
1005
EFD6
  0
LINE
  5
EFD7
330
EFD1
100
AcDbEntity
  8
Bestellung_Symbole
100
AcDbLine
 10
-202.085734366442
 20
15.84998238243017
 30
0.0
 11
-202.085734366442
 21
17.17106245491132
 31
0.0
1001
AcDbBlockRepETag
1070
     1
1071
        3
1005
EFD7
  0
CIRCLE
  5
EFD8
330
EFD1
100
AcDbEntity
  8
Bestellung_Symbole
100
AcDbCircle
 10
-202.8184196596068
 20
25.19359369046812
 30
0.0
 40
1.445345169475509
1001
AcDbBlockRepETag
1070
     1
1071
        8
1005
EFD8
  0
CIRCLE
  5
EFD9
330
EFD1
100
AcDbEntity
  8
Bestellung_Symbole
100
AcDbCircle
 10
-202.8191454233125
 20
28.69359387268516
 30
0.0
 40
1.445345169475509
1001
AcDbBlockRepETag
1070
     1
1071
        9
1005
EFD9
  0
CIRCLE
  5
EFDA
330
EFD1
100
AcDbEntity
  8
Bestellung_Symbole
100
AcDbCircle
 10
-202.8184196596068
 20
33.62848730273679
 30
0.0
 40
1.445345169475509
1001
AcDbBlockRepETag
1070
     1
1071
       10
1005
EFDA
  0
LINE
  5
EFDB
330
EFD1
100
AcDbEntity
  8
Bestellung_Symbole
100
AcDbLine
 10
-203.6894587970163
 20
32.47509514044895
 30
0.0
 11
-201.9473805221973
 21
34.7818794650246
 31
0.0
1001
AcDbBlockRepETag
1070
     1
1071
       13
1005
EFDB
  0
LINE
  5
EFDC
330
EFD1
100
AcDbEntity
  8
Bestellung_Symbole
370
    70
100
AcDbLine
 10
-202.8928512393241
 20
25.84161160611542
 30
0.0
 11
-202.8928512393241
 21
24.30535591478661
 31
0.0
1001
AcDbBlockRepETag
1070
     1
1071
       14
1005
EFDC
  0
LINE
  5
EFDD
330
EFD1
100
AcDbEntity
  8
Bestellung_Symbole
100
AcDbLine
 10
-202.8928512393241
 20
24.30535591478661
 30
0.0
 11
-202.8928512393241
 21
24.30535591478661
 31
0.0
1001
AcDbBlockRepETag
1070
     1
1071
       15
1005
EFDD
  0
LINE
  5
EFDE
330
EFD1
100
AcDbEntity
  8
Bestellung_Symbole
 62
     7
100
AcDbLine
 10
-203.1557058637651
 20
28.25250682165695
 30
0.0
 11
-203.1557058637651
 21
27.91065444565977
 31
0.0
1001
AcDbBlockRepETag
1070
     1
1071
       21
1005
EFDE
  0
LINE
  5
EFDF
330
EFD1
100
AcDbEntity
  8
Bestellung_Symbole
 62
     7
100
AcDbLine
 10
-203.1557058637651
 20
27.91065444565977
 30
0.0
 11
-202.3964839831671
 21
27.91065444565977
 31
0.0
1001
AcDbBlockRepETag
1070
     1
1071
       22
1005
EFDF
  0
LINE
  5
EFE0
330
EFD1
100
AcDbEntity
  8
Bestellung_Symbole
 62
     7
100
AcDbLine
 10
-202.3964839831671
 20
27.91065444565977
 30
0.0
 11
-202.3964839831671
 21
28.67773667544266
 31
0.0
1001
AcDbBlockRepETag
1070
     1
1071
       23
1005
EFE0
  0
LINE
  5
EFE1
330
EFD1
100
AcDbEntity
  8
Bestellung_Symbole
 62
     7
100
AcDbLine
 10
-202.3964839831671
 20
28.67773667544266
 30
0.0
 11
-203.172392928531
 21
28.67773667544266
 31
0.0
1001
AcDbBlockRepETag
1070
     1
1071
       24
1005
EFE1
  0
LINE
  5
EFE2
330
EFD1
100
AcDbEntity
  8
Bestellung_Symbole
 62
     7
100
AcDbLine
 10
-203.172392928531
 20
28.67773667544266
 30
0.0
 11
-203.172392928531
 21
29.19468422563888
 31
0.0
1001
AcDbBlockRepETag
1070
     1
1071
       25
1005
EFE2
  0
LINE
  5
EFE3
330
EFD1
100
AcDbEntity
  8
Bestellung_Symbole
 62
     7
100
AcDbLine
 10
-203.172392928531
 20
29.19468422563888
 30
0.0
 11
-202.3964839831671
 21
29.19468422563888
 31
0.0
1001
AcDbBlockRepETag
1070
     1
1071
       26
1005
EFE3
  0
LWPOLYLINE
  5
EFE4
330
EFD1
100
AcDbEntity
  8
Bestellung_Eingabe
100
AcDbPolyline
 90
        4
 70
     1
 43
0.0
 10
-198.441528703599
 20
32.08541717949549
 10
-192.4574493739312
 20
32.08541717949549
 10
-192.4574493739312
 20
35.17155742597804
 10
-198.441528703599
 20
35.17155742597804
1001
AcDbBlockRepETag
1070
     1
1071
       31
1005
EFE4
  0
MTEXT
  5
EFE5
330
EFD1
100
AcDbEntity
  8
Bestellung Angaben D
100
AcDbMText
 10
-190.8900653399021
 20
34.73395550061562
 30
0.0
 40
1.7
 41
61.82327442795304
 46
0.0
 71
     1
 72
     5
  1
OHNE
 73
     1
 44
1.0
1001
AcDbBlockRepETag
1070
     1
1071
       32
1005
EFE5
1001
ACAD
1000
ACAD_MTEXT_COLUMN_INFO_BEGIN
1070
    75
1070
     2
1070
    79
1070
     0
1070
    76
1070
     1
1070
    78
1070
     0
1070
    48
1040
61.82327442795304
1070
    49
1040
12.5
1070
    50
1070
     1
1040
0.0
1000
ACAD_MTEXT_COLUMN_INFO_END
  0
MTEXT
  5
EFE6
330
EFD1
100
AcDbEntity
  8
Bestellung Angaben D
 62
     7
100
AcDbMText
 10
-199.2675143603675
 20
17.4819563482379
 30
0.0
 40
1.7
 41
39.05808297608564
 46
0.0
 71
     1
 72
     5
  1
Top Aufsatzbecken, Aufsatzschale
 73
     1
 44
1.0
1001
AcDbBlockRepETag
1070
     1
1071
       34
1005
EFE6
1001
ACAD
1000
ACAD_MTEXT_COLUMN_INFO_BEGIN
1070
    75
1070
     2
1070
    79
1070
     0
1070
    76
1070
     1
1070
    78
1070
     0
1070
    48
1040
39.05808297608564
1070
    49
1040
12.5
1070
    50
1070
     1
1040
0.0
1000
ACAD_MTEXT_COLUMN_INFO_END
  0
MTEXT
  5
EFE7
330
EFD1
100
AcDbEntity
  8
Bestellung Angaben D
 62
     7
100
AcDbMText
 10
-190.8900653399021
 20
26.15706982054077
 30
0.0
 40
1.7
 41
39.05808297608564
 46
0.0
 71
     1
 72
     5
  1
Integriert (Option)
 73
     1
 44
1.0
1001
AcDbBlockRepETag
1070
     1
1071
       36
1005
EFE7
1001
ACAD
1000
ACAD_MTEXT_COLUMN_INFO_BEGIN
1070
    75
1070
     2
1070
    79
1070
     0
1070
    76
1070
     1
1070
    78
1070
     0
1070
    48
1040
39.05808297608564
1070
    49
1040
12.5
1070
    50
1070
     1
1040
0.0
1000
ACAD_MTEXT_COLUMN_INFO_END
  0
MTEXT
  5
EFE8
330
EFD1
100
AcDbEntity
  8
Bestellung Angaben D
 62
     7
100
AcDbMText
 10
-190.8900653399021
 20
29.65706982054077
 30
0.0
 40
1.7
 41
39.05808297608564
 46
0.0
 71
     1
 72
     5
  1
Standard
 73
     1
 44
1.0
1001
AcDbBlockRepETag
1070
     1
1071
       37
1005
EFE8
1001
ACAD
1000
ACAD_MTEXT_COLUMN_INFO_BEGIN
1070
    75
1070
     2
1070
    79
1070
     0
1070
    76
1070
     1
1070
    78
1070
     0
1070
    48
1040
39.05808297608564
1070
    49
1040
12.5
1070
    50
1070
     1
1040
0.0
1000
ACAD_MTEXT_COLUMN_INFO_END
  0
MTEXT
  5
EFE9
330
EFD1
100
AcDbEntity
  8
Bestellung Angaben D
100
AcDbMText
 10
-281.5221708216398
 20
18.87348710634419
 30
0.0
 40
2.5
 41
39.09569939019121
 46
0.0
 71
     1
 72
     5
  1
Farbe / Code:
 73
     1
 44
1.0
1001
AcDbBlockRepETag
1070
     1
1071
       40
1005
EFE9
1001
ACAD
1000
ACAD_MTEXT_COLUMN_INFO_BEGIN
1070
    75
1070
     2
1070
    79
1070
     0
1070
    76
1070
     1
1070
    78
1070
     0
1070
    48
1040
39.09569939019121
1070
    49
1040
12.5
1070
    50
1070
     1
1040
0.0
1000
ACAD_MTEXT_COLUMN_INFO_END
  0
LINE
  5
EFEA
330
EFD1
100
AcDbEntity
  8
Bestellung_Eingabe
100
AcDbLine
 10
-259.5448287445003
 20
16.28822107633055
 30
0.0
 11
-226.2190906184021
 21
16.28822107633055
 31
0.0
1001
AcDbBlockRepETag
1070
     1
1071
       41
1005
EFEA
  0
LWPOLYLINE
  5
EFEB
330
EFD1
100
AcDbEntity
  8
Bestellung_Symbole
 62
     7
100
AcDbPolyline
 90
        4
 70
     1
 43
0.0
 10
-221.3630295459457
 20
30.75195449901488
 10
-157.9279299824344
 20
30.75195449901489
 10
-157.9279299824344
 20
23.19695095672912
 10
-221.3630295459457
 20
23.19695095672912
1001
AcDbBlockRepETag
1070
     1
1071
       42
1005
EFEB
  0
MTEXT
  5
EFEC
330
EFD1
100
AcDbEntity
  8
Bestellung Angaben D
100
AcDbMText
 10
-220.5068622150195
 20
28.34159795716912
 30
0.0
 40
1.7
 41
61.82327442795304
 46
0.0
 71
     1
 72
     5
  1
Ablauf:
 73
     1
 44
1.0
1001
AcDbBlockRepETag
1070
     1
1071
       43
1005
EFEC
1001
ACAD
1000
ACAD_MTEXT_COLUMN_INFO_BEGIN
1070
    75
1070
     2
1070
    79
1070
     0
1070
    76
1070
     1
1070
    78
1070
     0
1070
    48
1040
61.82327442795304
1070
    49
1040
12.5
1070
    50
1070
     1
1040
0.0
1000
ACAD_MTEXT_COLUMN_INFO_END
  0
LWPOLYLINE
  5
EFED
330
EFD1
100
AcDbEntity
  8
Bestellung_Symbole
 62
     7
100
AcDbPolyline
 90
        4
 70
     1
 43
0.0
 10
-221.3630295459457
 20
22.19695095672913
 10
-157.9279299824344
 20
22.19695095672913
 10
-157.9279299824344
 20
14.64194741444337
 10
-221.3630295459457
 20
14.64194741444337
1001
AcDbBlockRepETag
1070
     1
1071
       44
1005
EFED
  0
MTEXT
  5
EFEE
330
EFD1
100
AcDbEntity
  8
Bestellung Angaben D
100
AcDbMText
 10
-220.4324306353021
 20
19.78659441488336
 30
0.0
 40
1.7
 41
61.82327442795304
 46
0.0
 71
     1
 72
     5
  1
Einbau:
 73
     1
 44
1.0
1001
AcDbBlockRepETag
1070
     1
1071
       45
1005
EFEE
1001
ACAD
1000
ACAD_MTEXT_COLUMN_INFO_BEGIN
1070
    75
1070
     2
1070
    79
1070
     0
1070
    76
1070
     1
1070
    78
1070
     0
1070
    48
1040
61.82327442795304
1070
    49
1040
12.5
1070
    50
1070
     1
1040
0.0
1000
ACAD_MTEXT_COLUMN_INFO_END
  0
LWPOLYLINE
  5
EFEF
330
EFD1
100
AcDbEntity
  8
Bestellung_Symbole
 62
     7
100
AcDbPolyline
 90
        4
 70
     1
 43
0.0
 10
-221.3630295459457
 20
13.64194741444337
 10
-157.9279299824344
 20
13.64194741444337
 10
-157.9279299824344
 20
6.086943872157608
 10
-221.3630295459457
 20
6.086943872157608
1001
AcDbBlockRepETag
1070
     1
1071
       46
1005
EFEF
  0
MTEXT
  5
EFF0
330
EFD1
100
AcDbEntity
  8
Bestellung Angaben D
100
AcDbMText
 10
-220.4324306353021
 20
11.23159087259759
 30
0.0
 40
1.7
 41
61.82327442795304
 46
0.0
 71
     1
 72
     5
  1
Farben:
 73
     1
 44
1.0
1001
AcDbBlockRepETag
1070
     1
1071
       47
1005
EFF0
1001
ACAD
1000
ACAD_MTEXT_COLUMN_INFO_BEGIN
1070
    75
1070
     2
1070
    79
1070
     0
1070
    76
1070
     1
1070
    78
1070
     0
1070
    48
1040
61.82327442795304
1070
    49
1040
12.5
1070
    50
1070
     1
1040
0.0
1000
ACAD_MTEXT_COLUMN_INFO_END
  0
LWPOLYLINE
  5
EFF1
330
EFD1
100
AcDbEntity
  8
Bestellung_Symbole
 62
     7
100
AcDbPolyline
 90
        4
 70
     1
 43
0.0
 10
-221.3630295459457
 20
39.30695804130065
 10
-157.9279299824344
 20
39.30695804130065
 10
-157.9279299824344
 20
31.75195449901488
 10
-221.3630295459457
 20
31.75195449901488
1001
AcDbBlockRepETag
1070
     1
1071
       48
1005
EFF1
  0
MTEXT
  5
EFF2
330
EFD1
100
AcDbEntity
  8
Bestellung Angaben D
100
AcDbMText
 10
-220.4324306353021
 20
36.89660149945487
 30
0.0
 40
1.7
 41
61.82327442795304
 46
0.0
 71
     1
 72
     5
  1
Überlauf:
 73
     1
 44
1.0
1001
AcDbBlockRepETag
1070
     1
1071
       49
1005
EFF2
1001
ACAD
1000
ACAD_MTEXT_COLUMN_INFO_BEGIN
1070
    75
1070
     2
1070
    79
1070
     0
1070
    76
1070
     1
1070
    78
1070
     0
1070
    48
1040
61.82327442795304
1070
    49
1040
12.5
1070
    50
1070
     1
1040
0.0
1000
ACAD_MTEXT_COLUMN_INFO_END
  0
MTEXT
  5
EFF3
102
{ACAD_XDICTIONARY
360
EFF4
102
}
330
EFD1
100
AcDbEntity
  8
Bestellung Angaben D
100
AcDbMText
 10
-281.5221708216397
 20
13.00414277615152
 30
0.0
 40
1.5
 41
34.75629395314513
 46
0.0
 71
     1
 72
     5
  1
\A1;\pt6;INFO:\PBatterie und Ablaufventil 1 {\H0.7x;\S1#4;}" sind nicht im Lieferumfang enthalten.
 73
     1
 44
1.0
1001
AcDbBlockRepETag
1070
     1
1071
       50
1005
EFF3
1001
ACAD
1000
ACAD_MTEXT_COLUMN_INFO_BEGIN
1070
    75
1070
     2
1070
    79
1070
     0
1070
    76
1070
     1
1070
    78
1070
     0
1070
    48
1040
34.75629395314513
1070
    49
1040
12.5
1070
    50
1070
     1
1040
0.0
1000
ACAD_MTEXT_COLUMN_INFO_END
  0
MTEXT
  5
EFF5
330
EFD1
100
AcDbEntity
  8
Bestellung Angaben D
100
AcDbMText
 10
-281.5221708216397
 20
28.77182952962476
 30
0.0
 40
2.5
 41
39.09569939019121
 46
0.0
 71
     1
 72
     5
  1
Material:
 73
     1
 44
1.0
1001
AcDbBlockRepETag
1070
     1
1071
       51
1005
EFF5
1001
ACAD
1000
ACAD_MTEXT_COLUMN_INFO_BEGIN
1070
    75
1070
     2
1070
    79
1070
     0
1070
    76
1070
     1
1070
    78
1070
     0
1070
    48
1040
39.09569939019121
1070
    49
1040
12.5
1070
    50
1070
     1
1040
0.0
1000
ACAD_MTEXT_COLUMN_INFO_END
  0
LINE
  5
EFF6
330
EFD1
100
AcDbEntity
  8
Bestellung_Eingabe
100
AcDbLine
 10
-267.8959940882249
 20
26.18656349961111
 30
0.0
 11
-226.2190906184021
 21
26.18656349961111
 31
0.0
1001
AcDbBlockRepETag
1070
     1
1071
       52
1005
EFF6
  0
MTEXT
  5
EFF7
330
EFD1
100
AcDbEntity
  8
Bestellung Angaben D
100
AcDbMText
 10
-281.5221708216397
 20
39.11115651772765
 30
0.0
 40
2.5
 41
60.15914127569402
 46
0.0
 71
     1
 72
     5
  1
{\C5;Bestellung Angaben }/ Eigenschaften:
 73
     1
 44
1.0
1001
AcDbBlockRepETag
1070
     1
1071
       53
1005
EFF7
1001
ACAD
1000
ACAD_MTEXT_COLUMN_INFO_BEGIN
1070
    75
1070
     2
1070
    79
1070
     0
1070
    76
1070
     1
1070
    78
1070
     0
1070
    48
1040
60.15914127569402
1070
    49
1040
12.5
1070
    50
1070
     1
1040
0.0
1000
ACAD_MTEXT_COLUMN_INFO_END
  0
LWPOLYLINE
  5
EFF8
330
EFD1
100
AcDbEntity
  8
Bestellung_Eingabe
100
AcDbPolyline
 90
        4
 70
     1
 43
0.0
 10
-198.4704761447482
 20
27.22837194348182
 10
-192.4574493739312
 20
27.22837194348182
 10
-192.4574493739312
 20
30.31451218996438
 10
-198.4704761447482
 20
30.31451218996437
1001
AcDbBlockRepETag
1070
     1
1071
       54
1005
EFF8
  0
LWPOLYLINE
  5
EFF9
330
EFD1
100
AcDbEntity
  8
Bestellung_Eingabe
100
AcDbPolyline
 90
        4
 70
     1
 43
0.0
 10
-198.441528703599
 20
23.72837194348182
 10
-192.4574493739312
 20
23.72837194348182
 10
-192.4574493739312
 20
26.81451218996438
 10
-198.441528703599
 20
26.81451218996438
1001
AcDbBlockRepETag
1070
     1
1071
       55
1005
EFF9
  0
MTEXT
  5
EFFA
330
EFD1
100
AcDbEntity
  8
Bestellung Angaben F
 60
     1
100
AcDbMText
 10
-190.8900653399021
 20
34.73395550061562
 30
0.0
 40
1.7
 41
61.82327442795304
 46
0.0
 71
     1
 72
     5
  1
sans
 73
     1
 44
1.0
1001
AcDbBlockRepETag
1070
     1
1071
       56
1005
EFFA
1001
ACAD
1000
ACAD_MTEXT_COLUMN_INFO_BEGIN
1070
    75
1070
     2
1070
    79
1070
     0
1070
    76
1070
     1
1070
    78
1070
     0
1070
    48
1040
61.82327442795304
1070
    49
1040
12.5
1070
    50
1070
     1
1040
0.0
1000
ACAD_MTEXT_COLUMN_INFO_END
  0
MTEXT
  5
EFFB
330
EFD1
100
AcDbEntity
  8
Bestellung Angaben F
 62
     7
 60
     1
100
AcDbMText
 10
-199.2675143603675
 20
17.4819563482379
 30
0.0
 40
1.5
 41
39.05808297608564
 46
0.0
 71
     1
 72
     5
  1
{\C256;lavabo Top en applique, vasque à poser}
 73
     1
 44
1.0
1001
AcDbBlockRepETag
1070
     1
1071
       58
1005
EFFB
1001
ACAD
1000
ACAD_MTEXT_COLUMN_INFO_BEGIN
1070
    75
1070
     2
1070
    79
1070
     0
1070
    76
1070
     1
1070
    78
1070
     0
1070
    48
1040
39.05808297608564
1070
    49
1040
12.5
1070
    50
1070
     1
1040
0.0
1000
ACAD_MTEXT_COLUMN_INFO_END
  0
MTEXT
  5
EFFC
330
EFD1
100
AcDbEntity
  8
Bestellung Angaben F
 62
     7
 60
     1
100
AcDbMText
 10
-190.8900653399021
 20
26.15706982054077
 30
0.0
 40
1.7
 41
39.05808297608564
 46
0.0
 71
     1
 72
     5
  1
{\C256;intégré} (option)
 73
     1
 44
1.0
1001
AcDbBlockRepETag
1070
     1
1071
       60
1005
EFFC
1001
ACAD
1000
ACAD_MTEXT_COLUMN_INFO_BEGIN
1070
    75
1070
     2
1070
    79
1070
     0
1070
    76
1070
     1
1070
    78
1070
     0
1070
    48
1040
39.05808297608564
1070
    49
1040
12.5
1070
    50
1070
     1
1040
0.0
1000
ACAD_MTEXT_COLUMN_INFO_END
  0
MTEXT
  5
EFFD
330
EFD1
100
AcDbEntity
  8
Bestellung Angaben F
 62
     7
 60
     1
100
AcDbMText
 10
-190.8900653399021
 20
29.65706982054077
 30
0.0
 40
1.7
 41
39.05808297608564
 46
0.0
 71
     1
 72
     5
  1
Standard
 73
     1
 44
1.0
1001
AcDbBlockRepETag
1070
     1
1071
       61
1005
EFFD
1001
ACAD
1000
ACAD_MTEXT_COLUMN_INFO_BEGIN
1070
    75
1070
     2
1070
    79
1070
     0
1070
    76
1070
     1
1070
    78
1070
     0
1070
    48
1040
39.05808297608564
1070
    49
1040
12.5
1070
    50
1070
     1
1040
0.0
1000
ACAD_MTEXT_COLUMN_INFO_END
  0
MTEXT
  5
EFFE
330
EFD1
100
AcDbEntity
  8
Bestellung Angaben F
 60
     1
100
AcDbMText
 10
-281.5221708216398
 20
18.8734871063442
 30
0.0
 40
2.5
 41
39.09569939019121
 46
0.0
 71
     1
 72
     5
  1
Coloris / Code:
 73
     1
 44
1.0
1001
AcDbBlockRepETag
1070
     1
1071
       64
1005
EFFE
1001
ACAD
1000
ACAD_MTEXT_COLUMN_INFO_BEGIN
1070
    75
1070
     2
1070
    79
1070
     0
1070
    76
1070
     1
1070
    78
1070
     0
1070
    48
1040
39.09569939019121
1070
    49
1040
12.5
1070
    50
1070
     1
1040
0.0
1000
ACAD_MTEXT_COLUMN_INFO_END
  0
MTEXT
  5
EFFF
330
EFD1
100
AcDbEntity
  8
Bestellung Angaben F
 60
     1
100
AcDbMText
 10
-220.5068622150195
 20
28.34159795716912
 30
0.0
 40
1.7
 41
61.82327442795304
 46
0.0
 71
     1
 72
     5
  1
Écoulement:
 73
     1
 44
1.0
1001
AcDbBlockRepETag
1070
     1
1071
       65
1005
EFFF
1001
ACAD
1000
ACAD_MTEXT_COLUMN_INFO_BEGIN
1070
    75
1070
     2
1070
    79
1070
     0
1070
    76
1070
     1
1070
    78
1070
     0
1070
    48
1040
61.82327442795304
1070
    49
1040
12.5
1070
    50
1070
     1
1040
0.0
1000
ACAD_MTEXT_COLUMN_INFO_END
  0
MTEXT
  5
F000
330
EFD1
100
AcDbEntity
  8
Bestellung Angaben F
 60
     1
100
AcDbMText
 10
-220.4324306353021
 20
19.78659441488335
 30
0.0
 40
1.7
 41
61.82327442795304
 46
0.0
 71
     1
 72
     5
  1
Encastrement:
 73
     1
 44
1.0
1001
AcDbBlockRepETag
1070
     1
1071
       66
1005
F000
1001
ACAD
1000
ACAD_MTEXT_COLUMN_INFO_BEGIN
1070
    75
1070
     2
1070
    79
1070
     0
1070
    76
1070
     1
1070
    78
1070
     0
1070
    48
1040
61.82327442795304
1070
    49
1040
12.5
1070
    50
1070
     1
1040
0.0
1000
ACAD_MTEXT_COLUMN_INFO_END
  0
MTEXT
  5
F001
330
EFD1
100
AcDbEntity
  8
Bestellung Angaben F
 60
     1
100
AcDbMText
 10
-220.4324306353021
 20
11.23159087259759
 30
0.0
 40
1.7
 41
61.82327442795304
 46
0.0
 71
     1
 72
     5
  1
Coloris:
 73
     1
 44
1.0
1001
AcDbBlockRepETag
1070
     1
1071
       67
1005
F001
1001
ACAD
1000
ACAD_MTEXT_COLUMN_INFO_BEGIN
1070
    75
1070
     2
1070
    79
1070
     0
1070
    76
1070
     1
1070
    78
1070
     0
1070
    48
1040
61.82327442795304
1070
    49
1040
12.5
1070
    50
1070
     1
1040
0.0
1000
ACAD_MTEXT_COLUMN_INFO_END
  0
MTEXT
  5
F002
330
EFD1
100
AcDbEntity
  8
Bestellung Angaben F
 60
     1
100
AcDbMText
 10
-220.4324306353021
 20
36.89660149945487
 30
0.0
 40
1.7
 41
61.82327442795304
 46
0.0
 71
     1
 72
     5
  1
Trop-plein:
 73
     1
 44
1.0
1001
AcDbBlockRepETag
1070
     1
1071
       68
1005
F002
1001
ACAD
1000
ACAD_MTEXT_COLUMN_INFO_BEGIN
1070
    75
1070
     2
1070
    79
1070
     0
1070
    76
1070
     1
1070
    78
1070
     0
1070
    48
1040
61.82327442795304
1070
    49
1040
12.5
1070
    50
1070
     1
1040
0.0
1000
ACAD_MTEXT_COLUMN_INFO_END
  0
MTEXT
  5
F003
102
{ACAD_XDICTIONARY
360
F004
102
}
330
EFD1
100
AcDbEntity
  8
Bestellung Angaben F
 60
     1
100
AcDbMText
 10
-281.5221708216397
 20
13.00414277615152
 30
0.0
 40
1.5
 41
34.75629395314513
 46
0.0
 71
     1
 72
     5
  1
\A1;\pt6;INFO:\P\ptz;{\A0;Batterie et bonde de vidage 1 ¼“ ne sont pas compris dans la livraison}
 73
     1
 44
1.0
1001
AcDbBlockRepETag
1070
     1
1071
       69
1005
F003
1001
ACAD
1000
ACAD_MTEXT_COLUMN_INFO_BEGIN
1070
    75
1070
     2
1070
    79
1070
     0
1070
    76
1070
     1
1070
    78
1070
     0
1070
    48
1040
34.75629395314513
1070
    49
1040
12.5
1070
    50
1070
     1
1040
0.0
1000
ACAD_MTEXT_COLUMN_INFO_END
  0
MTEXT
  5
F005
330
EFD1
100
AcDbEntity
  8
Bestellung Angaben F
 60
     1
100
AcDbMText
 10
-281.5221708216397
 20
28.77182952962476
 30
0.0
 40
2.5
 41
39.09569939019121
 46
0.0
 71
     1
 72
     5
  1
Matériau:
 73
     1
 44
1.0
1001
AcDbBlockRepETag
1070
     1
1071
       70
1005
F005
1001
ACAD
1000
ACAD_MTEXT_COLUMN_INFO_BEGIN
1070
    75
1070
     2
1070
    79
1070
     0
1070
    76
1070
     1
1070
    78
1070
     0
1070
    48
1040
39.09569939019121
1070
    49
1040
12.5
1070
    50
1070
     1
1040
0.0
1000
ACAD_MTEXT_COLUMN_INFO_END
  0
MTEXT
  5
F006
330
EFD1
100
AcDbEntity
  8
Bestellung Angaben F
 60
     1
100
AcDbMText
 10
-281.5221708216397
 20
39.11115651772765
 30
0.0
 40
2.5
 41
60.15914127569402
 46
0.0
 71
     1
 72
     5
  1
{\C5;Commande détails\C251;\c5526612;/caractéristiques:}
 73
     1
 44
1.0
1001
AcDbBlockRepETag
1070
     1
1071
       71
1005
F006
1001
ACAD
1000
ACAD_MTEXT_COLUMN_INFO_BEGIN
1070
    75
1070
     2
1070
    79
1070
     0
1070
    76
1070
     1
1070
    78
1070
     0
1070
    48
1040
60.15914127569402
1070
    49
1040
12.5
1070
    50
1070
     1
1040
0.0
1000
ACAD_MTEXT_COLUMN_INFO_END
  0
MTEXT
  5
F007
330
EFD1
100
AcDbEntity
  8
Bestellung Angaben D
 62
     7
100
AcDbMText
 10
-204.3707972776433
 20
12.30175704125685
 30
0.0
 40
1.7
 41
39.05808297608564
 46
0.0
 71
     1
 72
     5
  1
Empfohlene Farbe Weiss, jedoch\Peingeschränkte Farben lieferbar
 73
     1
 44
1.0
1001
AcDbBlockRepETag
1070
     1
1071
       72
1005
F007
1001
ACAD
1000
ACAD_MTEXT_COLUMN_INFO_BEGIN
1070
    75
1070
     2
1070
    79
1070
     0
1070
    76
1070
     1
1070
    78
1070
     0
1070
    48
1040
39.05808297608564
1070
    49
1040
12.5
1070
    50
1070
     1
1040
0.0
1000
ACAD_MTEXT_COLUMN_INFO_END
  0
MTEXT
  5
F008
330
EFD1
100
AcDbEntity
  8
Bestellung Angaben D
 62
     7
 60
     1
100
AcDbMText
 10
-204.3707972776433
 20
12.30175704125685
 30
0.0
 40
1.7
 41
39.05808297608564
 46
0.0
 71
     1
 72
     5
  1
coloris recommandé blanc\Pchoix limité de coloris
 73
     1
 44
1.0
1001
AcDbBlockRepETag
1070
     1
1071
       73
1005
F008
1001
ACAD
1000
ACAD_MTEXT_COLUMN_INFO_BEGIN
1070
    75
1070
     2
1070
    79
1070
     0
1070
    76
1070
     1
1070
    78
1070
     0
1070
    48
1040
39.05808297608564
1070
    49
1040
12.5
1070
    50
1070
     1
1040
0.0
1000
ACAD_MTEXT_COLUMN_INFO_END
  0
ENDBLK
  5
EFD3
330
EFD1
100
AcDbEntity
  8
0
 62
     7
100
AcDbBlockEnd
  0
BLOCK
  5
10537
330
10536
100
AcDbEntity
  8
0
 62
     7
100
AcDbBlockBegin
  2
*D246
 70
     1
 10
0.0
 20
0.0
 30
0.0
  3
*D246
  1

  0
LINE
  5
10B77
330
10536
100
AcDbEntity
  8
BEM-2
 62
    10
440
 16777216
370
    -2
100
AcDbLine
 10
-308.2417881236211
 20
386.7018943179531
 30
0.0
 11
-374.7451196831416
 21
386.7018943179531
 31
0.0
  0
LINE
  5
10B78
330
10536
100
AcDbEntity
  8
BEM-2
 62
    10
440
 16777216
370
    -2
100
AcDbLine
 10
-206.0000141354001
 20
256.5062165528981
 30
0.0
 11
-374.7451196831416
 21
256.5062165528981
 31
0.0
  0
LINE
  5
10B79
330
10536
100
AcDbEntity
  8
BEM-2
 62
    10
440
 16777216
370
    -2
100
AcDbLine
 10
-369.7451196831416
 20
391.7018943179531
 30
0.0
 11
-369.7451196831416
 21
251.5062165528981
 31
0.0
  0
INSERT
  5
10B7A
330
10536
100
AcDbEntity
  8
BEM-2
 62
    10
440
 16777216
370
    -2
100
AcDbBlockReference
  2
_OBLIQUE
 10
-369.7451196831416
 20
386.7018943179531
 30
0.0
 41
10.0
 42
10.0
 43
10.0
 50
90.0
  0
INSERT
  5
10B7B
330
10536
100
AcDbEntity
  8
BEM-2
 62
    10
440
 16777216
370
    -2
100
AcDbBlockReference
  2
_OBLIQUE
 10
-369.7451196831416
 20
256.5062165528981
 30
0.0
 41
10.0
 42
10.0
 43
10.0
 50
270.0
  0
MTEXT
  5
10B7C
330
10536
100
AcDbEntity
  8
BEM-2
 62
     7
440
 16777216
100
AcDbMText
 10
-384.5779982643149
 20
321.6040554354255
 30
0.0
 40
15.0
 41
0.0
 46
0.0
 71
     5
 72
     1
  1
\A1;(125)
  7
BEMASSUNG
 11
0.0000000000000001
 21
1.0
 31
0.0
 73
     1
 44
1.0
  0
POINT
  5
10B7D
330
10536
100
AcDbEntity
  8
DEFPOINTS
 62
     0
440
 16777216
100
AcDbPoint
 10
-298.241788123621
 20
386.7018943179531
 30
0.0
  0
POINT
  5
10B7E
330
10536
100
AcDbEntity
  8
DEFPOINTS
 62
     0
440
 16777216
100
AcDbPoint
 10
-196.0000141354001
 20
256.5062165528981
 30
0.0
  0
POINT
  5
10B7F
330
10536
100
AcDbEntity
  8
DEFPOINTS
 62
     0
440
 16777216
100
AcDbPoint
 10
-369.7451196831416
 20
256.5062165528981
 30
0.0
  0
ENDBLK
  5
10538
330
10536
100
AcDbEntity
  8
0
 62
     7
100
AcDbBlockEnd
  0
BLOCK
  5
10B37
330
10B36
100
AcDbEntity
  8
0
 62
     7
100
AcDbBlockBegin
  2
*D324
 70
     1
 10
0.0
 20
0.0
 30
0.0
  3
*D324
  1

  0
LINE
  5
10B39
330
10B36
100
AcDbEntity
  8
BEM-2
 62
    10
440
 16777216
370
    -2
100
AcDbLine
 10
-285.0012530961451
 20
396.7018943179531
 30
0.0
 11
-285.0012530961451
 21
439.4446316478552
 31
0.0
  0
LINE
  5
10B3A
330
10B36
100
AcDbEntity
  8
BEM-2
 62
    10
440
 16777216
370
    -2
100
AcDbLine
 10
285.001224825342
 20
396.7018943179531
 30
0.0
 11
285.001224825342
 21
439.4446316478552
 31
0.0
  0
LINE
  5
10B3B
330
10B36
100
AcDbEntity
  8
BEM-2
 62
    10
440
 16777216
370
    -2
100
AcDbLine
 10
-290.0012530961451
 20
434.4446316478552
 30
0.0
 11
290.001224825342
 21
434.4446316478552
 31
0.0
  0
INSERT
  5
10B3C
330
10B36
100
AcDbEntity
  8
BEM-2
 62
    10
440
 16777216
370
    -2
100
AcDbBlockReference
  2
_OBLIQUE
 10
-285.0012530961451
 20
434.4446316478552
 30
0.0
 41
10.0
 42
10.0
 43
10.0
 50
180.0
  0
INSERT
  5
10B3D
330
10B36
100
AcDbEntity
  8
BEM-2
 62
    10
440
 16777216
370
    -2
100
AcDbBlockReference
  2
_OBLIQUE
 10
285.001224825342
 20
434.4446316478552
 30
0.0
 41
10.0
 42
10.0
 43
10.0
  0
MTEXT
  5
10B3E
330
10B36
100
AcDbEntity
  8
BEM-2
 62
     7
440
 16777216
100
AcDbMText
 10
-0.000014135401556
 20
447.1032264636805
 30
0.0
 40
15.0
 41
0.0
 46
0.0
 71
     5
 72
     1
  1
\A1;570
  7
BEMASSUNG
 73
     1
 44
1.0
  0
POINT
  5
10B3F
330
10B36
100
AcDbEntity
  8
DEFPOINTS
 62
     0
440
 16777216
100
AcDbPoint
 10
-285.0012530961451
 20
386.7018943179531
 30
0.0
  0
POINT
  5
10B40
330
10B36
100
AcDbEntity
  8
DEFPOINTS
 62
     0
440
 16777216
100
AcDbPoint
 10
285.001224825342
 20
386.7018943179531
 30
0.0
  0
POINT
  5
10B41
330
10B36
100
AcDbEntity
  8
DEFPOINTS
 62
     0
440
 16777216
100
AcDbPoint
 10
285.001224825342
 20
434.4446316478552
 30
0.0
  0
ENDBLK
  5
10B38
330
10B36
100
AcDbEntity
  8
0
 62
     7
100
AcDbBlockEnd
  0
BLOCK
  5
10B44
330
10B43
100
AcDbEntity
  8
0
 62
     7
100
AcDbBlockBegin
  2
*D325
 70
     1
 10
0.0
 20
0.0
 30
0.0
  3
*D325
  1

  0
LINE
  5
10B58
330
10B43
100
AcDbEntity
  8
BEM-2
 62
    10
440
 16777216
370
    -2
100
AcDbLine
 10
-298.241788123621
 20
396.7018943179531
 30
0.0
 11
-298.241788123621
 21
472.4604054496449
 31
0.0
  0
LINE
  5
10B59
330
10B43
100
AcDbEntity
  8
BEM-2
 62
    10
440
 16777216
370
    -2
100
AcDbLine
 10
298.2417598528209
 20
396.7018943179531
 30
0.0
 11
298.2417598528209
 21
472.4604054496449
 31
0.0
  0
LINE
  5
10B5A
330
10B43
100
AcDbEntity
  8
BEM-2
 62
    10
440
 16777216
370
    -2
100
AcDbLine
 10
-303.2417881236211
 20
467.4604054496448
 30
0.0
 11
303.2417598528209
 21
467.4604054496448
 31
0.0
  0
INSERT
  5
10B5B
330
10B43
100
AcDbEntity
  8
BEM-2
 62
    10
440
 16777216
370
    -2
100
AcDbBlockReference
  2
_OBLIQUE
 10
-298.241788123621
 20
467.4604054496448
 30
0.0
 41
10.0
 42
10.0
 43
10.0
 50
180.0
  0
INSERT
  5
10B5C
330
10B43
100
AcDbEntity
  8
BEM-2
 62
    10
440
 16777216
370
    -2
100
AcDbBlockReference
  2
_OBLIQUE
 10
298.2417598528209
 20
467.4604054496448
 30
0.0
 41
10.0
 42
10.0
 43
10.0
  0
MTEXT
  5
10B5D
330
10B43
100
AcDbEntity
  8
BEM-2
 62
     7
440
 16777216
100
AcDbMText
 10
-0.0000141354000781
 20
480.1190002654703
 30
0.0
 40
15.0
 41
0.0
 46
0.0
 71
     5
 72
     1
  1
\A1;596
  7
BEMASSUNG
 73
     1
 44
1.0
  0
POINT
  5
10B5E
330
10B43
100
AcDbEntity
  8
DEFPOINTS
 62
     0
440
 16777216
100
AcDbPoint
 10
-298.241788123621
 20
386.7018943179531
 30
0.0
  0
POINT
  5
10B5F
330
10B43
100
AcDbEntity
  8
DEFPOINTS
 62
     0
440
 16777216
100
AcDbPoint
 10
298.2417598528209
 20
386.7018943179531
 30
0.0
  0
POINT
  5
10B60
330
10B43
100
AcDbEntity
  8
DEFPOINTS
 62
     0
440
 16777216
100
AcDbPoint
 10
298.2417598528209
 20
467.4604054496448
 30
0.0
  0
ENDBLK
  5
10B45
330
10B43
100
AcDbEntity
  8
0
 62
     7
100
AcDbBlockEnd
  0
BLOCK
  5
10B63
330
10B62
100
AcDbEntity
  8
0
 62
     7
100
AcDbBlockBegin
  2
*D326
 70
     1
 10
0.0
 20
0.0
 30
0.0
  3
*D326
  1

  0
LINE
  5
10B65
330
10B62
100
AcDbEntity
  8
BEM-2
 62
    10
440
 16777216
370
    -2
100
AcDbLine
 10
-308.2417881236211
 20
386.7018943179531
 30
0.0
 11
-336.6386441448995
 21
386.7018943179531
 31
0.0
  0
LINE
  5
10B66
330
10B62
100
AcDbEntity
  8
BEM-2
 62
    10
440
 16777216
370
    -2
100
AcDbLine
 10
-266.5015291499631
 20
276.701894317952
 30
0.0
 11
-336.6386441448995
 21
276.701894317952
 31
0.0
  0
LINE
  5
10B67
330
10B62
100
AcDbEntity
  8
BEM-2
 62
    10
440
 16777216
370
    -2
100
AcDbLine
 10
-331.6386441448994
 20
391.7018943179531
 30
0.0
 11
-331.6386441448995
 21
271.701894317952
 31
0.0
  0
INSERT
  5
10B68
330
10B62
100
AcDbEntity
  8
BEM-2
 62
    10
440
 16777216
370
    -2
100
AcDbBlockReference
  2
_OBLIQUE
 10
-331.6386441448994
 20
386.7018943179531
 30
0.0
 41
10.0
 42
10.0
 43
10.0
 50
90.0
  0
INSERT
  5
10B69
330
10B62
100
AcDbEntity
  8
BEM-2
 62
    10
440
 16777216
370
    -2
100
AcDbBlockReference
  2
_OBLIQUE
 10
-331.6386441448995
 20
276.701894317952
 30
0.0
 41
10.0
 42
10.0
 43
10.0
 50
270.0
  0
MTEXT
  5
10B6A
330
10B62
100
AcDbEntity
  8
BEM-2
 62
     7
440
 16777216
100
AcDbMText
 10
-344.2972389607249
 20
331.7018943179525
 30
0.0
 40
15.0
 41
0.0
 46
0.0
 71
     5
 72
     1
  1
\A1;110
  7
BEMASSUNG
 11
0.0000000000000001
 21
1.0
 31
0.0
 73
     1
 44
1.0
  0
POINT
  5
10B6B
330
10B62
100
AcDbEntity
  8
DEFPOINTS
 62
     0
440
 16777216
100
AcDbPoint
 10
-298.241788123621
 20
386.7018943179531
 30
0.0
  0
POINT
  5
10B6C
330
10B62
100
AcDbEntity
  8
DEFPOINTS
 62
     0
440
 16777216
100
AcDbPoint
 10
-256.501529149963
 20
276.701894317952
 30
0.0
  0
POINT
  5
10B6D
330
10B62
100
AcDbEntity
  8
DEFPOINTS
 62
     0
440
 16777216
100
AcDbPoint
 10
-331.6386441448995
 20
276.701894317952
 30
0.0
  0
ENDBLK
  5
10B64
330
10B62
100
AcDbEntity
  8
0
 62
     7
100
AcDbBlockEnd
  0
BLOCK
  5
10B96
330
10B95
100
AcDbEntity
  8
0
 62
     7
100
AcDbBlockBegin
  2
*D327
 70
     1
 10
0.0
 20
0.0
 30
0.0
  3
*D327
  1

  0
LINE
  5
10B9E
330
10B95
100
AcDbEntity
  8
BEM-2
 62
    10
440
 16777216
370
    -2
100
AcDbLine
 10
-191.4574081632789
 20
351.4122655376462
 30
0.0
 11
-223.272319571517
 21
299.6108199076508
 31
0.0
  0
MTEXT
  5
10B9F
330
10B95
100
AcDbEntity
  8
BEM-2
 62
     7
440
 16777216
100
AcDbMText
 10
-214.226403099277
 20
338.5272755902448
 30
0.0
 40
15.0
 41
0.0
 46
0.0
 71
     5
 72
     1
  1
\A1;R40
  7
BEMASSUNG
 11
0.5233467249155869
 21
0.8521198304934166
 31
0.0
 73
     1
 44
1.0
  0
SOLID
  5
10BA0
330
10B95
100
AcDbEntity
  8
BEM-2
 62
    10
440
 16777216
100
AcDbTrace
 10
-225.4026191477505
 20
300.9191867199398
 30
0.0
 11
-221.1420199952835
 21
298.3024530953618
 31
0.0
 12
-231.1225204452508
 22
286.8290224502496
 32
0.0
 13
-231.1225204452508
 23
286.8290224502496
 33
0.0
  0
POINT
  5
10BA1
330
10B95
100
AcDbEntity
  8
DEFPOINTS
 62
     0
440
 16777216
100
AcDbPoint
 10
-231.1225204452508
 20
286.8290224502496
 30
0.0
  0
POINT
  5
10BA2
330
10B95
100
AcDbEntity
  8
DEFPOINTS
 62
     0
440
 16777216
100
AcDbPoint
 10
-210.1886514486273
 20
320.9138156699863
 30
0.0
  0
ENDBLK
  5
10B97
330
10B95
100
AcDbEntity
  8
0
 62
     7
100
AcDbBlockEnd
  0
BLOCK
  5
10BA6
330
10BA5
100
AcDbEntity
  8
0
 62
     7
100
AcDbBlockBegin
  2
*D328
 70
     1
 10
0.0
 20
0.0
 30
0.0
  3
*D328
  1

  0
LINE
  5
10BDD
330
10BA5
100
AcDbEntity
  8
BEM-2
 62
    10
440
 16777216
370
    -2
100
AcDbLine
 10
-245.2417881237229
 20
185.1818752874011
 30
0.0
 11
-351.0228381270035
 21
185.1818752874011
 31
0.0
  0
LINE
  5
10BDE
330
10BA5
100
AcDbEntity
  8
BEM-2
 62
    10
440
 16777216
370
    -2
100
AcDbLine
 10
-245.2417881237229
 20
-185.1976808435988
 30
0.0
 11
-351.0228381270036
 21
-185.1976808435988
 31
0.0
  0
LINE
  5
10BDF
330
10BA5
100
AcDbEntity
  8
BEM-2
 62
    10
440
 16777216
370
    -2
100
AcDbLine
 10
-346.0228381270035
 20
190.1818752874011
 30
0.0
 11
-346.0228381270036
 21
-190.1976808435988
 31
0.0
  0
INSERT
  5
10BE0
330
10BA5
100
AcDbEntity
  8
BEM-2
 62
    10
440
 16777216
370
    -2
100
AcDbBlockReference
  2
_OBLIQUE
 10
-346.0228381270035
 20
185.1818752874011
 30
0.0
 41
10.0
 42
10.0
 43
10.0
 50
90.0
  0
INSERT
  5
10BE1
330
10BA5
100
AcDbEntity
  8
BEM-2
 62
    10
440
 16777216
370
    -2
100
AcDbBlockReference
  2
_OBLIQUE
 10
-346.0228381270036
 20
-185.1976808435988
 30
0.0
 41
10.0
 42
10.0
 43
10.0
 50
270.0
  0
MTEXT
  5
10BE2
330
10BA5
100
AcDbEntity
  8
BEM-2
 62
     7
440
 16777216
100
AcDbMText
 10
-358.6865489046297
 20
-0.0079027780989009
 30
0.0
 40
15.0
 41
0.0
 46
0.0
 71
     5
 72
     1
  1
\A1;370
  7
BEMASSUNG
 11
0.0000000000000001
 21
1.0
 31
0.0
 73
     1
 44
1.0
  0
POINT
  5
10BE3
330
10BA5
100
AcDbEntity
  8
DEFPOINTS
 62
     0
440
 16777216
100
AcDbPoint
 10
-235.2417881237229
 20
185.1818752874011
 30
0.0
  0
POINT
  5
10BE4
330
10BA5
100
AcDbEntity
  8
DEFPOINTS
 62
     0
440
 16777216
100
AcDbPoint
 10
-235.2417881237229
 20
-185.1976808435988
 30
0.0
  0
POINT
  5
10BE5
330
10BA5
100
AcDbEntity
  8
DEFPOINTS
 62
     0
440
 16777216
100
AcDbPoint
 10
-346.0228381270036
 20
-185.1976808435988
 30
0.0
  0
ENDBLK
  5
10BA7
330
10BA5
100
AcDbEntity
  8
0
 62
     7
100
AcDbBlockEnd
  0
BLOCK
  5
10BBE
330
10BBD
100
AcDbEntity
  8
0
 62
     7
100
AcDbBlockBegin
  2
*D329
 70
     1
 10
0.0
 20
0.0
 30
0.0
  3
*D329
  1

  0
LINE
  5
10BD4
330
10BBD
100
AcDbEntity
  8
BEM-2
 62
    10
440
 16777216
370
    -2
100
AcDbLine
 10
-246.2417881237229
 20
198.1818752874011
 30
0.0
 11
-400.5598493419373
 21
198.1818752874011
 31
0.0
  0
LINE
  5
10BD5
330
10BBD
100
AcDbEntity
  8
BEM-2
 62
    10
440
 16777216
370
    -2
100
AcDbLine
 10
-246.2417881237229
 20
-198.1976808435988
 30
0.0
 11
-400.5598493419374
 21
-198.1976808435988
 31
0.0
  0
LINE
  5
10BD6
330
10BBD
100
AcDbEntity
  8
BEM-2
 62
    10
440
 16777216
370
    -2
100
AcDbLine
 10
-395.5598493419373
 20
203.1818752874011
 30
0.0
 11
-395.5598493419375
 21
-203.1976808435988
 31
0.0
  0
INSERT
  5
10BD7
330
10BBD
100
AcDbEntity
  8
BEM-2
 62
    10
440
 16777216
370
    -2
100
AcDbBlockReference
  2
_OBLIQUE
 10
-395.5598493419373
 20
198.1818752874011
 30
0.0
 41
10.0
 42
10.0
 43
10.0
 50
90.0
  0
INSERT
  5
10BD8
330
10BBD
100
AcDbEntity
  8
BEM-2
 62
    10
440
 16777216
370
    -2
100
AcDbBlockReference
  2
_OBLIQUE
 10
-395.5598493419375
 20
-198.1976808435988
 30
0.0
 41
10.0
 42
10.0
 43
10.0
 50
270.0
  0
MTEXT
  5
10BD9
330
10BBD
100
AcDbEntity
  8
BEM-2
 62
     7
440
 16777216
100
AcDbMText
 10
-408.2235601195636
 20
-0.0079027780988978
 30
0.0
 40
15.0
 41
0.0
 46
0.0
 71
     5
 72
     1
  1
\A1;396
  7
BEMASSUNG
 11
0.0000000000000001
 21
1.0
 31
0.0
 73
     1
 44
1.0
  0
POINT
  5
10BDA
330
10BBD
100
AcDbEntity
  8
DEFPOINTS
 62
     0
440
 16777216
100
AcDbPoint
 10
-236.2417881237229
 20
198.1818752874011
 30
0.0
  0
POINT
  5
10BDB
330
10BBD
100
AcDbEntity
  8
DEFPOINTS
 62
     0
440
 16777216
100
AcDbPoint
 10
-236.2417881237229
 20
-198.1976808435988
 30
0.0
  0
POINT
  5
10BDC
330
10BBD
100
AcDbEntity
  8
DEFPOINTS
 62
     0
440
 16777216
100
AcDbPoint
 10
-395.5598493419375
 20
-198.1976808435988
 30
0.0
  0
ENDBLK
  5
10BBF
330
10BBD
100
AcDbEntity
  8
0
 62
     7
100
AcDbBlockEnd
  0
BLOCK
  5
10BE8
330
10BE7
100
AcDbEntity
  8
0
 62
     7
100
AcDbBlockBegin
  2
*D330
 70
     1
 10
0.0
 20
0.0
 30
0.0
  3
*D330
  1

  0
LINE
  5
10C02
330
10BE7
100
AcDbEntity
  8
BEM-2
 62
    10
440
 16777216
370
    -2
100
AcDbLine
 10
205.999985864599
 20
268.6142889539131
 30
0.0
 11
301.9504269404297
 21
268.6142889539131
 31
0.0
  0
LINE
  5
10C03
330
10BE7
100
AcDbEntity
  8
BEM-2
 62
    10
440
 16777216
370
    -2
100
AcDbLine
 10
205.999985864599
 20
256.5062165528981
 30
0.0
 11
301.9504269404297
 21
256.5062165528981
 31
0.0
  0
LINE
  5
10C04
330
10BE7
100
AcDbEntity
  8
BEM-2
 62
    10
440
 16777216
370
    -2
100
AcDbLine
 10
296.9504269404297
 20
268.6142889539131
 30
0.0
 11
296.9504269404297
 21
278.6142889539132
 31
0.0
  0
LINE
  5
10C05
330
10BE7
100
AcDbEntity
  8
BEM-2
 62
    10
440
 16777216
370
    -2
100
AcDbLine
 10
296.9504269404297
 20
256.5062165528981
 30
0.0
 11
296.9504269404297
 21
246.5062165528981
 31
0.0
  0
LINE
  5
10C06
330
10BE7
100
AcDbEntity
  8
BEM-2
 62
    10
440
 16777216
370
    -2
100
AcDbLine
 10
296.9504269404297
 20
268.6142889539131
 30
0.0
 11
296.9504269404297
 21
256.5062165528981
 31
0.0
  0
INSERT
  5
10C07
330
10BE7
100
AcDbEntity
  8
BEM-2
 62
    10
440
 16777216
370
    -2
100
AcDbBlockReference
  2
_OBLIQUE
 10
296.9504269404297
 20
268.6142889539131
 30
0.0
 41
10.0
 42
10.0
 43
10.0
 50
270.0
  0
INSERT
  5
10C08
330
10BE7
100
AcDbEntity
  8
BEM-2
 62
    10
440
 16777216
370
    -2
100
AcDbBlockReference
  2
_OBLIQUE
 10
296.9504269404297
 20
256.5062165528981
 30
0.0
 41
10.0
 42
10.0
 43
10.0
 50
90.0
  0
MTEXT
  5
10C09
330
10BE7
100
AcDbEntity
  8
BEM-2
 62
     7
440
 16777216
100
AcDbMText
 10
284.4197311696247
 20
262.5602527534057
 30
0.0
 40
15.0
 41
0.0
 46
0.0
 71
     5
 72
     1
  1
\A1;12
  7
BEMASSUNG
 11
0.0000000000000001
 21
1.0
 31
0.0
 73
     1
 44
1.0
  0
POINT
  5
10C0A
330
10BE7
100
AcDbEntity
  8
DEFPOINTS
 62
     0
440
 16777216
100
AcDbPoint
 10
195.999985864599
 20
268.6142889539131
 30
0.0
  0
POINT
  5
10C0B
330
10BE7
100
AcDbEntity
  8
DEFPOINTS
 62
     0
440
 16777216
100
AcDbPoint
 10
195.999985864599
 20
256.5062165528981
 30
0.0
  0
POINT
  5
10C0C
330
10BE7
100
AcDbEntity
  8
DEFPOINTS
 62
     0
440
 16777216
100
AcDbPoint
 10
296.9504269404297
 20
256.5062165528981
 30
0.0
  0
ENDBLK
  5
10BE9
330
10BE7
100
AcDbEntity
  8
0
 62
     7
100
AcDbBlockEnd
  0
ENDSEC
  0
SECTION
  2
ENTITIES
  0
LWPOLYLINE
  5
10491
330
19
100
AcDbEntity
  8
AUßENKONTUR
100
AcDbPolyline
 90
        3
 70
   128
 43
0.0
 10
-23.00001413540099
 20
265.8297083571682
 10
-24.39746183550074
 20
265.8185590659001
 10
-27.36681380949995
 20
265.792708528399
  0
LWPOLYLINE
  5
10492
330
19
100
AcDbEntity
  8
AUßENKONTUR
100
AcDbPolyline
 90
        6
 70
   128
 43
0.0
 10
-27.36681380949995
 20
265.792708528399
 10
-30.45853373049999
 20
265.8152794559001
 10
-32.84190091150004
 20
265.8350574195
 10
-34.39156202669983
 20
265.8491477443989
 10
-34.99572459380011
 20
265.8549282718999
 10
-34.95924358989896
 20
265.8545800819992
  0
LWPOLYLINE
  5
10493
330
19
100
AcDbEntity
  8
AUßENKONTUR
100
AcDbPolyline
 90
        5
 70
   128
 43
0.0
 10
34.95901317330004
 20
265.8545785212999
 10
34.60194848190008
 20
265.8511420433
 10
33.20053713279913
 20
265.8382304614
 10
30.80153536850003
 20
265.8179926201
 10
22.99998586459901
 20
265.7605639110681
  0
LWPOLYLINE
  5
10494
330
19
100
AcDbEntity
  8
AUßENKONTUR
100
AcDbPolyline
 90
        3
 70
   128
 43
0.0
 10
-33.06455405842098
 20
277.8145598974589
 10
-33.06455414429911
 20
277.8145598982002
 10
-33.06322804100114
 20
277.8145484737
  0
LWPOLYLINE
  5
10495
330
19
100
AcDbEntity
  8
AUßENKONTUR
100
AcDbPolyline
 90
       63
 70
   128
 43
0.0
 10
-0.0000000858999556
 20
258.5874449977001
 10
3.540891183699841
 20
258.5874563843989
 10
7.045448117300111
 20
258.5874896565002
 10
10.47770921819915
 20
258.5875444725001
 10
13.80245484309989
 20
258.5876202699002
 10
16.98556860270014
 20
258.5877162709991
 10
19.99438744249914
 20
258.5878314906003
 10
22.79803680940085
 20
258.5879647465002
 10
25.36774746719994
 20
258.5881146711989
 10
27.6771507069991
 20
258.5882797263999
 10
29.70254892649996
 20
258.5884582183002
 10
31.42315879910007
 20
258.5886483153002
 10
32.82132453929989
 20
258.5888480668999
 10
33.88269907450013
 20
258.589055423199
 10
34.5963912655991
 20
258.5892682565999
 10
34.95507766509923
 20
258.5894843831001
 10
34.95507766509923
 20
258.5897015848992
 10
34.5963912655991
 20
258.5899176331999
 10
33.88269907450013
 20
258.5901303112001
 10
32.82132453929989
 20
258.5903374362989
 10
31.42315879910007
 20
258.5905368833002
 10
29.70254892649996
 20
258.5907266056003
 10
27.6771507069991
 20
258.5909046562991
 10
25.36774746719994
 20
258.5910692084002
 10
22.79803680940085
 20
258.5912185734002
 10
19.99438744249914
 20
258.5913512186002
 10
16.98556860270014
 20
258.5914657828001
 10
13.80245484309989
 20
258.5915610905
 10
10.47770921819915
 20
258.5916361637002
 10
7.045448117300111
 20
258.5916902321002
 10
3.540891183699841
 20
258.5917227407991
 10
-0.0000000858999556
 20
258.5917333562
 10
-3.540891355400162
 20
258.5917219694992
 10
-7.045448288999978
 20
258.5916886974002
 10
-10.47770938989993
 20
258.5916338814001
 10
-13.80245501479976
 20
258.5915580840002
 10
-16.98556877440001
 20
258.5914620829
 10
-19.99438761420106
 20
258.5913468633001
 10
-22.79803698109981
 20
258.5912136074002
 10
-25.3677476388998
 20
258.5910636826992
 10
-27.67715087870101
 20
258.5908986276
 10
-29.70254909820005
 20
258.5907201357001
 10
-31.42315897079993
 20
258.5905300385992
 10
-32.82132471100022
 20
258.5903302870992
 10
-33.88269924619999
 20
258.5901229307
 10
-34.59639143730101
 20
258.5899100973001
 10
-34.95507783680091
 20
258.5896939708001
 10
-34.95507783680091
 20
258.5894767689989
 10
-34.59639143730101
 20
258.5892607206992
 10
-33.88269924619999
 20
258.5890480428001
 10
-32.82132471100022
 20
258.5888409175999
 10
-31.42315897079993
 20
258.5886414706002
 10
-29.70254909820005
 20
258.5884517483001
 10
-27.67715087870101
 20
258.588273697599
 10
-25.3677476388998
 20
258.5881091455
 10
-22.79803698109981
 20
258.5879597804991
 10
-19.99438761420106
 20
258.5878271354001
 10
-16.98556877440001
 20
258.5877125711
 10
-13.80245501479976
 20
258.5876172634002
 10
-10.47770938989993
 20
258.5875421901991
 10
-7.045448288999978
 20
258.5874881218002
 10
-3.540891355400162
 20
258.587455613099
 10
-0.0000000858999556
 20
258.5874449977001
  0
LWPOLYLINE
  5
10496
330
19
100
AcDbEntity
  8
AUßENKONTUR
100
AcDbPolyline
 90
       51
 70
   128
 43
0.0
 10
-0.0000000858999556
 20
258.5881801449001
 10
2.88266428610018
 20
258.5881915695001
 10
5.719867318900014
 20
258.5882250351991
 10
8.466864625899916
 20
258.5882800142
 10
11.08033441850102
 20
258.5883556395
 10
13.51906071690087
 20
258.588450718399
 10
15.74458335049894
 20
258.588563751499
 10
17.72180449800112
 20
258.5886929561981
 10
19.41954220070101
 20
258.5888362948
 10
20.81102212090105
 20
258.5889915068002
 10
21.87429978890009
 20
258.5891561444999
 10
22.59260668089905
 20
258.5893276112998
 10
22.9546146680002
 20
258.5895032031002
 10
22.9546146680002
 20
258.5896801509001
 10
22.59260668089905
 20
258.5898556639
 10
21.87429978890009
 20
258.5900269742
 10
20.81102212090105
 20
258.5901913802
 10
19.41954220070101
 20
258.5903462890991
 10
17.72180449800112
 20
258.5904892579
 10
15.74458335049894
 20
258.590618031899
 10
13.51906071690087
 20
258.590730580299
 10
11.08033441850102
 20
258.5908251279992
 10
8.466864625899916
 20
258.590900183999
 10
5.719867318900014
 20
258.5909545646999
 10
2.88266428610018
 20
258.5909874123991
 10
-0.0000000858999556
 20
258.590998209099
 10
-2.882664457800046
 20
258.5909867844999
 10
-5.719867490599199
 20
258.5909533187999
 10
-8.466864797599782
 20
258.590898339699
 10
-11.08033459019998
 20
258.5908227143999
 10
-13.51906088859891
 20
258.5907276354991
 10
-15.74458352220108
 20
258.5906146023991
 10
-17.72180466970008
 20
258.5904853976991
 10
-19.41954237239997
 20
258.5903420590999
 10
-20.81102229259887
 20
258.5901868471002
 10
-21.87429996059996
 20
258.5900222095
 10
-22.59260685260096
 20
258.5898507425999
 10
-22.95461483970007
 20
258.5896751508
 10
-22.95461483970007
 20
258.5894982031001
 10
-22.59260685260096
 20
258.589322690099
 10
-21.87429996059996
 20
258.5891513797
 10
-20.81102229259887
 20
258.5889869737001
 10
-19.41954237239997
 20
258.5888320647999
 10
-17.72180466970008
 20
258.5886890959999
 10
-15.74458352220108
 20
258.588560322
 10
-13.51906088859891
 20
258.5884477737001
 10
-11.08033459019998
 20
258.5883532259
 10
-8.466864797599782
 20
258.5882781698991
 10
-5.719867490599199
 20
258.5882237892
 10
-2.882664457800046
 20
258.588190941499
 10
-0.0000000858999556
 20
258.5881801449001
  0
LINE
  5
10497
330
19
100
AcDbEntity
  8
AUßENKONTUR
100
AcDbLine
 10
286.2753653469551
 20
386.7018943179531
 30
0.0
 11
295.1023886985861
 21
386.7018943179531
 31
0.0
  0
LINE
  5
10498
330
19
100
AcDbEntity
  8
AUßENKONTUR
100
AcDbLine
 10
-257.3166563746179
 20
298.9376660594349
 30
0.0
 11
-296.9150325434601
 21
383.8566577944711
 31
0.0
  0
ARC
  5
10499
330
19
100
AcDbEntity
  8
AUßENKONTUR
100
AcDbCircle
 10
-295.1024169693869
 20
384.701894317952
 30
0.0
 40
2.0
100
AcDbArc
 50
90.0
 51
204.9999999999934
  0
LINE
  5
1049A
330
19
100
AcDbEntity
  8
AUßENKONTUR
100
AcDbLine
 10
257.3166281038191
 20
298.9376660594331
 30
0.0
 11
296.9150042726601
 21
383.8566577944711
 31
0.0
  0
ARC
  5
1049B
330
19
100
AcDbEntity
  8
AUßENKONTUR
100
AcDbCircle
 10
295.1023886985861
 20
384.701894317952
 30
0.0
 40
2.0
100
AcDbArc
 50
335.0000000000065
 51
90.0
  0
LINE
  5
1049C
330
19
100
AcDbEntity
  8
AUßENKONTUR
100
AcDbLine
 10
-246.4409629300642
 20
304.0090852002992
 30
0.0
 11
-284.462778043686
 21
385.547130841437
 31
0.0
  0
ARC
  5
1049D
330
19
100
AcDbEntity
  8
AUßENKONTUR
100
AcDbCircle
 10
-286.275393617758
 20
384.701894317952
 30
0.0
 40
2.0
100
AcDbArc
 50
25.00000000009262
 51
90.0
  0
LINE
  5
1049E
330
19
100
AcDbEntity
  8
AUßENKONTUR
100
AcDbLine
 10
246.4409346592649
 20
304.0090852002992
 30
0.0
 11
284.4627497728829
 21
385.547130841437
 31
0.0
  0
ARC
  5
1049F
330
19
100
AcDbEntity
  8
AUßENKONTUR
100
AcDbCircle
 10
286.2753653469551
 20
384.701894317952
 30
0.0
 40
2.0
100
AcDbArc
 50
90.0
 51
154.9999999999073
  0
LINE
  5
104A0
330
19
100
AcDbEntity
  8
AUßENKONTUR
100
AcDbLine
 10
-192.427827896501
 20
280.4742681297999
 30
0.0
 11
-192.4278323166988
 21
280.4742645128
 31
0.0
  0
LINE
  5
104A1
330
19
100
AcDbEntity
  8
AUßENKONTUR
100
AcDbLine
 10
-211.6907564530659
 20
268.9355155770101
 30
0.0
 11
-34.95925534050002
 21
265.8540564427
 31
0.0
  0
LINE
  5
104A2
330
19
100
AcDbEntity
  8
AUßENKONTUR
100
AcDbLine
 10
34.95902499060117
 20
265.8540519079992
 30
0.0
 11
211.6907136143729
 21
268.9355151560193
 31
0.0
  0
LINE
  5
104A3
330
19
100
AcDbEntity
  8
AUßENKONTUR
100
AcDbLine
 10
-211.159843496504
 20
280.925607583025
 30
0.0
 11
-33.06322845329987
 21
277.8145300968989
 31
0.0
  0
ARC
  5
104A4
102
{ACAD_REACTORS
330
10BA3
102
}
330
19
100
AcDbEntity
  8
AUßENKONTUR
100
AcDbCircle
 10
-210.1886514486271
 20
320.9138156699861
 30
0.0
 40
40.0
100
AcDbArc
 50
205.0000000000926
 51
268.6087331471703
  0
ARC
  5
104A5
330
19
100
AcDbEntity
  8
AUßENKONTUR
100
AcDbCircle
 10
-210.1886514486271
 20
320.9138156699861
 30
0.0
 40
52.0
100
AcDbArc
 50
205.0000000000926
 51
268.6087331471703
  0
LINE
  5
104A6
330
19
100
AcDbEntity
  8
AUßENKONTUR
100
AcDbLine
 10
33.06320054399999
 20
277.814530105
 30
0.0
 11
211.159815225948
 21
280.9256075831471
 31
0.0
  0
LINE
  5
104A7
330
19
100
AcDbEntity
  8
AUßENKONTUR
100
AcDbLine
 10
-35.00000087709987
 20
265.8545772281999
 30
0.0
 11
-35.00000008589996
 21
258.5895853650003
 31
0.0
  0
LINE
  5
104A8
330
19
100
AcDbEntity
  8
AUßENKONTUR
100
AcDbLine
 10
34.99999991410005
 20
258.5895929888992
 30
0.0
 11
34.99999912290014
 21
265.8545850221002
 31
0.0
  0
LINE
  5
104A9
330
19
100
AcDbEntity
  8
AUßENKONTUR
100
AcDbLine
 10
-23.00000084820021
 20
265.589586658799
 30
0.0
 11
-23.00000008589996
 21
258.5895866719992
 31
0.0
  0
LINE
  5
104AA
330
19
100
AcDbEntity
  8
AUßENKONTUR
100
AcDbLine
 10
22.99999991410004
 20
258.5895916818998
 30
0.0
 11
22.99999915190006
 21
265.5887088221001
 31
0.0
  0
LINE
  5
104AB
330
19
100
AcDbEntity
  8
AUßENKONTUR
100
AcDbLine
 10
-33.06455902430002
 20
277.8145599400001
 30
0.0
 11
-23.00001488259977
 21
267.2213278605001
 31
0.0
  0
LINE
  5
104AC
330
19
100
AcDbEntity
  8
AUßENKONTUR
100
AcDbLine
 10
22.99998661179984
 20
267.2213278605001
 30
0.0
 11
33.0645307535001
 21
277.8145599400001
 31
0.0
  0
LINE
  5
104AD
330
19
100
AcDbEntity
  8
AUßENKONTUR
100
AcDbLine
 10
22.99998586459901
 20
265.5887088221001
 30
0.0
 11
22.99998586459901
 21
267.2213146446001
 31
0.0
  0
LINE
  5
104AE
330
19
100
AcDbEntity
  8
AUßENKONTUR
100
AcDbLine
 10
-23.00001413540099
 20
267.2213146446001
 30
0.0
 11
-23.00001413540099
 21
265.5895862203002
 31
0.0
  0
LINE
  5
104AF
330
19
100
AcDbEntity
  8
AUßENKONTUR
100
AcDbLine
 10
-23.00001413540099
 20
267.2213146446001
 30
0.0
 11
22.99998586459901
 21
267.2213146446001
 31
0.0
  0
LINE
  5
104B0
330
19
100
AcDbEntity
  8
AUßENKONTUR
100
AcDbLine
 10
-29.32168661887203
 20
276.701894317952
 30
0.0
 11
-0.0000141354009884
 21
276.701894317952
 31
0.0
  0
LINE
  5
104B1
330
19
100
AcDbEntity
  8
AUßENKONTUR
100
AcDbLine
 10
29.32165834807302
 20
276.701894317952
 30
0.0
 11
-0.0000141354009884
 21
276.701894317952
 31
0.0
  0
LINE
  5
104B4
330
19
100
AcDbEntity
  8
AUßENKONTUR
100
AcDbLine
 10
192.4277996256989
 20
280.4742681297999
 30
0.0
 11
192.4278040458989
 21
280.4742645128
 31
0.0
  0
ARC
  5
104B5
330
19
100
AcDbEntity
  8
AUßENKONTUR
100
AcDbCircle
 10
210.188623177826
 20
320.9138156699861
 30
0.0
 40
40.0
100
AcDbArc
 50
271.3912668528298
 51
334.9999999999074
  0
ARC
  5
104B6
330
19
100
AcDbEntity
  8
AUßENKONTUR
100
AcDbCircle
 10
210.188623177826
 20
320.9138156699861
 30
0.0
 40
52.0
100
AcDbArc
 50
271.3912668528298
 51
334.9999999999074
  0
LWPOLYLINE
  5
104B7
330
19
100
AcDbEntity
  8
AUßENKONTUR
100
AcDbPolyline
 90
        3
 70
   128
 43
0.0
 10
-20.13639186269984
 20
-11.11464299819909
 10
-18.6297262687001
 20
-13.48869522069981
 10
-17.43749535720098
 20
-14.99822148669909
  0
LWPOLYLINE
  5
104B8
330
19
100
AcDbEntity
  8
AUßENKONTUR
100
AcDbPolyline
 90
        3
 70
   128
 43
0.0
 10
-20.07878282990214
 20
11.21752622810027
 10
-18.5850062746008
 20
13.54938944540129
 10
-17.45476611150093
 20
14.97726030720116
  0
LWPOLYLINE
  5
104B9
330
19
100
AcDbEntity
  8
AUßENKONTUR
100
AcDbPolyline
 90
        3
 70
   128
 43
0.0
 10
-0.000000086
 20
-22.99999995669987
 10
2.882664285997861
 20
-22.81863808729986
 10
5.437616596600037
 20
-22.34798252489918
  0
LWPOLYLINE
  5
104BA
330
19
100
AcDbEntity
  8
AUßENKONTUR
100
AcDbPolyline
 90
        3
 70
   128
 43
0.0
 10
16.49329565280118
 20
-16.03032110429876
 10
17.72180449789994
 20
-14.66075173659965
 10
19.01234265869993
 20
-12.94336983669882
  0
LINE
  5
104BB
330
19
100
AcDbEntity
  8
AUßENKONTUR
100
AcDbLine
 10
236.2417598527211
 20
198.1818752874011
 30
0.0
 11
-236.2417881237229
 21
198.1818752874011
 31
0.0
  0
LINE
  5
104BC
330
19
100
AcDbEntity
  8
AUßENKONTUR
100
AcDbLine
 10
235.2417598527211
 20
185.1818752874011
 30
0.0
 11
-235.2417881237229
 21
185.1818752874011
 31
0.0
  0
ARC
  5
104BD
330
19
100
AcDbEntity
  8
AUßENKONTUR
100
AcDbCircle
 10
235.2417598527211
 20
135.1818752874011
 30
0.0
 40
50.0
100
AcDbArc
 50
0.0
 51
90.0
  0
LINE
  5
104BE
330
19
100
AcDbEntity
  8
AUßENKONTUR
100
AcDbLine
 10
298.2417598527211
 20
-136.1976808435988
 30
0.0
 11
298.2417598527211
 21
136.1818752874011
 31
0.0
  0
ARC
  5
104BF
330
19
100
AcDbEntity
  8
AUßENKONTUR
100
AcDbCircle
 10
236.2417598527211
 20
136.1818752874011
 30
0.0
 40
62.0
100
AcDbArc
 50
0.0
 51
90.0
  0
LINE
  5
104C0
330
19
100
AcDbEntity
  8
AUßENKONTUR
100
AcDbLine
 10
285.241759852719
 20
-135.1976808435988
 30
0.0
 11
285.2417598527211
 21
135.1818752874011
 31
0.0
  0
LINE
  5
104C1
330
19
100
AcDbEntity
  8
AUßENKONTUR
100
AcDbLine
 10
-223.737165160823
 20
-198.1976808435988
 30
0.0
 11
223.73713688982
 21
-198.1976808435988
 31
0.0
  0
LINE
  5
104C2
330
19
100
AcDbEntity
  8
AUßENKONTUR
100
AcDbLine
 10
-223.737165160823
 20
-185.1976808435988
 30
0.0
 11
223.73713688982
 21
-185.1976808435988
 31
0.0
  0
LINE
  5
104C3
330
19
100
AcDbEntity
  8
AUßENKONTUR
100
AcDbLine
 10
18.07042430879915
 20
-14.40260295249891
 30
0.0
 11
17.93875137550094
 21
-14.40236886459888
 31
0.0
  0
LINE
  5
104C4
330
19
100
AcDbEntity
  8
AUßENKONTUR
100
AcDbLine
 10
-18.1218337526011
 20
-14.338260407299
 30
0.0
 11
-18.07045257949903
 21
-14.40260295439975
 31
0.0
  0
LINE
  5
104C5
330
19
100
AcDbEntity
  8
AUßENKONTUR
100
AcDbLine
 10
17.9317286633991
 20
14.40280271340009
 30
0.0
 11
18.07198430969902
 21
14.22642446189991
 31
0.0
  0
LINE
  5
104C6
330
19
100
AcDbEntity
  8
AUßENKONTUR
100
AcDbLine
 10
-2.419564548999915
 20
-22.87237866589885
 30
0.0
 11
-0.000000086
 21
-22.99999995669987
 31
0.0
  0
LINE
  5
104C7
330
19
100
AcDbEntity
  8
AUßENKONTUR
100
AcDbLine
 10
-22.99997233020076
 20
0.035790394101241
 30
0.0
 11
-22.99997233030103
 21
0.0357903618000819
 31
0.0
  0
LINE
  5
104C8
330
19
100
AcDbEntity
  8
AUßENKONTUR
100
AcDbLine
 10
22.99995448439904
 20
-0.045757571899685
 30
0.0
 11
22.99995448439904
 21
-0.0457575385989912
 31
0.0
  0
LINE
  5
104C9
330
19
100
AcDbEntity
  8
AUßENKONTUR
100
AcDbLine
 10
-34.99994477609994
 20
0.0622228525003266
 30
0.0
 11
-34.9999455674008
 21
0.061777785301274
 31
0.0
  0
LINE
  5
104CA
330
19
100
AcDbEntity
  8
AUßENKONTUR
100
AcDbLine
 10
22.99996280529899
 20
-0.0413180846990144
 30
0.0
 11
22.99996356759903
 21
-0.0408893027988597
 31
0.0
  0
LINE
  5
104CB
330
19
100
AcDbEntity
  8
AUßENKONTUR
100
AcDbLine
 10
-22.99996373949898
 20
0.0408893032013111
 30
0.0
 11
-22.9999645018022
 21
0.040460521201112
 31
0.0
  0
ARC
  5
104CC
330
19
100
AcDbEntity
  8
AUßENKONTUR
100
AcDbCircle
 10
-0.2519770693008922
 20
-0.0079027995989236
 30
0.0
 40
33.31780465681547
100
AcDbArc
 50
321.729359616094
 51
38.27064074455668
  0
ARC
  5
104CD
330
19
100
AcDbEntity
  8
AUßENKONTUR
100
AcDbCircle
 10
0.2519521995998275
 20
-0.0079027507999854
 30
0.0
 40
33.31780786582124
100
AcDbArc
 50
141.7306311617785
 51
218.2693850274937
  0
ARC
  5
104CE
330
19
100
AcDbEntity
  8
AUßENKONTUR
100
AcDbCircle
 10
-0.0000132770999244
 20
-0.3261775192986533
 30
0.0
 40
33.31958080144913
100
AcDbArc
 50
38.96869845178933
 51
141.0325714329817
  0
ARC
  5
104CF
330
19
100
AcDbEntity
  8
AUßENKONTUR
100
AcDbCircle
 10
-0.0000134796009661
 20
0.3103726455001379
 30
0.0
 40
33.31958123537145
100
AcDbArc
 50
218.9674458116348
 51
321.0313009305169
  0
ARC
  5
104D0
330
19
100
AcDbEntity
  8
AUßENKONTUR
100
AcDbCircle
 10
-0.0000141354998959
 20
-0.0089915417988777
 30
0.0
 40
23.00067839094438
100
AcDbArc
 50
38.54273528057653
 51
141.4572647194234
  0
ARC
  5
104D1
330
19
100
AcDbEntity
  8
AUßENKONTUR
100
AcDbCircle
 10
-0.0000141354998959
 20
-0.0068140143989694
 30
0.0
 40
23.00067839094647
100
AcDbArc
 50
218.5427352805765
 51
321.4572647194235
  0
ARC
  5
104D2
330
19
100
AcDbEntity
  8
AUßENKONTUR
100
AcDbCircle
 10
0.0000777904988354
 20
-0.0079027780989236
 30
0.0
 40
23.00007190153889
100
AcDbArc
 50
141.459528763893
 51
218.5404712361069
  0
ARC
  5
104D3
330
19
100
AcDbEntity
  8
AUßENKONTUR
100
AcDbCircle
 10
-0.000106061500901
 20
-0.0079027780989236
 30
0.0
 40
23.00007190153891
100
AcDbArc
 50
321.459528763893
 51
38.54047123610696
  0
ARC
  5
104D4
330
19
100
AcDbEntity
  8
AUßENKONTUR
100
AcDbCircle
 10
-0.0000141354009884
 20
-0.1705949401989528
 30
0.0
 40
23.00197377774852
100
AcDbArc
 50
218.2234413292102
 51
321.7765586712435
  0
ARC
  5
104D5
330
19
100
AcDbEntity
  8
AUßENKONTUR
100
AcDbCircle
 10
-0.0000008075001006
 20
-0.0004288159989301
 30
0.0
 40
22.99999996365447
100
AcDbArc
 50
308.0565744452854
 51
335.4629855613931
  0
ARC
  5
104D6
330
19
100
AcDbEntity
  8
AUßENKONTUR
100
AcDbCircle
 10
0.0
 20
0.0
 30
0.0
 40
22.99999991407997
100
AcDbArc
 50
355.2078514195122
 51
7.811896003497868
  0
ARC
  5
104D7
330
19
100
AcDbEntity
  8
AUßENKONTUR
100
AcDbCircle
 10
-0.0000000544009708
 20
-0.0000000288991941
 30
0.0
 40
22.99999997653793
100
AcDbArc
 50
37.76392938331416
 51
51.2113594277085
  0
ARC
  5
104D8
330
19
100
AcDbEntity
  8
AUßENKONTUR
100
AcDbCircle
 10
-0.0000001319999683
 20
-0.0000000167988219
 30
0.0
 40
22.99999995786959
100
AcDbArc
 50
138.7153972478776
 51
149.8769206788201
  0
ARC
  5
104D9
330
19
100
AcDbEntity
  8
AUßENKONTUR
100
AcDbCircle
 10
-0.0000001704011083
 20
0.0000000004010872
 30
0.0
 40
22.99999991558969
100
AcDbArc
 50
178.9139634131897
 51
192.3058454610078
  0
ARC
  5
104DA
330
19
100
AcDbEntity
  8
AUßENKONTUR
100
AcDbCircle
 10
-0.0000001335990873
 20
0.0000000161007847
 30
0.0
 40
22.99999995579812
100
AcDbArc
 50
207.7774259496168
 51
220.0461834690257
  0
ARC
  5
104DF
102
{ACAD_REACTORS
330
10BBB
102
}
330
19
100
AcDbEntity
  8
AUßENKONTUR
100
AcDbCircle
 10
-235.2417881237229
 20
135.1818752874011
 30
0.0
 40
50.0
100
AcDbArc
 50
90.0
 51
180.0
  0
ARC
  5
104E0
102
{ACAD_REACTORS
330
10BD3
102
}
330
19
100
AcDbEntity
  8
AUßENKONTUR
100
AcDbCircle
 10
-236.2417881237229
 20
136.1818752874011
 30
0.0
 40
62.0
100
AcDbArc
 50
90.0
 51
180.0
  0
LINE
  5
104E1
330
19
100
AcDbEntity
  8
AUßENKONTUR
100
AcDbLine
 10
236.2417598527211
 20
-198.1976808435988
 30
0.0
 11
-236.2417881237229
 21
-198.1976808435988
 31
0.0
  0
LINE
  5
104E2
330
19
100
AcDbEntity
  8
AUßENKONTUR
100
AcDbLine
 10
235.2417598527211
 20
-185.1976808435988
 30
0.0
 11
-235.2417881237229
 21
-185.1976808435988
 31
0.0
  0
ARC
  5
104E3
330
19
100
AcDbEntity
  8
AUßENKONTUR
100
AcDbCircle
 10
235.2417598527211
 20
-135.1976808435988
 30
0.0
 40
50.0
100
AcDbArc
 50
270.0
 51
0.0
  0
ARC
  5
104E4
330
19
100
AcDbEntity
  8
AUßENKONTUR
100
AcDbCircle
 10
236.2417598527211
 20
-136.1976808435988
 30
0.0
 40
62.0
100
AcDbArc
 50
270.0
 51
0.0
  0
ARC
  5
104E5
102
{ACAD_REACTORS
330
10BBB
102
}
330
19
100
AcDbEntity
  8
AUßENKONTUR
100
AcDbCircle
 10
-235.2417881237229
 20
-135.1976808435988
 30
0.0
 40
50.0
100
AcDbArc
 50
180.0
 51
270.0
  0
ARC
  5
104E6
102
{ACAD_REACTORS
330
10BD3
102
}
330
19
100
AcDbEntity
  8
AUßENKONTUR
100
AcDbCircle
 10
-236.2417881237229
 20
-136.1976808435988
 30
0.0
 40
62.0
100
AcDbArc
 50
180.0
 51
270.0
  0
LINE
  5
104E7
330
19
100
AcDbEntity
  8
AUßENKONTUR
100
AcDbLine
 10
-298.2417881237229
 20
-136.1976808435988
 30
0.0
 11
-298.2417881237229
 21
136.1818752874011
 31
0.0
  0
LINE
  5
104E8
330
19
100
AcDbEntity
  8
AUßENKONTUR
100
AcDbLine
 10
-285.241788123722
 20
-135.1976808435988
 30
0.0
 11
-285.2417881237229
 21
135.1818752874011
 31
0.0
  0
LINE
  5
104EB
330
19
100
AcDbEntity
  8
AUßENKONTUR
100
AcDbLine
 10
-196.0000141354001
 20
268.6142889539131
 30
0.0
 11
-196.0000141354001
 21
256.5062165528981
 31
0.0
  0
LINE
  5
104EC
330
19
100
AcDbEntity
  8
AUßENKONTUR
100
AcDbLine
 10
-0.0000141354009884
 20
256.5062165528981
 30
0.0
 11
-196.0000141354001
 21
256.5062165528981
 31
0.0
  0
LINE
  5
104ED
102
{ACAD_REACTORS
330
10C01
102
}
330
19
100
AcDbEntity
  8
AUßENKONTUR
100
AcDbLine
 10
195.999985864599
 20
268.6142889539131
 30
0.0
 11
195.999985864599
 21
256.5062165528981
 31
0.0
  0
LINE
  5
104EE
102
{ACAD_REACTORS
330
10C01
102
}
330
19
100
AcDbEntity
  8
AUßENKONTUR
100
AcDbLine
 10
-0.0000141354009884
 20
256.5062165528981
 30
0.0
 11
195.999985864599
 21
256.5062165528981
 31
0.0
  0
DIMENSION
  5
104EF
330
19
100
AcDbEntity
  8
BEM-2
 62
     7
100
AcDbDimension
280
     0
  2
*D246
 10
-369.7451196831416
 20
256.5062165528981
 30
0.0
 11
-384.5779982643149
 21
321.6040554354255
 31
0.0
 70
    32
  1
(125)
 71
     5
 42
130.195677765055
 73
     0
 74
     0
 75
     0
  3
BEM-5
100
AcDbAlignedDimension
 13
-298.241788123621
 23
386.7018943179531
 33
0.0
 14
-196.0000141354001
 24
256.5062165528981
 34
0.0
 50
90.0
100
AcDbRotatedDimension
  0
LINE
  5
104F0
330
19
100
AcDbEntity
  8
AUßENKONTUR
  6
VERDECKT
100
AcDbLine
 10
189.9999858644978
 20
99.99209722190119
 30
0.0
 11
-190.0000141355022
 21
99.99209722190119
 31
0.0
  0
LINE
  5
104F1
330
19
100
AcDbEntity
  8
AUßENKONTUR
  6
VERDECKT
100
AcDbLine
 10
-190.0000141355022
 20
-100.0079027780989
 30
0.0
 11
189.9999858644978
 21
-100.0079027780989
 31
0.0
  0
LINE
  5
104F2
330
19
100
AcDbEntity
  8
AUßENKONTUR
  6
VERDECKT
100
AcDbLine
 10
-200.0000141355022
 20
89.99209722190119
 30
0.0
 11
-200.0000141355022
 21
-90.0079027781012
 31
0.0
  0
LINE
  5
104F3
330
19
100
AcDbEntity
  8
AUßENKONTUR
  6
VERDECKT
100
AcDbLine
 10
199.9999858644978
 20
-90.0079027781012
 30
0.0
 11
199.9999858644978
 21
89.99209722190119
 31
0.0
  0
LINE
  5
104F4
330
19
100
AcDbEntity
  8
AUßENKONTUR
  6
VERDECKT
100
AcDbLine
 10
184.9999858644978
 20
-85.00790277809892
 30
0.0
 11
184.9999858644978
 21
84.99209722190119
 31
0.0
  0
LINE
  5
104F5
330
19
100
AcDbEntity
  8
AUßENKONTUR
  6
VERDECKT
100
AcDbLine
 10
-185.0000141355021
 20
-85.00790277809892
 30
0.0
 11
184.9999858644978
 21
-85.00790277809892
 31
0.0
  0
LINE
  5
104F6
330
19
100
AcDbEntity
  8
AUßENKONTUR
  6
VERDECKT
100
AcDbLine
 10
184.9999858644978
 20
84.99209722190119
 30
0.0
 11
-185.0000141355021
 21
84.99209722190119
 31
0.0
  0
LINE
  5
104F7
330
19
100
AcDbEntity
  8
AUßENKONTUR
  6
VERDECKT
100
AcDbLine
 10
-185.0000141355021
 20
84.99209722190119
 30
0.0
 11
-185.0000141355021
 21
-85.00790277809892
 31
0.0
  0
ARC
  5
104F8
330
19
100
AcDbEntity
  8
AUßENKONTUR
  6
VERDECKT
100
AcDbCircle
 10
189.9999858644978
 20
89.99209722190119
 30
0.0
 40
10.00000000000028
100
AcDbArc
 50
0.0
 51
90.0
  0
ARC
  5
104F9
330
19
100
AcDbEntity
  8
AUßENKONTUR
  6
VERDECKT
100
AcDbCircle
 10
-190.0000141355022
 20
-90.0079027781012
 30
0.0
 40
10.00000000000017
100
AcDbArc
 50
180.0
 51
270.0
  0
ARC
  5
104FA
330
19
100
AcDbEntity
  8
AUßENKONTUR
  6
VERDECKT
100
AcDbCircle
 10
-190.0000141355022
 20
89.99209722190119
 30
0.0
 40
10.0000000000007
100
AcDbArc
 50
90.0
 51
180.0
  0
ARC
  5
104FB
330
19
100
AcDbEntity
  8
AUßENKONTUR
  6
VERDECKT
100
AcDbCircle
 10
189.9999858644978
 20
-90.0079027781012
 30
0.0
 40
10.00000000000037
100
AcDbArc
 50
270.0
 51
0.0
  0
LINE
  5
104FC
330
19
100
AcDbEntity
  8
AUßENKONTUR
  6
VERDECKT
100
AcDbLine
 10
189.9999858644978
 20
-100.0079027780989
 30
0.0
 11
-190.0000141355022
 21
-100.0079027780989
 31
0.0
  0
LINE
  5
104FD
330
19
100
AcDbEntity
  8
AUßENKONTUR
100
AcDbLine
 10
286.2753653469551
 20
386.7018943179531
 30
0.0
 11
-295.1024169693869
 21
386.7018943179531
 31
0.0
  0
DIMENSION
  5
10B35
330
19
100
AcDbEntity
  8
BEM-2
 62
     7
100
AcDbDimension
280
     0
  2
*D324
 10
285.001224825342
 20
434.4446316478552
 30
0.0
 11
-0.000014135401556
 21
447.1032264636805
 31
0.0
 70
    32
 71
     5
 42
570.002477921487
 73
     0
 74
     0
 75
     0
  3
BEM-5
100
AcDbAlignedDimension
 13
-285.0012530961451
 23
386.7018943179531
 33
0.0
 14
285.001224825342
 24
386.7018943179531
 34
0.0
100
AcDbRotatedDimension
  0
DIMENSION
  5
10B42
330
19
100
AcDbEntity
  8
BEM-2
 62
     7
100
AcDbDimension
280
     0
  2
*D325
 10
298.2417598528209
 20
467.4604054496448
 30
0.0
 11
-0.0000141354000781
 21
480.1190002654703
 31
0.0
 70
    32
 71
     5
 42
596.483547976442
 73
     0
 74
     0
 75
     0
  3
BEM-5
100
AcDbAlignedDimension
 13
-298.241788123621
 23
386.7018943179531
 33
0.0
 14
298.2417598528209
 24
386.7018943179531
 34
0.0
100
AcDbRotatedDimension
1001
ACAD
1000
DSTYLE
1002
{
1070
   271
1070
     0
1002
}
  0
DIMENSION
  5
10B61
330
19
100
AcDbEntity
  8
BEM-2
 62
     7
100
AcDbDimension
280
     0
  2
*D326
 10
-331.6386441448995
 20
276.701894317952
 30
0.0
 11
-344.2972389607249
 21
331.7018943179525
 31
0.0
 70
    32
 71
     5
 42
110.0000000000011
 73
     0
 74
     0
 75
     0
  3
BEM-5
100
AcDbAlignedDimension
 13
-298.241788123621
 23
386.7018943179531
 33
0.0
 14
-256.501529149963
 24
276.701894317952
 34
0.0
 50
90.0
100
AcDbRotatedDimension
  0
DIMENSION
  5
10B94
102
{ACAD_XDICTIONARY
360
10B9D
102
}
102
{ACAD_REACTORS
330
10BA3
102
}
330
19
100
AcDbEntity
  8
BEM-2
 62
     7
100
AcDbDimension
280
     0
  2
*D327
 10
-210.1886514486273
 20
320.9138156699863
 30
0.0
 11
-203.4397634305311
 21
331.9024414513492
 31
0.0
 70
   164
 71
     5
 42
40.00000000000011
 73
     0
 74
     0
 75
     0
  3
BEM-5$4
100
AcDbRadialDimension
 15
-231.1225204452508
 25
286.8290224502496
 35
0.0
 40
0.0
1001
ACAD_DSTYLE_DIMRADIAL_EXTENSION
1070
   387
1070
     1
1070
   388
1040
3.577924966589991
1070
   390
1040
4.688106793028951
  0
DIMENSION
  5
10BA4
102
{ACAD_XDICTIONARY
360
10BB1
102
}
102
{ACAD_REACTORS
330
10BBB
102
}
330
19
100
AcDbEntity
  8
BEM-2
 62
     7
100
AcDbDimension
280
     0
  2
*D328
 10
-346.0228381270036
 20
-185.1976808435988
 30
0.0
 11
-358.6865489046297
 21
-0.0079027780989009
 31
0.0
 70
    32
 71
     5
 42
370.379556131
 73
     0
 74
     0
 75
     0
  3
BEM-5
100
AcDbAlignedDimension
 13
-235.2417881237229
 23
185.1818752874011
 33
0.0
 14
-235.2417881237229
 24
-185.1976808435988
 34
0.0
 50
90.0
100
AcDbRotatedDimension
1001
ACAD
1000
DSTYLE
1002
{
1070
   271
1070
     0
1002
}
  0
DIMENSION
  5
10BBC
102
{ACAD_XDICTIONARY
360
10BC9
102
}
102
{ACAD_REACTORS
330
10BD3
102
}
330
19
100
AcDbEntity
  8
BEM-2
 62
     7
100
AcDbDimension
280
     0
  2
*D329
 10
-395.5598493419375
 20
-198.1976808435988
 30
0.0
 11
-408.2235601195636
 21
-0.0079027780988978
 31
0.0
 70
    32
 71
     5
 42
396.379556131
 73
     0
 74
     0
 75
     0
  3
BEM-5
100
AcDbAlignedDimension
 13
-236.2417881237229
 23
198.1818752874011
 33
0.0
 14
-236.2417881237229
 24
-198.1976808435988
 34
0.0
 50
90.0
100
AcDbRotatedDimension
1001
ACAD
1000
DSTYLE
1002
{
1070
   271
1070
     0
1002
}
  0
DIMENSION
  5
10BE6
102
{ACAD_XDICTIONARY
360
10BF5
102
}
102
{ACAD_REACTORS
330
10C01
102
}
330
19
100
AcDbEntity
  8
BEM-2
 62
     7
100
AcDbDimension
280
     0
  2
*D330
 10
296.9504269404297
 20
256.5062165528981
 30
0.0
 11
284.4197311696247
 21
262.5602527534057
 31
0.0
 70
    32
 71
     5
 42
12.10807240101508
 73
     0
 74
     0
 75
     0
  3
BEM-5
100
AcDbAlignedDimension
 13
195.999985864599
 23
268.6142889539131
 33
0.0
 14
195.999985864599
 24
256.5062165528981
 34
0.0
 50
90.0
100
AcDbRotatedDimension
1001
ACAD
1000
DSTYLE
1002
{
1070
   271
1070
     0
1002
}
  0
VIEWPORT
  5
AD4
330
ACD
100
AcDbEntity
 67
     1
  8
0
100
AcDbViewport
 10
-142.5044479284648
 20
99.00211961002794
 30
0.0
 40
388.722283768124
 41
222.226538569949
 68
     1
 69
     1
 12
-142.5044479284648
 22
99.00211961002794
 13
0.0
 23
0.0
 14
1.0
 24
1.0
 15
10.0
 25
10.0
 16
0.0
 26
0.0
 36
1.0
 17
0.0
 27
0.0
 37
0.0
 42
50.0
 43
0.0
 44
0.0
 45
222.226538569949
 50
0.0
 51
0.0
 72
  1000
 90
    32800
  1

281
     0
 71
     1
 74
     0
110
0.0
120
0.0
130
0.0
111
1.0
121
0.0
131
0.0
112
0.0
122
1.0
132
0.0
 79
     0
146
0.0
170
     0
 61
     5
348
1BDF
292
     1
282
     1
141
0.0
142
0.0
 63
   250
421
  3355443
  0
LWPOLYLINE
  5
ADE
330
ACD
100
AcDbEntity
 67
     1
  8
Verdeckt
100
AcDbPolyline
 90
        4
 70
     1
 43
0.0
 10
1.0
 20
199.0
 10
1.0
 20
-1.0
 10
-286.0
 20
-0.9999999999999982
 10
-286.0
 20
199.0
  0
LWPOLYLINE
  5
ADF
330
ACD
100
AcDbEntity
 67
     1
  8
0
100
AcDbPolyline
 90
        4
 70
     1
 43
0.0
 10
0.0
 20
193.3332543451629
 10
0.0
 20
4.333254345162913
 10
-285.0
 20
4.333254345162915
 10
-285.0
 20
193.3332543451629
  0
VIEWPORT
  5
AE0
102
{ACAD_XDICTIONARY
360
278C
102
}
330
ACD
100
AcDbEntity
 67
     1
  8
Zeichnungsfenster
100
AcDbViewport
 10
-142.5013186771074
 20
116.3263247427561
 30
0.0
 40
282.9973626457852
 41
151.3034855134673
 68
     2
 69
     2
 12
-3729.015271865276
 22
-5285.413521223978
 13
0.0
 23
0.0
 14
1.0
 24
1.0
 15
100.0
 25
100.0
 16
0.0
 26
0.0
 36
3968.191447920191
 17
3706.131076739558
 27
5428.081071379222
 37
0.0
 42
50.0
 43
0.0
 44
0.0
 45
756.5174278632554
 50
0.0
 51
0.0
 72
  1000
 90
    32800
  1

281
     0
 71
     1
 74
     0
110
0.0
120
0.0
130
0.0
111
1.0
121
0.0
131
0.0
112
0.0
122
1.0
132
0.0
 79
     0
146
0.0
170
     0
 61
     5
348
1BDF
292
     1
282
     1
141
0.0
142
0.0
 63
   250
421
  3355443
  0
INSERT
  5
6AB7
102
{ACAD_XDICTIONARY
360
6AB8
102
}
330
ACD
100
AcDbEntity
 67
     1
  8
0
100
AcDbBlockReference
 66
     1
  2
*U3
 10
0.0
 20
4.333254345162913
 30
0.0
  0
ATTRIB
  5
6ABF
330
6AB7
100
AcDbEntity
 67
     1
  8
Plankopf_Variablen
100
AcDbText
 10
-26.37590902967417
 20
25.05671944740465
 30
0.0
 40
2.0
  1
1:5
  7
robert_koch
100
AcDbAttribute
280
     0
  2
MASSSTAB
 70
     4
280
     0
1001
AcDbBlockRepETag
1070
     1
1071
        4
1005
0
  0
ATTRIB
  5
6AC0
330
6AB7
100
AcDbEntity
 67
     1
  8
Plankopf_Variablen
100
AcDbText
 10
-64.04207546896476
 20
25.05671944740465
 30
0.0
 40
2.0
  1
26.11.2020
  7
robert_koch
100
AcDbAttribute
280
     0
  2
DATUM-ERST
 70
     4
280
     0
1001
AcDbBlockRepETag
1070
     1
1071
        6
1005
0
  0
ATTRIB
  5
8986
330
6AB7
100
AcDbEntity
 67
     1
  8
Plankopf_Variablen
100
AcDbText
 10
-64.42938305725771
 20
31.86384598640143
 30
0.0
 40
3.5
  1
SDS 570.370 R40 TOP
  7
Plankopf_cad-support
100
AcDbAttribute
280
     0
  2
TYP/TYPE:
 70
     0
280
     0
  0
SEQEND
  5
6AC2
330
6AB7
100
AcDbEntity
 67
     1
  8
0
  0
INSERT
  5
E105
102
{ACAD_XDICTIONARY
360
E106
102
}
330
ACD
100
AcDbEntity
 67
     1
  8
Bestellung_Symbole
 62
     7
100
AcDbBlockReference
  2
*U14
 10
0.018271304968664
 20
0.0204443341111578
 30
0.0
  0
ENDSEC
  0
SECTION
  2
OBJECTS
  0
DICTIONARY
  5
C
330
0
100
AcDbDictionary
281
     1
  3
ACAD_ASSOCNETWORK
350
AEF5
  3
ACAD_BACKGROUND
350
2794
  3
ACAD_CIP_PREVIOUS_PRODUCT_INFO
350
2DE3
  3
ACAD_COLOR
350
EC3
  3
ACAD_DETAILVIEWSTYLE
350
41D8
  3
ACAD_FIELDLIST
350
11C2
  3
ACAD_GROUP
350
D
  3
ACAD_IMAGE_DICT
350
7320
  3
ACAD_IMAGE_VARS
350
7322
  3
ACAD_LAYOUT
350
577
  3
ACAD_MATERIAL
350
EC2
  3
ACAD_MLEADERSTYLE
350
1F5C
  3
ACAD_MLINESTYLE
350
E
  3
ACAD_PLOTSETTINGS
350
578
  3
ACAD_PLOTSTYLENAME
350
575
  3
ACAD_RENDER_ACTIVE_RAPIDRT_SETTINGS
350
65A9
  3
ACAD_RENDER_ACTIVE_SETTINGS
350
EDFD
  3
ACAD_RENDER_RAPIDRT_SETTINGS
350
61CB
  3
ACAD_SCALELIST
350
1F3A
  3
ACAD_SECTIONVIEWSTYLE
350
41D6
  3
ACAD_TABLESTYLE
350
107E
  3
ACAD_VISUALSTYLE
350
1BD9
  3
AcAec
350
2D3C
  3
ACDB_RECOMPOSE_DATA
350
10C1E
  3
ACDBVARIABLEDICTIONARY
350
4A3
  3
AcStPlugin
350
28EC
  3
AEC_CLASSIFICATION_SYSTEM_DEFS
350
FB1
  3
AEC_ISOLATED_OBJECTS
350
DFBE
  3
AEC_PROPERTY_SET_DEFS
350
D05
  3
CONTENTDICTIONARY
350
2E1
  3
DRAWINGVARIABLESDICT
350
4B0
  0
DICTIONARY
  5
11DB
330
2
100
AcDbDictionary
280
     1
281
     1
  3
ACAD_LAYERFILTERS
360
2D39
  3
ACAD_LAYERSTATES
360
11DC
  3
ACLYDICTIONARY
360
2D38
  0
DICTIONARY
  5
2152
330
F
100
AcDbDictionary
280
     1
281
     1
  3
ADSK_XREC_LAYER_RECONCILED
360
F01A
  0
DICTIONARY
  5
C21B
330
AE76
100
AcDbDictionary
280
     1
281
     1
  3
ADSK_XREC_LAYER_RECONCILED
360
F01B
  0
DICTIONARY
  5
C21D
330
AEC5
100
AcDbDictionary
280
     1
281
     1
  3
ADSK_XREC_LAYER_RECONCILED
360
F01C
  0
DICTIONARY
  5
C221
330
B623
100
AcDbDictionary
280
     1
281
     1
  3
ADSK_XREC_LAYER_RECONCILED
360
F01D
  0
DICTIONARY
  5
C225
330
B625
100
AcDbDictionary
280
     1
281
     1
  3
ADSK_XREC_LAYER_RECONCILED
360
F01E
  0
DICTIONARY
  5
C229
330
B775
100
AcDbDictionary
280
     1
281
     1
  3
ADSK_XREC_LAYER_RECONCILED
360
F01F
  0
DICTIONARY
  5
BAF0
330
BAC5
100
AcDbDictionary
280
     1
281
     1
  3
ADSK_XREC_LAYER_LINEWT_OVR
360
BAF1
  3
ADSK_XREC_LAYER_RECONCILED
360
F020
  0
DICTIONARY
  5
DB03
330
CF41
100
AcDbDictionary
280
     1
281
     1
  3
ADSK_XREC_LAYER_RECONCILED
360
F021
  0
DICTIONARY
  5
DB05
330
CF49
100
AcDbDictionary
280
     1
281
     1
  3
ADSK_XREC_LAYER_RECONCILED
360
F022
  0
DICTIONARY
  5
DB07
330
D025
100
AcDbDictionary
280
     1
281
     1
  3
ADSK_XREC_LAYER_RECONCILED
360
F023
  0
DICTIONARY
  5
DC06
330
DC05
100
AcDbDictionary
280
     1
281
     1
  0
DICTIONARY
  5
E2AB
330
E2AA
100
AcDbDictionary
280
     1
281
     1
  3
ADSK_XREC_LAYER_RECONCILED
360
F024
  0
DICTIONARY
  5
F5EE
330
F5ED
100
AcDbDictionary
280
     1
281
     1
  0
DICTIONARY
  5
2CA0
330
2C9F
100
AcDbDictionary
280
     1
281
     1
  3
ADSK_XREC_VTR_ANNOSCALE_DATA
360
2CA1
  3
ADSK_XREC_VTRANIMATIONINFO
360
2CA3
  3
ADSK_XREC_VTRVIEWINFO
360
2CA2
  0
DICTIONARY
  5
2792
330
19
100
AcDbDictionary
280
     1
281
     1
  3
ACAD_SORTENTS
360
2793
  0
DICTIONARY
  5
BB9F
330
ACD
100
AcDbDictionary
280
     1
281
     1
  3
ACAD_SORTENTS
360
BBA0
  0
DICTIONARY
  5
DAA5
330
2CD1
100
AcDbDictionary
280
     1
281
     1
  3
ACAD_ASSOCNETWORK
360
DAB0
  3
ACAD_ENHANCEDBLOCK
360
DAA6
  3
ACAD_SORTENTS
360
DAB4
  3
AcDbDynamicBlockRoundTripPurgePreventer
360
DABA
  0
DICTIONARY
  5
EF68
330
C31F
100
AcDbDictionary
280
     1
281
     1
  3
ACAD_ENHANCEDBLOCK
360
EF69
  3
AcDbDynamicBlockRoundTripPurgePreventer
360
EFD0
  0
DICTIONARY
  5
DAD0
330
DABB
100
AcDbDictionary
280
     1
281
     1
  3
ACAD_ASSOCNETWORK
360
DAD1
  3
ACAD_SORTENTS
360
DAD5
  0
DICTIONARY
  5
F009
330
EFD1
100
AcDbDictionary
280
     1
281
     1
  0
IMAGEDEF_REACTOR
  5
DAA4
330
DAA3
100
AcDbRasterImageDefReactor
 90
        2
330
DAA3
  0
DICTIONARY
  5
EF4F
330
EF4E
100
AcDbDictionary
280
     1
281
     1
  3
ACAD_MTEXT_2008_RT
360
10C1A
  0
DICTIONARY
  5
EF63
330
EF62
100
AcDbDictionary
280
     1
281
     1
  3
ACAD_MTEXT_2008_RT
360
10C1B
  0
IMAGEDEF_REACTOR
  5
DACC
330
DACB
100
AcDbRasterImageDefReactor
 90
        2
330
DACB
  0
DICTIONARY
  5
EFF4
330
EFF3
100
AcDbDictionary
280
     1
281
     1
  3
ACAD_MTEXT_2008_RT
360
10C1C
  0
DICTIONARY
  5
F004
330
F003
100
AcDbDictionary
280
     1
281
     1
  3
ACAD_MTEXT_2008_RT
360
10C1D
  0
DICTIONARY
  5
10B9D
330
10B94
100
AcDbDictionary
280
     1
281
     1
  3
ACAD_DIMASSOC
360
10BA3
  0
DICTIONARY
  5
10BB1
330
10BA4
100
AcDbDictionary
280
     1
281
     1
  3
ACAD_DIMASSOC
360
10BBB
  0
DICTIONARY
  5
10BC9
330
10BBC
100
AcDbDictionary
280
     1
281
     1
  3
ACAD_DIMASSOC
360
10BD3
  0
DICTIONARY
  5
10BF5
330
10BE6
100
AcDbDictionary
280
     1
281
     1
  3
ACAD_DIMASSOC
360
10C01
  0
DICTIONARY
  5
278C
330
AE0
100
AcDbDictionary
280
     1
281
     1
  3
ASDK_XREC_ANNOTATION_SCALE_INFO
360
278D
  0
DICTIONARY
  5
6AB8
330
6AB7
100
AcDbDictionary
280
     1
281
     1
  3
AcDbBlockRepresentation
360
6AB9
  0
DICTIONARY
  5
E106
330
E105
100
AcDbDictionary
280
     1
281
     1
  3
AcDbBlockRepresentation
360
E107
  0
DICTIONARY
  5
AEF5
102
{ACAD_REACTORS
330
C
102
}
330
C
100
AcDbDictionary
281
     1
  3
ACAD_ASSOCNETWORK
350
AEF6
  0
DICTIONARY
  5
2794
102
{ACAD_REACTORS
330
C
102
}
330
C
100
AcDbDictionary
281
     1
  0
XRECORD
  5
2DE3
102
{ACAD_REACTORS
330
C
102
}
330
C
100
AcDbXrecord
280
     1
300
ARCHDESK
300
2016
300
ARCHDESK_F_S
  0
DICTIONARY
  5
EC3
102
{ACAD_REACTORS
330
C
102
}
330
C
100
AcDbDictionary
281
     1
  0
DICTIONARY
  5
41D8
102
{ACAD_REACTORS
330
C
102
}
330
C
100
AcDbDictionary
281
     1
  3
Imperial24
350
4E0F
  3
Metric50
350
41D9
  0
FIELDLIST
  5
11C2
102
{ACAD_REACTORS
330
C
102
}
330
C
100
AcDbIdSet
 90
        0
100
AcDbFieldList
  0
DICTIONARY
  5
D
102
{ACAD_REACTORS
330
C
102
}
330
C
100
AcDbDictionary
281
     1
  0
DICTIONARY
  5
7320
102
{ACAD_REACTORS
330
C
102
}
330
C
100
AcDbDictionary
281
     1
  3
Pfeiffer Logo
350
BF5B
  3
studer_logo_kleinCMYK
350
7323
  3
studer_logo_kleinCMYK_1
350
D790
  0
RASTERVARIABLES
  5
7322
102
{ACAD_REACTORS
330
C
102
}
330
C
100
AcDbRasterVariables
 90
        0
 70
     1
 71
     1
 72
     1
  0
DICTIONARY
  5
577
102
{ACAD_REACTORS
330
C
102
}
330
C
100
AcDbDictionary
281
     1
  3
A4-quer
350
ACE
  3
Model
350
579
  0
DICTIONARY
  5
EC2
102
{ACAD_REACTORS
330
C
102
}
330
C
100
AcDbDictionary
281
     1
  3
ByBlock
350
1BD7
  3
ByLayer
350
1BD6
  3
Global
350
1BD8
  0
DICTIONARY
  5
1F5C
102
{ACAD_REACTORS
330
C
102
}
330
C
100
AcDbDictionary
281
     1
  3
Standard
350
1F5D
  0
DICTIONARY
  5
E
102
{ACAD_REACTORS
330
C
102
}
330
C
100
AcDbDictionary
281
     1
  3
STANDARD
350
1C
  0
DICTIONARY
  5
578
102
{ACAD_REACTORS
330
C
102
}
330
C
100
AcDbDictionary
281
     1
  3
A3 Hoch
350
2129
  3
A3 Quer
350
2118
  3
A4 Hoch
350
20F6
  3
A4 Quer
350
2107
  3
A4 quer Studer PDF
350
A2B5
  3
Modell Grenzen
350
21AF
  3
OPO_JPG_hoch
350
23F8
  3
OPO_JPG_quer
350
23F9
  3
PDF A0-hoch
350
61DB
  3
PDF A0-quer
350
2E8C
  3
PDF A1-hoch
350
62B8
  3
PDF A1-quer
350
2E74
  3
PDF A2-hoch
350
649D
  3
PDF A2-quer
350
2E5C
  3
PDF A3-hoch
350
2E2C
  3
PDF A3-quer
350
2E44
  3
PDF A4-hoch
350
2DF9
  3
PDF A4-quer
350
2E0E
  0
ACDBDICTIONARYWDFLT
  5
575
102
{ACAD_REACTORS
330
C
102
}
330
C
100
AcDbDictionary
281
     1
  3
Normal
350
576
100
AcDbDictionaryWithDefault
340
576
  0
RAPIDRTRENDERSETTINGS
  5
65A9
102
{ACAD_REACTORS
330
C
102
}
330
C
100
AcDbRenderSettings
 90
        2
  1
Mittel
290
     1
290
     0
290
     1
290
     1
  1

  1
Wendet 5 Render-Ebenen an
 90
        0
100
AcDbRapidRTRenderSettings
 90
        3
 70
     0
 90
        5
 90
        1
 70
     1
 70
     2
 40
3.0
 40
3.0
290
     1
  0
MENTALRAYRENDERSETTINGS
  5
EDFD
102
{ACAD_XDICTIONARY
360
EDFE
102
}
102
{ACAD_REACTORS
330
C
102
}
330
C
100
AcDbRenderSettings
 90
        2
  1
Mittel
290
     1
290
     1
290
     1
290
     1
  1

  1

 90
        0
100
AcDbMentalRayRenderSettings
 90
        2
 90
        0
 90
        1
 70
     2
 40
3.0
 40
3.0
 40
0.0500000007450581
 40
0.0500000007450581
 40
0.0500000007450581
 40
0.0500000007450581
 70
     0
290
     0
290
     1
 90
        5
 90
        5
 90
        5
290
     0
 90
      500
290
     0
 40
1.0
 90
    10000
 90
        5
 90
        5
 90
        5
290
     0
 90
      200
290
     0
290
     0
290
     0
 40
1.0
 40
1.0
 40
1500.0
 70
     0
 70
     0
 40
10.0
 70
     0
 70
     0
290
     0
  1

 90
       32
 70
     0
 90
     1048
290
     0
 40
1.0
  0
DICTIONARY
  5
61CB
102
{ACAD_REACTORS
330
C
102
}
330
C
100
AcDbDictionary
281
     1
  3
Hoch
350
61CE
  3
Mittagsqualität
350
61D0
  3
Mittel
350
61CD
  3
Morgenqualität
350
61CF
  3
Nachtqualität
350
61D1
  3
Niedrig
350
61CC
  0
DICTIONARY
  5
1F3A
102
{ACAD_REACTORS
330
C
102
}
330
C
100
AcDbDictionary
281
     1
  3
*A1
350
F64F
  3
*A2
350
F650
  3
*A3
350
F651
  3
*A4
350
F652
  3
*A5
350
F653
  3
*A6
350
F654
  3
*A7
350
F655
  3
*A8
350
F656
  3
A0
350
1F3B
  3
A1
350
BF64
  3
A2
350
BF65
  3
A3
350
BF66
  3
A4
350
BF67
  3
A5
350
BF68
  3
A6
350
BF69
  3
A7
350
BF6A
  3
A8
350
BF6B
  3
A9
350
BF6C
  3
B0
350
2735
  3
B1
350
4F74
  3
B2
350
BF6D
  3
B3
350
BF6E
  3
B4
350
BF6F
  3
B5
350
BF70
  3
B6
350
BF71
  3
B7
350
BF72
  3
B8
350
BF73
  3
B9
350
BF74
  3
C0
350
BF75
  3
C1
350
BF76
  3
C2
350
BF77
  3
C3
350
BF78
  3
C4
350
BF79
  0
DICTIONARY
  5
41D6
102
{ACAD_REACTORS
330
C
102
}
330
C
100
AcDbDictionary
281
     1
  3
Imperial24
350
4E0E
  3
Metric50
350
41D7
  0
DICTIONARY
  5
107E
102
{ACAD_REACTORS
330
C
102
}
330
C
100
AcDbDictionary
281
     1
  3
RK Menü 1
350
3AF4
  3
Standard
350
107F
  0
DICTIONARY
  5
1BD9
102
{ACAD_REACTORS
330
C
102
}
330
C
100
AcDbDictionary
281
     1
  3
2dWireframe
350
1BDF
  3
3D Hidden
350
1BE1
  3
3dWireframe
350
1BE0
  3
Basic
350
1BDE
  3
Brighten
350
1BE5
  3
ColorChange
350
1BE9
  3
Conceptual
350
1BE2
  3
Dim
350
1BE4
  3
EdgeColorOff
350
2595
  3
Facepattern
350
1BE8
  3
Flat
350
1BDA
  3
FlatWithEdges
350
1BDB
  3
Gouraud
350
1BDC
  3
GouraudWithEdges
350
1BDD
  3
Hidden
350
2DD0
  3
JitterOff
350
2593
  3
Linepattern
350
1BE7
  3
OverhangOff
350
2594
  3
Realistic
350
1BE3
  3
Shaded
350
2DD5
  3
Shaded with edges
350
2DD4
  3
Shades of Gray
350
2DD1
  3
Sketchy
350
2DD2
  3
Thicken
350
1BE6
  3
Wireframe
350
2DCF
  3
X-Ray
350
2DD3
  0
DICTIONARY
  5
2D3C
102
{ACAD_REACTORS
330
C
102
}
330
C
100
AcDbDictionary
280
     1
281
     1
  0
XRECORD
  5
10C1E
102
{ACAD_REACTORS
330
C
102
}
330
C
100
AcDbXrecord
280
     1
 90
        1
330
107F
330
3AF4
330
41D7
330
41D9
330
4E0E
330
4E0F
330
DA9D
330
DA9E
330
DA9F
330
DAA2
330
DAC5
330
DAC6
330
DAC7
330
DACA
330
EF3C
330
EF3E
330
EF40
330
EF41
330
EF44
330
EF47
330
EF49
330
EF4B
330
EF4D
330
EF4E
330
EF50
330
EF52
330
EF55
330
EF57
330
EF59
330
EF5A
330
EF5D
330
EF5E
330
EF5F
330
EF60
330
EF61
330
EF62
330
EF64
330
EF65
330
EF66
330
EF67
330
EFE5
330
EFE6
330
EFE7
330
EFE8
330
EFE9
330
EFEC
330
EFEE
330
EFF0
330
EFF2
330
EFF3
330
EFF5
330
EFF7
330
EFFA
330
EFFB
330
EFFC
330
EFFD
330
EFFE
330
EFFF
330
F000
330
F001
330
F002
330
F003
330
F005
330
F006
330
F007
330
F008
  0
DICTIONARY
  5
4A3
102
{ACAD_REACTORS
330
C
102
}
330
C
100
AcDbDictionary
281
     1
  3
CANNOSCALE
350
203F
  3
CMLEADERSTYLE
350
203D
  3
CTABLESTYLE
350
10F5
  3
CVIEWDETAILSTYLE
350
46C1
  3
CVIEWSECTIONSTYLE
350
46C2
  3
DIMASSOC
350
BD8
  3
LAYEREVAL
350
2072
  3
LAYERNOTIFY
350
2073
  3
LIGHTINGUNITS
350
2040
  3
MIRRHATCH
350
31EB
  3
MSLTSCALE
350
203E
  3
SORTENTS
350
4A4
  0
DICTIONARY
  5
28EC
102
{ACAD_REACTORS
330
C
102
}
330
C
100
AcDbDictionary
281
     1
  3
AcStDStyle.AcStDimStyle2
350
28ED
  3
AcStLay.AcStLayer2
350
28EE
  3
AcStLtype.AcStLinetype2
350
28EF
  3
AcStTStyle.AcStTextStyle2
350
28F0
  0
DICTIONARY
  5
FB1
102
{ACAD_REACTORS
330
C
102
}
330
C
100
AcDbDictionary
281
     1
  0
DICTIONARY
  5
DFBE
102
{ACAD_REACTORS
330
C
102
}
330
C
100
AcDbDictionary
281
     1
  3
AEC_ISOLATED_OBJECTS_XRECORD
350
DFBF
  0
DICTIONARY
  5
D05
102
{ACAD_REACTORS
330
C
102
}
330
C
100
AcDbDictionary
281
     1
  0
DICTIONARY
  5
2E1
102
{ACAD_REACTORS
330
C
102
}
330
C
100
AcDbDictionary
281
     1
  0
DICTIONARY
  5
4B0
102
{ACAD_REACTORS
330
C
102
}
330
C
100
AcDbDictionary
281
     1
1001
DRAWINGVARIABLESXDATA
1000
POLARMODE
1000
3
  0
DICTIONARY
  5
2D39
102
{ACAD_REACTORS
330
11DB
102
}
330
11DB
100
AcDbDictionary
281
     1
  0
DICTIONARY
  5
11DC
102
{ACAD_REACTORS
330
11DB
102
}
330
11DB
100
AcDbDictionary
281
     1
  3
Alles Schwarz bzw. Weiss
350
25CB
  3
RK_Standard
350
5214
  3
Standard Farben dunkler Hintergrund
350
25FE
  3
Standard Farben heller Hintergrund
350
25C8
  0
DICTIONARY
  5
2D38
102
{ACAD_REACTORS
330
11DB
102
}
330
11DB
100
AcDbDictionary
281
     1
  3
*A1
350
2D3A
  3
*A2
350
2D3B
1001
ACAD
1000
<All
  0
XRECORD
  5
F01A
102
{ACAD_REACTORS
330
2152
102
}
330
2152
100
AcDbXrecord
280
     1
290
     1
  0
XRECORD
  5
F01B
102
{ACAD_REACTORS
330
C21B
102
}
330
C21B
100
AcDbXrecord
280
     1
290
     1
  0
XRECORD
  5
F01C
102
{ACAD_REACTORS
330
C21D
102
}
330
C21D
100
AcDbXrecord
280
     1
290
     1
  0
XRECORD
  5
F01D
102
{ACAD_REACTORS
330
C221
102
}
330
C221
100
AcDbXrecord
280
     1
290
     1
  0
XRECORD
  5
F01E
102
{ACAD_REACTORS
330
C225
102
}
330
C225
100
AcDbXrecord
280
     1
290
     1
  0
XRECORD
  5
F01F
102
{ACAD_REACTORS
330
C229
102
}
330
C229
100
AcDbXrecord
280
     1
290
     1
  0
XRECORD
  5
BAF1
102
{ACAD_REACTORS
330
BAF0
102
}
330
BAF0
100
AcDbXrecord
280
     1
102
{ADSK_LYR_LINEWT_OVERRIDE
335
AD4
 91
       20
102
}
  0
XRECORD
  5
F020
102
{ACAD_REACTORS
330
BAF0
102
}
330
BAF0
100
AcDbXrecord
280
     1
290
     1
  0
XRECORD
  5
F021
102
{ACAD_REACTORS
330
DB03
102
}
330
DB03
100
AcDbXrecord
280
     1
290
     1
  0
XRECORD
  5
F022
102
{ACAD_REACTORS
330
DB05
102
}
330
DB05
100
AcDbXrecord
280
     1
290
     1
  0
XRECORD
  5
F023
102
{ACAD_REACTORS
330
DB07
102
}
330
DB07
100
AcDbXrecord
280
     1
290
     1
  0
XRECORD
  5
F024
102
{ACAD_REACTORS
330
E2AB
102
}
330
E2AB
100
AcDbXrecord
280
     1
290
     1
  0
XRECORD
  5
2CA1
102
{ACAD_REACTORS
330
2CA0
102
}
330
2CA0
100
AcDbXrecord
280
     1
340
1F3B
  0
XRECORD
  5
2CA3
102
{ACAD_REACTORS
330
2CA0
102
}
330
2CA0
100
AcDbXrecord
280
     1
 96
       -1
 91
        1
 92
        0
 93
        2
 94
        0
 95
        0
 41
0.5
 42
1.0
 43
16885.0
 44
0.0
 45
0.0
 46
0.0
 47
0.0
 48
0.0
 49
0.0
 50
0.0
 51
0.0
 52
0.0
 53
0.0
  0
XRECORD
  5
2CA2
102
{ACAD_REACTORS
330
2CA0
102
}
330
2CA0
100
AcDbXrecord
280
     1
300
<Kein>
292
     0
330
579
294
     0
  0
SORTENTSTABLE
  5
2793
102
{ACAD_REACTORS
330
2792
102
}
330
2792
100
AcDbSortentsTable
330
19
  0
SORTENTSTABLE
  5
BBA0
102
{ACAD_REACTORS
330
BB9F
102
}
330
BB9F
100
AcDbSortentsTable
330
ACD
331
6AB7
  5
6AB7
331
AD4
  5
AD4
331
ADE
  5
ADE
331
ADF
  5
ADF
331
AE0
  5
AE0
  0
DICTIONARY
  5
DAB0
102
{ACAD_REACTORS
330
DAA5
102
}
330
DAA5
100
AcDbDictionary
281
     1
  3
ACAD_ASSOCNETWORK
350
DAB1
  0
ACAD_EVALUATION_GRAPH
  5
DAA6
102
{ACAD_REACTORS
330
DAA5
102
}
330
DAA5
100
AcDbEvalGraph
 96
       18
 97
       18
 91
        0
 93
       32
 95
        5
360
DAA7
 92
       -1
 92
       -1
 92
       -1
 92
       -1
 91
        1
 93
       32
 95
       10
360
DAA8
 92
       -1
 92
       -1
 92
       -1
 92
       -1
 91
        2
 93
       32
 95
       11
360
DAA9
 92
        0
 92
        0
 92
        1
 92
        2
 91
        3
 93
       32
 95
       15
360
DAAA
 92
       -1
 92
       -1
 92
        0
 92
        0
 91
        4
 93
       32
 95
       16
360
DAAB
 92
        1
 92
        1
 92
       -1
 92
       -1
 91
        5
 93
       32
 95
       17
360
DAAC
 92
        2
 92
        2
 92
       -1
 92
       -1
 92
        0
 93
        0
 94
        1
 91
        3
 91
        2
 92
       -1
 92
       -1
 92
       -1
 92
       -1
 92
       -1
 92
        1
 93
        0
 94
        1
 91
        2
 91
        4
 92
       -1
 92
       -1
 92
       -1
 92
        2
 92
       -1
 92
        2
 93
        0
 94
        1
 91
        2
 91
        5
 92
       -1
 92
       -1
 92
        1
 92
       -1
 92
       -1
  0
SORTENTSTABLE
  5
DAB4
102
{ACAD_REACTORS
330
DAA5
102
}
330
DAA5
100
AcDbSortentsTable
330
2CD1
331
DA9B
  5
DA9C
331
DA9C
  5
DA9B
  0
ACDB_DYNAMICBLOCKPURGEPREVENTER_VERSION
  5
DABA
102
{ACAD_REACTORS
330
DAA5
102
}
330
DAA5
100
AcDbDynamicBlockPurgePreventer
 70
     1
  0
ACAD_EVALUATION_GRAPH
  5
EF69
102
{ACAD_REACTORS
330
EF68
102
}
330
EF68
100
AcDbEvalGraph
 96
       20
 97
       20
 91
        0
 93
       32
 95
        1
360
EF6A
 92
        0
 92
        0
 92
        1
 92
        2
 91
        1
 93
       32
 95
        2
360
EF6B
 92
       -1
 92
       -1
 92
        0
 92
        0
 91
        2
 93
       32
 95
        3
360
EF6C
 92
        1
 92
        1
 92
       -1
 92
       -1
 91
        3
 93
       32
 95
        4
360
EF6D
 92
        2
 92
        2
 92
       -1
 92
       -1
 92
        0
 93
        0
 94
        1
 91
        1
 91
        0
 92
       -1
 92
       -1
 92
       -1
 92
       -1
 92
       -1
 92
        1
 93
        0
 94
        1
 91
        0
 91
        2
 92
       -1
 92
       -1
 92
       -1
 92
        2
 92
       -1
 92
        2
 93
        0
 94
        1
 91
        0
 91
        3
 92
       -1
 92
       -1
 92
        1
 92
       -1
 92
       -1
  0
ACDB_DYNAMICBLOCKPURGEPREVENTER_VERSION
  5
EFD0
102
{ACAD_REACTORS
330
EF68
102
}
330
EF68
100
AcDbDynamicBlockPurgePreventer
 70
     1
  0
DICTIONARY
  5
DAD1
102
{ACAD_REACTORS
330
DAD0
102
}
330
DAD0
100
AcDbDictionary
281
     1
  3
ACAD_ASSOCNETWORK
350
DAD2
  0
SORTENTSTABLE
  5
DAD5
102
{ACAD_REACTORS
330
DAD0
102
}
330
DAD0
100
AcDbSortentsTable
330
DABB
331
DAC4
  5
DAC3
331
DAC3
  5
DAC4
  0
XRECORD
  5
10C1A
102
{ACAD_REACTORS
330
EF4F
102
}
330
EF4F
100
AcDbXrecord
280
     1
 40
433192.0
  1
\A1;\pxt4;INFO:\PBatterie und Ablaufventil 1 {\H0.7x;\S1#4;}" sind nicht im Lieferumfang enthalten.
  0
XRECORD
  5
10C1B
102
{ACAD_REACTORS
330
EF63
102
}
330
EF63
100
AcDbXrecord
280
     1
 40
915326.0
  1
\A1;\pxt4;INFO:\P\ptz;{\A0;Batterie et bonde de vidage 1 ¼“ ne sont pas compris dans la livraison}
  0
XRECORD
  5
10C1C
102
{ACAD_REACTORS
330
EFF4
102
}
330
EFF4
100
AcDbXrecord
280
     1
 40
433192.0
  1
\A1;\pxt4;INFO:\PBatterie und Ablaufventil 1 {\H0.7x;\S1#4;}" sind nicht im Lieferumfang enthalten.
  0
XRECORD
  5
10C1D
102
{ACAD_REACTORS
330
F004
102
}
330
F004
100
AcDbXrecord
280
     1
 40
915326.0
  1
\A1;\pxt4;INFO:\P\ptz;{\A0;Batterie et bonde de vidage 1 ¼“ ne sont pas compris dans la livraison}
  0
DIMASSOC
  5
10BA3
102
{ACAD_REACTORS
330
10B9D
102
}
330
10B9D
100
AcDbDimAssoc
330
10B94
 90
        2
 70
     0
 71
     0
  1
AcDbOsnapPointRef
 72
     3
331
104A4
 73
     2
 91
        0
 40
0.0
 10
0.0
 20
0.0
 30
0.0
 75
     0
  0
DIMASSOC
  5
10BBB
102
{ACAD_REACTORS
330
10BB1
102
}
330
10BB1
100
AcDbDimAssoc
330
10BA4
 90
        3
 70
     0
 71
     0
  1
AcDbOsnapPointRef
 72
    13
331
104DF
 73
     2
 91
        0
 40
1.570796326794896
 10
0.0
 20
0.0
 30
2.000000000000000E+50
 75
     0
  1
AcDbOsnapPointRef
 72
     1
331
104E5
 73
     2
 91
        0
 40
4.712388980384689
 10
0.0
 20
0.0
 30
2.000000000000000E+50
 75
     0
  0
DIMASSOC
  5
10BD3
102
{ACAD_REACTORS
330
10BC9
102
}
330
10BC9
100
AcDbDimAssoc
330
10BBC
 90
        3
 70
     0
 71
     0
  1
AcDbOsnapPointRef
 72
    13
331
104E0
 73
     2
 91
        0
 40
1.570796326794896
 10
0.0
 20
0.0
 30
2.000000000000000E+50
 75
     0
  1
AcDbOsnapPointRef
 72
     1
331
104E6
 73
     2
 91
        0
 40
4.712388980384689
 10
0.0
 20
0.0
 30
2.000000000000000E+50
 75
     0
  0
DIMASSOC
  5
10C01
102
{ACAD_REACTORS
330
10BF5
102
}
330
10BF5
100
AcDbDimAssoc
330
10BE6
 90
        3
 70
     0
 71
     0
  1
AcDbOsnapPointRef
 72
    13
331
104ED
 73
     2
 91
        0
 40
0.0
 10
0.0
 20
0.0
 30
2.000000000000000E+50
 75
     0
  1
AcDbOsnapPointRef
 72
     1
331
104EE
 73
     2
 91
        0
 40
1.0
 10
0.0
 20
0.0
 30
2.000000000000000E+50
 75
     0
  0
XRECORD
  5
278D
102
{ACAD_REACTORS
330
278C
102
}
330
278C
100
AcDbXrecord
280
     1
 90
        1
340
BF66
  0
DICTIONARY
  5
6AB9
102
{ACAD_REACTORS
330
6AB8
102
}
330
6AB8
100
AcDbDictionary
280
     1
281
     1
  3
AcDbRepData
360
6ABA
  3
AppDataCache
360
AFD3
  0
DICTIONARY
  5
E107
102
{ACAD_REACTORS
330
E106
102
}
330
E106
100
AcDbDictionary
280
     1
281
     1
  3
AcDbRepData
360
E108
  3
AppDataCache
360
E109
  0
ACDBASSOCNETWORK
  5
AEF6
102
{ACAD_REACTORS
330
AEF5
102
}
330
AEF5
100
AcDbAssocAction
 90
        2
 90
        0
330
0
360
0
 90
        0
 90
        0
 90
        0
 90
        0
 90
        0
 90
        0
 90
        0
100
AcDbAssocNetwork
 90
        0
 90
       89
 90
        2
330
DAB1
330
DAD2
 90
        0
  0
ACDBDETAILVIEWSTYLE
  5
4E0F
102
{ACAD_XDICTIONARY
360
EDFB
102
}
102
{ACAD_REACTORS
330
41D8
102
}
330
41D8
100
AcDbModelDocViewStyle
 70
     0
  3
Imperial24
290
     0
100
AcDbDetailViewStyle
 70
     0
 71
     0
 90
        3
 71
     1
340
10
 62
   256
 40
0.24
340
0
 62
   256
 40
0.24
300

 40
0.36
280
     3
 71
     2
340
15
 90
       25
 62
   256
 71
     3
340
10
 62
   256
 40
0.24
 90
        1
 40
0.75
 90
        1
300
%<\AcVar ViewType \f "%tc1">% %<\AcVar ViewDetailId>%\PVARIA %<\AcVar ViewScale \f "%sn">%
 71
     4
340
15
 90
       25
 62
   256
340
15
 90
       25
 62
   256
280
     0
  0
ACDBDETAILVIEWSTYLE
  5
41D9
102
{ACAD_XDICTIONARY
360
EDF7
102
}
102
{ACAD_REACTORS
330
41D8
102
}
330
41D8
100
AcDbModelDocViewStyle
 70
     0
  3
Metric50
290
     0
100
AcDbDetailViewStyle
 70
     0
 71
     0
 90
        3
 71
     1
340
10
 62
   256
 40
5.0
340
0
 62
   256
 40
5.0
300

 40
0.0
280
     1
 71
     2
340
15
 90
       25
 62
   256
 71
     3
340
10
 62
   256
 40
5.0
 90
        0
 40
15.0
 90
        1
300
%<\AcVar ViewDetailId>% (%<\AcVar ViewScale \f "%sn">%)
 71
     4
340
15
 90
       25
 62
   256
340
15
 90
       25
 62
   256
280
     0
  0
IMAGEDEF
  5
BF5B
102
{ACAD_REACTORS
330
7320
102
}
330
7320
100
AcDbRasterImageDef
 90
        0
  1
C:\Dokumente und Einstellungen\b.zirkel\Desktop\Pfeiffer Logo.jpg
 10
1181.0
 20
390.0
 11
0.0846666666666667
 21
0.0846666666666667
280
     1
281
     5
  0
IMAGEDEF
  5
7323
102
{ACAD_REACTORS
330
7320
102
}
330
7320
100
AcDbRasterImageDef
 90
        0
  1
J:\Studer\studer_logo_kleinCMYK.jpg
 10
1757.0
 20
250.0
 11
0.0127
 21
0.0127
280
     1
281
     5
  0
IMAGEDEF
  5
D790
102
{ACAD_REACTORS
330
7320
330
DAA4
330
DACC
102
}
330
7320
100
AcDbRasterImageDef
 90
        0
  1
N:\Administration\Vorlagen\Logo\studer_logo_kleinCMYK.jpg
 10
1757.0
 20
250.0
 11
0.0127
 21
0.0127
280
     1
281
     5
  0
LAYOUT
  5
ACE
102
{ACAD_XDICTIONARY
360
121F
102
}
102
{ACAD_REACTORS
330
577
102
}
330
577
100
AcDbPlotSettings
  1

  2
DWG To PDF.pc3
  4
ISO_full_bleed_A4_(210.00_x_297.00_MM)
  6

 40
0.7937499880790711
 41
0.7937499880790711
 42
0.7937469482421875
 43
0.79376220703125
 44
210.0
 45
297.0
 46
4.195304543915767
 47
4.197534471954497
 48
-286.0
 49
-0.9999999999999982
140
1.0
141
199.0
142
1.0
143
1.0
 70
   692
 72
     1
 73
     1
 74
     1
  7
_RK alles FEIN und SCHWARZ.ctb
 75
    16
147
1.0
 76
     1
 77
     2
 78
   300
148
286.0131512494792
149
1.008825857977228
100
AcDbLayout
  1
A4-quer
 70
     1
 71
     1
 10
-291.0044479284649
 20
-5.997880389972067
 11
5.995552071535087
 21
204.0021196100279
 12
0.0
 22
0.0
 32
0.0
 14
-286.0
 24
-1.0
 34
0.0
 15
1.0
 25
199.0
 35
0.0
146
0.0
 13
0.0
 23
0.0
 33
0.0
 16
1.0
 26
0.0
 36
0.0
 17
0.0
 27
1.0
 37
0.0
 76
     0
330
ACD
331
AD4
1001
ACAD_PSEXT
1000
DWG To PDF.pc3
1000
DWG To PDF
1000
Datei
1000

1070
     0
  0
LAYOUT
  5
579
102
{ACAD_XDICTIONARY
360
25D9
102
}
102
{ACAD_REACTORS
330
577
102
}
330
577
100
AcDbPlotSettings
  1

  2
DWG To PDF.pc3
  4
UserDefinedMetric (420.00 x 297.00mm)
  6

 40
0.0
 41
0.0
 42
0.0
 43
0.0
 44
420.0
 45
297.0
 46
0.0
 47
13.21090216858189
 48
0.0
 49
0.0
140
0.0
141
0.0
142
1.0
143
13.19470541022789
 70
 11956
 72
     1
 73
     0
 74
     1
  7
_RK alles FEIN und SCHWARZ.ctb
 75
     0
147
0.0757879747148314
 76
     0
 77
     2
 78
   300
148
-1091.159536232193
149
-507.3870993817527
100
AcDbLayout
  1
Model
 70
     1
 71
     0
 10
0.0
 20
0.0
 11
12.0
 21
9.0
 12
0.0
 22
0.0
 32
0.0
 14
0.0
 24
0.0
 34
0.0
 15
0.0
 25
0.0
 35
0.0
146
0.0
 13
0.0
 23
0.0
 33
0.0
 16
1.0
 26
0.0
 36
0.0
 17
0.0
 27
1.0
 37
0.0
 76
     0
330
19
331
1BD4
1001
ACAD_PSEXT
1000
DWG To PDF.pc3
1000
DWG To PDF
1000
Datei
1000
Robert Koch CAD-Support v6
1070
     0
  0
MATERIAL
  5
1BD7
102
{ACAD_REACTORS
330
EC2
102
}
330
EC2
100
AcDbMaterial
  1
ByBlock
 73
     1
 78
     1
172
     1
176
     1
270
     1
274
     1
 94
       63
  0
MATERIAL
  5
1BD6
102
{ACAD_REACTORS
330
EC2
102
}
330
EC2
100
AcDbMaterial
  1
ByLayer
 73
     1
 78
     1
172
     1
176
     1
270
     1
274
     1
 94
       63
  0
MATERIAL
  5
1BD8
102
{ACAD_XDICTIONARY
360
6059
102
}
102
{ACAD_REACTORS
330
EC2
102
}
330
EC2
100
AcDbMaterial
  1
Global
 73
     1
 78
     1
172
     1
176
     1
270
     1
274
     1
 94
       63
  0
MLEADERSTYLE
  5
1F5D
102
{ACAD_REACTORS
330
1F5C
102
}
330
1F5C
100
AcDbMLeaderStyle
179
     2
170
     2
171
     1
172
     0
 90
        2
 40
0.0
 41
0.0
173
     2
 91
-1056964608
340
13
 92
       -2
290
     1
 42
2.0
291
     1
 43
0.36
  3
Standard
 44
4.0
300

342
2836
174
     1
178
     1
175
     1
176
     0
 93
-1056964608
 45
2.5
292
     0
297
     0
 46
4.0
 94
-1056964608
 47
1.0
 49
1.0
140
1.0
293
     1
141
0.0
294
     1
177
     0
142
1.0
295
     0
296
     0
143
0.125
271
     0
272
     9
273
     9
298
     0
  0
MLINESTYLE
  5
1C
102
{ACAD_REACTORS
330
E
102
}
330
E
100
AcDbMlineStyle
  2
STANDARD
 70
     0
  3

 62
     0
 51
90.0
 52
90.0
 71
     2
 49
0.5
 62
   256
  6
BYLAYER
 49
-0.5
 62
   256
  6
BYLAYER
  0
PLOTSETTINGS
  5
2129
102
{ACAD_REACTORS
330
578
102
}
330
578
100
AcDbPlotSettings
  1
A3 Hoch
  2
none_device
  4
ISO_A3_(420.00_x_297.00_MM)
  6

 40
7.5
 41
20.0
 42
7.5
 43
20.0
 44
420.0
 45
297.0
 46
2.484741222561297
 47
-10.01631163388526
 48
0.0
 49
0.0
140
0.0
141
0.0
142
1.0
143
1.0
 70
  2740
 72
     1
 73
     1
 74
     1
  7
_RK Farben 1-15schwarz.ctb
 75
    16
147
1.0
 76
     1
 77
     2
 78
   300
148
277.0128587043421
149
0.0203035521524271
1001
ACAD_PSEXT
1000
Kein
1000
Kein
1000
Nicht anwendbar
1000
Das Layout wird erst geplottet, wenn ein neuer Plotter-Konfigurationsname ausgewählt wird.
1070
     0
  0
PLOTSETTINGS
  5
2118
102
{ACAD_REACTORS
330
578
102
}
330
578
100
AcDbPlotSettings
  1
A3 Quer
  2
none_device
  4
ISO_A3_(420.00_x_297.00_MM)
  6

 40
7.5
 41
20.0
 42
7.5
 43
20.0
 44
420.0
 45
297.0
 46
2.484741222561297
 47
-10.01631163388526
 48
0.0
 49
0.0
140
0.0
141
0.0
142
1.0
143
1.0
 70
  2740
 72
     1
 73
     0
 74
     1
  7
_RK Farben 1-15schwarz.ctb
 75
    16
147
1.0
 76
     0
 77
     2
 78
   300
148
400.0076257400169
149
0.0163891116184232
1001
ACAD_PSEXT
1000
Kein
1000
Kein
1000
Nicht anwendbar
1000
Das Layout wird erst geplottet, wenn ein neuer Plotter-Konfigurationsname ausgewählt wird.
1070
     0
  0
PLOTSETTINGS
  5
20F6
102
{ACAD_REACTORS
330
578
102
}
330
578
100
AcDbPlotSettings
  1
A4 Hoch
  2
DWG To PDF.pc3
  4
UserDefinedMetric (210.00 x 297.00mm)
  6

 40
0.0
 41
0.0
 42
0.0
 43
0.0
 44
210.0
 45
297.0
 46
4.997790340424927
 47
4.995621796741289
 48
8.0
 49
6.0
140
203.0
141
288.0
142
1.0
143
1.0
 70
  2724
 72
     1
 73
     0
 74
     1
  7
_RK Monochrom.ctb
 75
    16
147
0.9999999999999998
 76
     0
 77
     2
 78
   300
148
199.003495009679
149
1.004376198464456
1001
ACAD_PSEXT
1000
DWG To PDF.pc3
1000
DWG To PDF
1000
Datei
1000
Robert Koch CAD-Support v6
1070
     0
  0
PLOTSETTINGS
  5
2107
102
{ACAD_REACTORS
330
578
102
}
330
578
100
AcDbPlotSettings
  1
A4 Quer
  2
none_device
  4
ISO_A4_(210.00_x_297.00_MM)
  6

 40
7.5
 41
20.0
 42
7.5
 43
20.0
 44
210.0
 45
297.0
 46
-0.5049133219347937
 47
-7.512458786732167
 48
8.0
 49
6.0
140
203.0
141
288.0
142
1.0
143
1.0
 70
  2740
 72
     1
 73
     1
 74
     1
  7
_RK Farben 1-15schwarz.ctb
 75
    16
147
1.0
 76
     1
 77
     2
 78
   300
148
271.0214858822596
149
1.005173594744405
1001
ACAD_PSEXT
1000
Kein
1000
Kein
1000
Nicht anwendbar
1000
Das Layout wird erst geplottet, wenn ein neuer Plotter-Konfigurationsname ausgewählt wird.
1070
     0
  0
PLOTSETTINGS
  5
A2B5
102
{ACAD_REACTORS
330
578
102
}
330
578
100
AcDbPlotSettings
  1
A4 quer Studer PDF
  2
DWG To PDF.pc3
  4
ISO_full_bleed_A4_(210.00_x_297.00_MM)
  6

 40
0.7937499880790711
 41
0.7937499880790711
 42
0.7937469482421875
 43
0.79376220703125
 44
210.0
 45
297.0
 46
4.195304543915767
 47
4.197534471954497
 48
-286.0
 49
-0.9999999999999982
140
1.0
141
199.0
142
1.0
143
1.0
 70
  2740
 72
     1
 73
     1
 74
     1
  7
_RK Farben 1-15schwarz.ctb
 75
    16
147
1.0
 76
     1
 77
     2
 78
   300
148
286.0101864248406
149
1.010953413180118
1001
ACAD_PSEXT
1000
DWG To PDF.pc3
1000
DWG To PDF
1000
Datei
1000

1070
     0
  0
PLOTSETTINGS
  5
21AF
102
{ACAD_REACTORS
330
578
102
}
330
578
100
AcDbPlotSettings
  1
Modell Grenzen
  2
none_device
  4
ISO_A4_(297.00_x_210.00_MM)
  6

 40
7.5
 41
20.0
 42
7.5
 43
20.0
 44
297.0
 45
210.0
 46
0.0
 47
5.593928693561011
 48
0.0
 49
0.0
140
0.0
141
0.0
142
1.0
143
34.40012560355993
 70
 11956
 72
     1
 73
     0
 74
     1
  7
_RK Monochrom.ctb
 75
     0
147
0.0290696613007865
 76
     0
 77
     2
 78
   300
148
29.13007688839935
149
-259.9475238983832
1001
ACAD_PSEXT
1000
Kein
1000
Kein
1000
Nicht anwendbar
1000
Das Layout wird erst geplottet, wenn ein neuer Plotter-Konfigurationsname ausgewählt wird.
1070
     0
  0
PLOTSETTINGS
  5
23F8
102
{ACAD_REACTORS
330
578
102
}
330
578
100
AcDbPlotSettings
  1
OPO_JPG_hoch
  2
OPO_JPG.pc3
  4
UserDefinedRaster (1218.00 x 1576.00Pixels)
  6

 40
0.0
 41
0.0
 42
1.0
 43
1.0
 44
768.0
 45
1024.0
 46
0.0
 47
325.6572487272748
 48
0.0
 49
0.0
140
0.0
141
0.0
142
1.0
143
0.1578896729938277
 70
 28340
 72
     2
 73
     0
 74
     1
  7
OPO_JPG.ctb
 75
     0
147
6.333536456428613
 76
     1
 77
     2
 78
   300
148
107.4371330410208
149
16.70837316977361
1001
ACAD_PSEXT
1000
OPO_JPG.pc3
1000
Independent JPEG Group JFIF (JPEG Compression)
1000
Datei
1000
erstellt JPG Vorschaubilder fuer OPO-2007
1070
     0
  0
PLOTSETTINGS
  5
23F9
102
{ACAD_REACTORS
330
578
102
}
330
578
100
AcDbPlotSettings
  1
OPO_JPG_quer
  2
OPO_JPG.pc3
  4
UserDefinedRaster (1576.00 x 1218.00Pixels)
  6

 40
0.0
 41
0.0
 42
1.0
 43
1.0
 44
1024.0
 45
768.0
 46
0.0
 47
135.6288988891814
 48
0.0
 49
0.0
140
0.0
141
0.0
142
1.0
143
0.118378669781296
 70
 28340
 72
     2
 73
     0
 74
     1
  7
OPO_JPG.ctb
 75
     0
147
8.4474677899954
 76
     1
 77
     2
 78
   300
148
107.4371330410208
149
16.70837316977361
1001
ACAD_PSEXT
1000
OPO_JPG.pc3
1000
Independent JPEG Group JFIF (JPEG Compression)
1000
Datei
1000
erstellt JPG Vorschaubilder fuer OPO-2007
1070
     0
  0
PLOTSETTINGS
  5
61DB
102
{ACAD_REACTORS
330
578
102
}
330
578
100
AcDbPlotSettings
  1
PDF A0-hoch
  2
DWG To PDF.pc3
  4
ISO_A0_(841.00_x_1189.00_MM)
  6

 40
0.0
 41
0.0
 42
0.0
 43
0.0
 44
841.0
 45
1189.0
 46
0.0000000000000568
 47
0.0
 48
-830.9999999999998
 49
-10.0
140
10.0
141
1179.0
142
1.0
143
1.0
 70
  2740
 72
     1
 73
     0
 74
     4
  7
_RK Farben 1-15schwarz.ctb
 75
    16
147
1.0
 76
     0
 77
     2
 78
   300
148
830.9999999999998
149
10.0
1001
ACAD_PSEXT
1000
DWG To PDF.pc3
1000
DWG To PDF
1000
Datei
1000
Robert Koch CAD-Support v6
1070
     0
  0
PLOTSETTINGS
  5
2E8C
102
{ACAD_REACTORS
330
578
102
}
330
578
100
AcDbPlotSettings
  1
PDF A0-quer
  2
DWG To PDF.pc3
  4
ISO_A0_(841.00_x_1189.00_MM)
  6

 40
0.0
 41
0.0
 42
0.0
 43
0.0
 44
841.0
 45
1189.0
 46
-0.0516714487788477
 47
-0.0386240174575505
 48
-1169.0
 49
0.0
140
0.0
141
820.9999999999999
142
1.0
143
1.0
 70
  2740
 72
     1
 73
     1
 74
     1
  7
_RK Farben 1-15schwarz.ctb
 75
    16
147
1.0
 76
     0
 77
     2
 78
   300
148
1179.072568871428
149
10.05200680685607
1001
ACAD_PSEXT
1000
DWG To PDF.pc3
1000
DWG To PDF
1000
Datei
1000

1070
     0
  0
PLOTSETTINGS
  5
62B8
102
{ACAD_REACTORS
330
578
102
}
330
578
100
AcDbPlotSettings
  1
PDF A1-hoch
  2
DWG To PDF.pc3
  4
UserDefinedMetric (841.00 x 594.00mm)
  6

 40
0.0
 41
0.0
 42
0.0
 43
0.0
 44
841.0
 45
594.0
 46
0.0
 47
0.0
 48
-584.0
 49
-10.0
140
10.0
141
831.0
142
1.0
143
1.0
 70
  2740
 72
     1
 73
     1
 74
     4
  7
_RK Farben 1-15schwarz.ctb
 75
    16
147
1.0
 76
     1
 77
     2
 78
   300
148
584.0
149
10.0
1001
ACAD_PSEXT
1000
DWG To PDF.pc3
1000
DWG To PDF
1000
Datei
1000
Robert Koch CAD-Support v6
1070
     0
  0
PLOTSETTINGS
  5
2E74
102
{ACAD_REACTORS
330
578
102
}
330
578
100
AcDbPlotSettings
  1
PDF A1-quer
  2
DWG To PDF.pc3
  4
ISO_A1_(841.00_x_594.00_MM)
  6

 40
0.0
 41
0.0
 42
0.0
 43
0.0
 44
841.0
 45
594.0
 46
-0.0537793386766907
 47
-0.0363285312687367
 48
-821.0
 49
0.0
140
0.0
141
574.0
142
1.0
143
1.0
 70
  2740
 72
     1
 73
     0
 74
     1
  7
_RK Farben 1-15schwarz.ctb
 75
    16
147
1.0
 76
     0
 77
     2
 78
   300
148
831.0562223293457
149
10.03639829830399
1001
ACAD_PSEXT
1000
DWG To PDF.pc3
1000
DWG To PDF
1000
Datei
1000

1070
     0
  0
PLOTSETTINGS
  5
649D
102
{ACAD_REACTORS
330
578
102
}
330
578
100
AcDbPlotSettings
  1
PDF A2-hoch
  2
DWG To PDF.pc3
  4
UserDefinedMetric (594.00 x 420.00mm)
  6

 40
0.0
 41
0.0
 42
0.0
 43
0.0
 44
594.0
 45
420.0
 46
0.0
 47
0.0
 48
-410.0
 49
-10.0
140
10.0
141
584.0
142
1.0
143
1.0
 70
  2740
 72
     1
 73
     1
 74
     4
  7
_RK Farben 1-15schwarz.ctb
 75
    16
147
1.0
 76
     1
 77
     2
 78
   300
148
410.0
149
10.0
1001
ACAD_PSEXT
1000
DWG To PDF.pc3
1000
DWG To PDF
1000
Datei
1000
Robert Koch CAD-Support v6
1070
     0
  0
PLOTSETTINGS
  5
2E5C
102
{ACAD_REACTORS
330
578
102
}
330
578
100
AcDbPlotSettings
  1
PDF A2-quer
  2
DWG To PDF.pc3
  4
ISO_A2_(594.00_x_420.00_MM)
  6

 40
0.0
 41
0.0
 42
0.0
 43
0.0
 44
594.0
 45
420.0
 46
10.0
 47
10.0
 48
-574.0
 49
0.0
140
0.0
141
400.0
142
1.0
143
1.0
 70
  2740
 72
     1
 73
     0
 74
     4
  7
_RK Farben 1-15schwarz.ctb
 75
    16
147
1.0
 76
     0
 77
     2
 78
   300
148
574.0
149
0.0
1001
ACAD_PSEXT
1000
DWG To PDF.pc3
1000
DWG To PDF
1000
Datei
1000

1070
     0
  0
PLOTSETTINGS
  5
2E2C
102
{ACAD_REACTORS
330
578
102
}
330
578
100
AcDbPlotSettings
  1
PDF A3-hoch
  2
DWG To PDF.pc3
  4
UserDefinedMetric (420.00 x 297.00mm)
  6

 40
0.0
 41
0.0
 42
0.0
 43
0.0
 44
420.0
 45
297.0
 46
5.0
 47
5.0
 48
-287.0
 49
0.0
140
0.0
141
410.0
142
1.0
143
1.0
 70
  2740
 72
     1
 73
     1
 74
     4
  7
_RK Farben 1-15schwarz.ctb
 75
    16
147
1.0
 76
     1
 77
     2
 78
   300
148
287.0
149
0.0
1001
ACAD_PSEXT
1000
DWG To PDF.pc3
1000
DWG To PDF
1000
Datei
1000
Robert Koch CAD-Support v6
1070
     0
  0
PLOTSETTINGS
  5
2E44
102
{ACAD_REACTORS
330
578
102
}
330
578
100
AcDbPlotSettings
  1
PDF A3-quer
  2
DWG To PDF.pc3
  4
UserDefinedMetric (420.00 x 297.00mm)
  6

 40
0.0
 41
0.0
 42
0.0
 43
0.0
 44
420.0
 45
297.0
 46
5.0
 47
5.0
 48
-410.0
 49
0.0
140
0.0
141
287.0
142
1.0
143
1.0
 70
  2740
 72
     1
 73
     0
 74
     4
  7
_RK Farben 1-15schwarz.ctb
 75
    16
147
1.0
 76
     0
 77
     2
 78
   300
148
410.0
149
0.0
1001
ACAD_PSEXT
1000
DWG To PDF.pc3
1000
DWG To PDF
1000
Datei
1000
Robert Koch CAD-Support v6
1070
     0
  0
PLOTSETTINGS
  5
2DF9
102
{ACAD_REACTORS
330
578
102
}
330
578
100
AcDbPlotSettings
  1
PDF A4-hoch
  2
DWG To PDF.pc3
  4
UserDefinedMetric (210.00 x 297.00mm)
  6

 40
0.0
 41
0.0
 42
0.0
 43
0.0
 44
210.0
 45
297.0
 46
4.97336977637704
 47
4.98248237555677
 48
-195.0
 49
-1.000000000000007
140
1.0
141
271.0
142
1.0
143
1.0
 70
  2724
 72
     1
 73
     0
 74
     1
  7
_RK Farben 1-15schwarz.ctb
 75
    16
147
0.9999999999999998
 76
     0
 77
     2
 78
   300
148
199.0279160395121
149
1.017516287954549
1001
ACAD_PSEXT
1000
DWG To PDF.pc3
1000
DWG To PDF
1000
Datei
1000
Robert Koch CAD-Support v6
1070
     0
  0
PLOTSETTINGS
  5
2E0E
102
{ACAD_REACTORS
330
578
102
}
330
578
100
AcDbPlotSettings
  1
PDF A4-quer
  2
DWG To PDF.pc3
  4
UserDefinedMetric (210.00 x 297.00mm)
  6

 40
0.0
 41
0.0
 42
0.0
 43
0.0
 44
210.0
 45
297.0
 46
5.000000000000028
 47
5.000000000000028
 48
-286.0
 49
-0.9999999999999982
140
1.0
141
199.0
142
1.0
143
1.0
 70
  2724
 72
     1
 73
     1
 74
     4
  7
_RK Monochrom.ctb
 75
    16
147
0.9999999999999998
 76
     0
 77
     2
 78
   300
148
286.0
149
0.9999999999999982
1001
ACAD_PSEXT
1000
DWG To PDF.pc3
1000
DWG To PDF
1000
Datei
1000
Robert Koch CAD-Support v6
1070
     0
  0
ACDBPLACEHOLDER
  5
576
102
{ACAD_REACTORS
330
575
102
}
330
575
  0
DICTIONARY
  5
EDFE
330
EDFD
100
AcDbDictionary
280
     1
281
     1
  3
ACAD_XREC_ROUNDTRIP
360
EE00
  3
ADSK_XREC_MENTALRAYSETTINGSINFO
360
EDFF
  0
RAPIDRTRENDERSETTINGS
  5
61CE
102
{ACAD_REACTORS
330
61CB
102
}
330
61CB
100
AcDbRenderSettings
 90
        2
  1
Hoch
290
     1
290
     0
290
     1
290
     1
  1

  1
Wendet 10 Render-Ebenen an
 90
        2
100
AcDbRapidRTRenderSettings
 90
        3
 70
     0
 90
       10
 90
        1
 70
     2
 70
     2
 40
3.0
 40
3.0
290
     1
  0
RAPIDRTRENDERSETTINGS
  5
61D0
102
{ACAD_REACTORS
330
61CB
102
}
330
61CB
100
AcDbRenderSettings
 90
        2
  1
Mittagsqualität
290
     1
290
     0
290
     1
290
     1
  1

  1
Rendert für 60 Minuten
 90
        4
100
AcDbRapidRTRenderSettings
 90
        3
 70
     1
 90
        1
 90
       60
 70
     2
 70
     2
 40
3.0
 40
3.0
290
     1
  0
RAPIDRTRENDERSETTINGS
  5
61CD
102
{ACAD_REACTORS
330
61CB
102
}
330
61CB
100
AcDbRenderSettings
 90
        2
  1
Mittel
290
     1
290
     0
290
     1
290
     1
  1

  1
Wendet 5 Render-Ebenen an
 90
        1
100
AcDbRapidRTRenderSettings
 90
        3
 70
     0
 90
        5
 90
        1
 70
     1
 70
     2
 40
3.0
 40
3.0
290
     1
  0
RAPIDRTRENDERSETTINGS
  5
61CF
102
{ACAD_REACTORS
330
61CB
102
}
330
61CB
100
AcDbRenderSettings
 90
        2
  1
Morgenqualität
290
     1
290
     0
290
     1
290
     1
  1

  1
Rendert für 10 Minuten
 90
        3
100
AcDbRapidRTRenderSettings
 90
        3
 70
     1
 90
        1
 90
       10
 70
     1
 70
     2
 40
3.0
 40
3.0
290
     1
  0
RAPIDRTRENDERSETTINGS
  5
61D1
102
{ACAD_REACTORS
330
61CB
102
}
330
61CB
100
AcDbRenderSettings
 90
        2
  1
Nachtqualität
290
     1
290
     0
290
     1
290
     1
  1

  1
Rendert für 12 Stunden
 90
        5
100
AcDbRapidRTRenderSettings
 90
        3
 70
     1
 90
        1
 90
      720
 70
     2
 70
     2
 40
3.0
 40
3.0
290
     1
  0
RAPIDRTRENDERSETTINGS
  5
61CC
102
{ACAD_REACTORS
330
61CB
102
}
330
61CB
100
AcDbRenderSettings
 90
        2
  1
Niedrig
290
     1
290
     0
290
     1
290
     1
  1

  1
Wendet 1 Render-Ebene an
 90
        0
100
AcDbRapidRTRenderSettings
 90
        3
 70
     0
 90
        1
 90
        1
 70
     0
 70
     2
 40
3.0
 40
3.0
290
     1
  0
SCALE
  5
F64F
102
{ACAD_REACTORS
330
1F3A
102
}
330
1F3A
100
AcDbScale
 70
     0
300
1:1_Ebene1
140
1.0
141
1.000999999999999
290
     0
  0
SCALE
  5
F650
102
{ACAD_REACTORS
330
1F3A
102
}
330
1F3A
100
AcDbScale
 70
     0
300
1:1_Ebene2
140
1.0
141
1.002
290
     0
  0
SCALE
  5
F651
102
{ACAD_REACTORS
330
1F3A
102
}
330
1F3A
100
AcDbScale
 70
     0
300
1:1_Ebene3
140
1.0
141
1.002999999999999
290
     0
  0
SCALE
  5
F652
102
{ACAD_REACTORS
330
1F3A
102
}
330
1F3A
100
AcDbScale
 70
     0
300
1:1_Ebene4
140
1.0
141
1.004
290
     0
  0
SCALE
  5
F653
102
{ACAD_REACTORS
330
1F3A
102
}
330
1F3A
100
AcDbScale
 70
     0
300
1:1_Ebene5
140
1.0
141
1.004999999999999
290
     0
  0
SCALE
  5
F654
102
{ACAD_REACTORS
330
1F3A
102
}
330
1F3A
100
AcDbScale
 70
     0
300
1:20_V3_ELEKTRO
140
1.0
141
20.011
290
     0
  0
SCALE
  5
F655
102
{ACAD_REACTORS
330
1F3A
102
}
330
1F3A
100
AcDbScale
 70
     0
300
1:20_V3_LÜFTUNG
140
1.0
141
20.012
290
     0
  0
SCALE
  5
F656
102
{ACAD_REACTORS
330
1F3A
102
}
330
1F3A
100
AcDbScale
 70
     0
300
1:20_V3_SANITÄR
140
1.0
141
20.013
290
     0
  0
SCALE
  5
1F3B
102
{ACAD_REACTORS
330
1F3A
102
}
330
1F3A
100
AcDbScale
 70
     0
300
1:1
140
1.0
141
1.0
290
     1
  0
SCALE
  5
BF64
102
{ACAD_REACTORS
330
1F3A
102
}
330
1F3A
100
AcDbScale
 70
     0
300
1:8
140
1.0
141
8.0
290
     0
  0
SCALE
  5
BF65
102
{ACAD_REACTORS
330
1F3A
102
}
330
1F3A
100
AcDbScale
 70
     0
300
1:2
140
1.0
141
2.0
290
     0
  0
SCALE
  5
BF66
102
{ACAD_REACTORS
330
1F3A
102
}
330
1F3A
100
AcDbScale
 70
     0
300
1:5
140
1.0
141
5.0
290
     0
  0
SCALE
  5
BF67
102
{ACAD_REACTORS
330
1F3A
102
}
330
1F3A
100
AcDbScale
 70
     0
300
1:10
140
1.0
141
10.0
290
     0
  0
SCALE
  5
BF68
102
{ACAD_REACTORS
330
1F3A
102
}
330
1F3A
100
AcDbScale
 70
     0
300
1:10_Ebene1
140
1.0
141
10.001
290
     0
  0
SCALE
  5
BF69
102
{ACAD_REACTORS
330
1F3A
102
}
330
1F3A
100
AcDbScale
 70
     0
300
1:10_Ebene2
140
1.0
141
10.002
290
     0
  0
SCALE
  5
BF6A
102
{ACAD_REACTORS
330
1F3A
102
}
330
1F3A
100
AcDbScale
 70
     0
300
1:10_Ebene3
140
1.0
141
10.003
290
     0
  0
SCALE
  5
BF6B
102
{ACAD_REACTORS
330
1F3A
102
}
330
1F3A
100
AcDbScale
 70
     0
300
1:10_Ebene4
140
1.0
141
10.004
290
     0
  0
SCALE
  5
BF6C
102
{ACAD_REACTORS
330
1F3A
102
}
330
1F3A
100
AcDbScale
 70
     0
300
1:10_Ebene5
140
1.0
141
10.005
290
     0
  0
SCALE
  5
2735
102
{ACAD_REACTORS
330
1F3A
102
}
330
1F3A
100
AcDbScale
 70
     0
300
1:15
140
1.0
141
15.0
290
     0
  0
SCALE
  5
4F74
102
{ACAD_REACTORS
330
1F3A
102
}
330
1F3A
100
AcDbScale
 70
     0
300
1:20
140
1.0
141
20.0
290
     0
  0
SCALE
  5
BF6D
102
{ACAD_REACTORS
330
1F3A
102
}
330
1F3A
100
AcDbScale
 70
     0
300
1:20_Ebene1
140
1.0
141
20.001
290
     0
  0
SCALE
  5
BF6E
102
{ACAD_REACTORS
330
1F3A
102
}
330
1F3A
100
AcDbScale
 70
     0
300
1:20_Ebene2
140
1.0
141
20.002
290
     0
  0
SCALE
  5
BF6F
102
{ACAD_REACTORS
330
1F3A
102
}
330
1F3A
100
AcDbScale
 70
     0
300
1:20_Ebene3
140
1.0
141
20.003
290
     0
  0
SCALE
  5
BF70
102
{ACAD_REACTORS
330
1F3A
102
}
330
1F3A
100
AcDbScale
 70
     0
300
1:20_Ebene4
140
1.0
141
20.004
290
     0
  0
SCALE
  5
BF71
102
{ACAD_REACTORS
330
1F3A
102
}
330
1F3A
100
AcDbScale
 70
     0
300
1:20_Ebene5
140
1.0
141
20.005
290
     0
  0
SCALE
  5
BF72
102
{ACAD_REACTORS
330
1F3A
102
}
330
1F3A
100
AcDbScale
 70
     0
300
1:25
140
1.0
141
25.0
290
     0
  0
SCALE
  5
BF73
102
{ACAD_REACTORS
330
1F3A
102
}
330
1F3A
100
AcDbScale
 70
     0
300
1:30
140
1.0
141
30.0
290
     0
  0
SCALE
  5
BF74
102
{ACAD_REACTORS
330
1F3A
102
}
330
1F3A
100
AcDbScale
 70
     0
300
1:40
140
1.0
141
40.0
290
     0
  0
SCALE
  5
BF75
102
{ACAD_REACTORS
330
1F3A
102
}
330
1F3A
100
AcDbScale
 70
     0
300
1:50
140
1.0
141
50.0
290
     0
  0
SCALE
  5
BF76
102
{ACAD_REACTORS
330
1F3A
102
}
330
1F3A
100
AcDbScale
 70
     0
300
1:100
140
1.0
141
100.0
290
     0
  0
SCALE
  5
BF77
102
{ACAD_REACTORS
330
1F3A
102
}
330
1F3A
100
AcDbScale
 70
     0
300
1:200
140
1.0
141
200.0
290
     0
  0
SCALE
  5
BF78
102
{ACAD_REACTORS
330
1F3A
102
}
330
1F3A
100
AcDbScale
 70
     0
300
2:1
140
2.0
141
1.0
290
     0
  0
SCALE
  5
BF79
102
{ACAD_REACTORS
330
1F3A
102
}
330
1F3A
100
AcDbScale
 70
     0
300
10:1
140
10.0
141
1.0
290
     0
  0
ACDBSECTIONVIEWSTYLE
  5
4E0E
102
{ACAD_XDICTIONARY
360
EDF9
102
}
102
{ACAD_REACTORS
330
41D6
102
}
330
41D6
100
AcDbModelDocViewStyle
 70
     0
  3
Imperial24
290
     0
100
AcDbSectionViewStyle
 70
     0
 71
     0
 90
       78
 71
     1
340
10
 62
   256
 40
0.24
340
0
340
0
 62
   256
 40
0.24
300
I, O, Q, S, X, Z
 40
0.48
 90
        3
 40
0.18
 90
        1
 71
     2
340
15
 90
       25
 62
   256
340
15
 90
       50
 62
   256
 40
0.24
 40
0.0
 40
0.24
 71
     3
340
10
 62
   256
 40
0.24
 90
        1
 40
0.75
 90
        1
300
%<\AcVar ViewType \f "%tc1">% %<\AcVar ViewSectionStartId>%-%<\AcVar ViewSectionEndId>%\PVARIA %<\AcVar ViewScale \f "%sn">%
 71
     4
 62
   256
 62
   257
300
ANSI31
 40
1.0
 90
        0
290
     0
290
     0
 90
        6
 40
0.0
 40
1.570796326794896
 40
0.2617993877991494
 40
1.308996938995747
 40
-0.2617993877991494
 40
1.832595714594046
  0
ACDBSECTIONVIEWSTYLE
  5
41D7
102
{ACAD_XDICTIONARY
360
EDF5
102
}
102
{ACAD_REACTORS
330
41D6
102
}
330
41D6
100
AcDbModelDocViewStyle
 70
     0
  3
Metric50
290
     0
100
AcDbSectionViewStyle
 70
     0
 71
     0
 90
      102
 71
     1
340
10
 62
   256
 40
5.0
340
0
340
0
 62
   256
 40
5.0
300
I, O, Q, S, X, Z
 40
10.0
 90
        0
 40
2.5
 90
        0
 71
     2
340
15
 90
       25
 62
   256
340
15
 90
       50
 62
   256
 40
5.0
 40
2.5
 40
5.0
 71
     3
340
10
 62
   256
 40
5.0
 90
        0
 40
15.0
 90
        1
300
%<\AcVar ViewSectionStartId>%-%<\AcVar ViewSectionEndId>% (%<\AcVar ViewScale \f "%sn">%)
 71
     4
 62
   256
 62
   257
300
ANSI31
 40
1.0
 90
        0
290
     0
290
     0
 90
        6
 40
0.0
 40
1.570796326794896
 40
0.2617993877991494
 40
1.308996938995747
 40
-0.2617993877991494
 40
1.832595714594046
  0
TABLESTYLE
  5
3AF4
102
{ACAD_XDICTIONARY
360
3AF5
102
}
102
{ACAD_REACTORS
330
107E
102
}
330
107E
100
AcDbTableStyle
280
     0
  3
Standard
 70
     0
 71
     0
 40
1.5
 41
1.5
280
     0
281
     0
  7
STANDARD
140
2.5
170
     2
 62
   256
 63
     7
283
     0
 90
        4
 91
        0
  1

274
    -2
284
     1
 64
     0
275
    -2
285
     1
 65
     0
276
    -2
286
     1
 66
     0
277
    -2
287
     1
 67
     0
278
    -2
288
     1
 68
     0
279
    -2
289
     1
 69
     0
  7
STANDARD
140
4.0
170
     5
 62
   256
 63
     7
283
     0
 90
        4
 91
        0
  1

274
    -2
284
     1
 64
     0
275
    -2
285
     1
 65
     0
276
    -2
286
     1
 66
     0
277
    -2
287
     1
 67
     0
278
    -2
288
     1
 68
     0
279
    -2
289
     1
 69
     0
  7
STANDARD
140
3.5
170
     5
 62
   256
 63
     7
283
     0
 90
        4
 91
        0
  1

274
    -2
284
     1
 64
     0
275
    -2
285
     1
 65
     0
276
    -2
286
     1
 66
     0
277
    -2
287
     1
 67
     0
278
    -2
288
     1
 68
     0
279
    -2
289
     1
 69
     0
  0
TABLESTYLE
  5
107F
102
{ACAD_XDICTIONARY
360
2036
102
}
102
{ACAD_REACTORS
330
107E
102
}
330
107E
100
AcDbTableStyle
280
     0
  3
Standard
 70
     0
 71
     0
 40
1.25
 41
1.25
280
     0
281
     0
  7
STANDARD
140
2.0
170
     2
 62
     0
 63
     7
283
     0
 90
        4
 91
        0
  1

274
    -2
284
     1
 64
     0
275
    -2
285
     1
 65
     0
276
    -2
286
     1
 66
     0
277
    -2
287
     1
 67
     0
278
    -2
288
     1
 68
     0
279
    -2
289
     1
 69
     0
  7
STANDARD
140
3.0
170
     5
 62
     0
 63
     7
283
     0
 90
        4
 91
        0
  1

274
    -2
284
     1
 64
     0
275
    -2
285
     1
 65
     0
276
    -2
286
     1
 66
     0
277
    -2
287
     1
 67
     0
278
    -2
288
     1
 68
     0
279
    -2
289
     1
 69
     0
  7
STANDARD
140
2.5
170
     5
 62
     0
 63
     7
283
     0
 90
        4
 91
        0
  1

274
    -2
284
     1
 64
     0
275
    -2
285
     1
 65
     0
276
    -2
286
     1
 66
     0
277
    -2
287
     1
 67
     0
278
    -2
288
     1
 68
     0
279
    -2
289
     1
 69
     0
  0
VISUALSTYLE
  5
1BDF
102
{ACAD_REACTORS
330
1BD9
102
}
330
1BD9
100
AcDbVisualStyle
  2
2dWireframe
 70
     4
177
     3
291
     0
 70
    58
 90
        0
176
     1
 90
        2
176
     1
 90
        0
176
     1
 90
        0
176
     1
 40
0.6
176
     1
 40
30.0
176
     1
 62
     7
420
 16777215
176
     1
 90
        1
176
     1
 90
        4
176
     1
 62
     7
176
     1
 62
   257
176
     1
 90
        1
176
     1
 90
        1
176
     1
 40
1.0
176
     1
 90
        0
176
     1
 62
   257
176
     1
 40
1.0
176
     1
 90
        1
176
     1
 90
        6
176
     1
 90
        2
176
     1
 62
     7
176
     1
 90
        5
176
     1
 90
        0
176
     1
 90
        0
176
     1
290
     0
176
     1
 90
        1
176
     1
 40
0.0
176
     1
 90
        0
176
     1
290
     1
176
     1
290
     1
176
     1
290
     0
176
     1
290
     0
176
     1
290
     0
176
     1
290
     0
176
     1
290
     0
176
     1
290
     0
176
     1
290
     0
176
     1
 90
       50
176
     1
 40
0.0
176
     1
 40
1.0
176
     1
 90
        0
176
     1
 62
    18
420
        0
176
     1
 90
       50
176
     1
 90
        3
176
     1
 62
     5
420
      255
176
     1
290
     0
176
     1
 90
       50
176
     1
 90
       50
176
     1
 90
       50
176
     1
290
     0
176
     1
 90
       50
176
     1
 62
   256
176
     0
 40
1.0
176
     0
 90
        2
176
     1
  1
strokes_ogs.tif
176
     1
290
     0
176
     1
 40
1.0
176
     1
 40
1.0
176
     1
  0
VISUALSTYLE
  5
1BE1
102
{ACAD_REACTORS
330
1BD9
102
}
330
1BD9
100
AcDbVisualStyle
  2
3D Hidden
 70
     6
177
     3
291
     0
 70
    58
 90
        1
176
     1
 90
        2
176
     1
 90
        2
176
     1
 90
        0
176
     1
 40
0.6
176
     1
 40
30.0
176
     1
 62
     7
420
 16777215
176
     1
 90
        2
176
     1
 90
        2
176
     1
 62
     7
176
     1
 62
   257
176
     1
 90
        2
176
     1
 90
        1
176
     1
 40
40.0
176
     1
 90
        0
176
     1
 62
   257
176
     1
 40
1.0
176
     1
 90
        1
176
     1
 90
        6
176
     1
 90
        2
176
     1
 62
     7
176
     1
 90
        3
176
     1
 90
        0
176
     1
 90
        0
176
     1
290
     0
176
     1
 90
        1
176
     1
 40
0.0
176
     1
 90
        0
176
     1
290
     0
176
     1
290
     1
176
     1
290
     1
176
     1
290
     0
176
     1
290
     0
176
     1
290
     0
176
     1
290
     0
176
     1
290
     0
176
     1
290
     0
176
     1
 90
       50
176
     1
 40
0.0
176
     1
 40
1.0
176
     1
 90
        0
176
     1
 62
    18
420
        0
176
     1
 90
       50
176
     1
 90
        3
176
     1
 62
     5
420
      255
176
     1
290
     0
176
     1
 90
       50
176
     1
 90
       50
176
     1
 90
       50
176
     1
290
     0
176
     1
 90
       50
176
     1
 62
   256
176
     0
 40
1.0
176
     0
 90
        2
176
     1
  1
strokes_ogs.tif
176
     1
290
     0
176
     1
 40
1.0
176
     1
 40
1.0
176
     1
  0
VISUALSTYLE
  5
1BE0
102
{ACAD_REACTORS
330
1BD9
102
}
330
1BD9
100
AcDbVisualStyle
  2
3dWireframe
 70
     5
177
     3
291
     0
 70
    58
 90
        0
176
     1
 90
        2
176
     1
 90
        0
176
     1
 90
        0
176
     1
 40
0.6
176
     1
 40
30.0
176
     1
 62
     7
420
 16777215
176
     1
 90
        1
176
     1
 90
        4
176
     1
 62
     7
176
     1
 62
   257
176
     1
 90
        1
176
     1
 90
        1
176
     1
 40
1.0
176
     1
 90
        0
176
     1
 62
   257
176
     1
 40
1.0
176
     1
 90
        1
176
     1
 90
        6
176
     1
 90
        2
176
     1
 62
     7
176
     1
 90
        5
176
     1
 90
        0
176
     1
 90
        0
176
     1
290
     0
176
     1
 90
        1
176
     1
 40
0.0
176
     1
 90
        0
176
     1
290
     0
176
     1
290
     1
176
     1
290
     1
176
     1
290
     0
176
     1
290
     0
176
     1
290
     0
176
     1
290
     0
176
     1
290
     0
176
     1
290
     0
176
     1
 90
       50
176
     1
 40
0.0
176
     1
 40
1.0
176
     1
 90
        0
176
     1
 62
    18
420
        0
176
     1
 90
       50
176
     1
 90
        3
176
     1
 62
     5
420
      255
176
     1
290
     0
176
     1
 90
       50
176
     1
 90
       50
176
     1
 90
       50
176
     1
290
     0
176
     1
 90
       50
176
     1
 62
   256
176
     0
 40
1.0
176
     0
 90
        2
176
     1
  1
strokes_ogs.tif
176
     1
290
     0
176
     1
 40
1.0
176
     1
 40
1.0
176
     1
  0
VISUALSTYLE
  5
1BDE
102
{ACAD_REACTORS
330
1BD9
102
}
330
1BD9
100
AcDbVisualStyle
  2
Basic
 70
     7
177
     3
291
     1
 70
    58
 90
        1
176
     1
 90
        0
176
     1
 90
        1
176
     1
 90
        0
176
     1
 40
0.6
176
     1
 40
30.0
176
     1
 62
     7
420
 16777215
176
     1
 90
        0
176
     1
 90
        4
176
     1
 62
     7
176
     1
 62
   257
176
     1
 90
        1
176
     1
 90
        1
176
     1
 40
1.0
176
     1
 90
        8
176
     1
 62
     7
176
     1
 40
1.0
176
     1
 90
        1
176
     1
 90
        6
176
     1
 90
        2
176
     1
 62
     7
176
     1
 90
        5
176
     1
 90
        0
176
     1
 90
        0
176
     1
290
     0
176
     1
 90
        1
176
     1
 40
0.0
176
     1
 90
        0
176
     1
290
     0
176
     1
290
     1
176
     1
290
     1
176
     1
290
     0
176
     1
290
     0
176
     1
290
     0
176
     1
290
     0
176
     1
290
     0
176
     1
290
     0
176
     1
 90
       50
176
     1
 40
0.0
176
     1
 40
1.0
176
     1
 90
        0
176
     1
 62
    18
420
        0
176
     1
 90
       50
176
     1
 90
        3
176
     1
 62
     5
420
      255
176
     1
290
     0
176
     1
 90
       50
176
     1
 90
       50
176
     1
 90
       50
176
     1
290
     0
176
     1
 90
       50
176
     1
 62
   256
176
     0
 40
1.0
176
     0
 90
        2
176
     1
  1
strokes_ogs.tif
176
     1
290
     0
176
     1
 40
1.0
176
     1
 40
1.0
176
     1
  0
VISUALSTYLE
  5
1BE5
102
{ACAD_REACTORS
330
1BD9
102
}
330
1BD9
100
AcDbVisualStyle
  2
Brighten
 70
    12
177
     3
291
     1
 70
    58
 90
        2
176
     1
 90
        2
176
     1
 90
        0
176
     1
 90
        0
176
     1
 40
0.6
176
     1
 40
30.0
176
     1
 62
     7
420
 16777215
176
     1
 90
        1
176
     1
 90
        4
176
     1
 62
     7
176
     1
 62
   257
176
     1
 90
        1
176
     1
 90
        1
176
     1
 40
1.0
176
     1
 90
        8
176
     1
 62
     7
176
     1
 40
1.0
176
     1
 90
        1
176
     1
 90
        6
176
     1
 90
        2
176
     1
 62
     7
176
     1
 90
        5
176
     1
 90
        0
176
     1
 90
        0
176
     1
290
     0
176
     1
 90
        1
176
     1
 40
50.0
176
     1
 90
        0
176
     1
290
     0
176
     1
290
     1
176
     1
290
     1
176
     1
290
     0
176
     1
290
     0
176
     1
290
     0
176
     1
290
     0
176
     1
290
     0
176
     1
290
     0
176
     1
 90
       50
176
     1
 40
0.0
176
     1
 40
1.0
176
     1
 90
        0
176
     1
 62
    18
420
        0
176
     1
 90
       50
176
     1
 90
        3
176
     1
 62
     5
420
      255
176
     1
290
     0
176
     1
 90
       50
176
     1
 90
       50
176
     1
 90
       50
176
     1
290
     0
176
     1
 90
       50
176
     1
 62
   256
176
     0
 40
1.0
176
     0
 90
        2
176
     1
  1
strokes_ogs.tif
176
     1
290
     0
176
     1
 40
1.0
176
     1
 40
1.0
176
     1
  0
VISUALSTYLE
  5
1BE9
102
{ACAD_REACTORS
330
1BD9
102
}
330
1BD9
100
AcDbVisualStyle
  2
ColorChange
 70
    16
177
     3
291
     1
 70
    58
 90
        2
176
     1
 90
        2
176
     1
 90
        3
176
     1
 90
        0
176
     1
 40
0.6
176
     1
 40
30.0
176
     1
 62
     8
420
  8421504
176
     1
 90
        1
176
     1
 90
        4
176
     1
 62
     7
176
     1
 62
   257
176
     1
 90
        1
176
     1
 90
        1
176
     1
 40
1.0
176
     1
 90
        8
176
     1
 62
     8
420
  8421504
176
     1
 40
1.0
176
     1
 90
        1
176
     1
 90
        6
176
     1
 90
        2
176
     1
 62
     7
176
     1
 90
        5
176
     1
 90
        0
176
     1
 90
        0
176
     1
290
     0
176
     1
 90
        1
176
     1
 40
0.0
176
     1
 90
        0
176
     1
290
     0
176
     1
290
     1
176
     1
290
     1
176
     1
290
     0
176
     1
290
     0
176
     1
290
     0
176
     1
290
     0
176
     1
290
     0
176
     1
290
     0
176
     1
 90
       50
176
     1
 40
0.0
176
     1
 40
1.0
176
     1
 90
        0
176
     1
 62
    18
420
        0
176
     1
 90
       50
176
     1
 90
        3
176
     1
 62
     5
420
      255
176
     1
290
     0
176
     1
 90
       50
176
     1
 90
       50
176
     1
 90
       50
176
     1
290
     0
176
     1
 90
       50
176
     1
 62
   256
176
     0
 40
1.0
176
     0
 90
        2
176
     1
  1
strokes_ogs.tif
176
     1
290
     0
176
     1
 40
1.0
176
     1
 40
1.0
176
     1
  0
VISUALSTYLE
  5
1BE2
102
{ACAD_REACTORS
330
1BD9
102
}
330
1BD9
100
AcDbVisualStyle
  2
Conceptual
 70
     9
177
     3
291
     0
 70
    58
 90
        3
176
     1
 90
        2
176
     1
 90
        0
176
     1
 90
        0
176
     1
 40
0.6
176
     1
 40
30.0
176
     1
 62
     7
420
 16777215
176
     1
 90
        2
176
     1
 90
        2
176
     1
 62
     7
176
     1
 62
   257
176
     1
 90
        1
176
     1
 90
        1
176
     1
 40
40.0
176
     1
 90
        8
176
     1
 62
     7
176
     1
 40
1.0
176
     1
 90
        1
176
     1
 90
        6
176
     1
 90
        2
176
     1
 62
     7
176
     1
 90
        3
176
     1
 90
        0
176
     1
 90
        0
176
     1
290
     0
176
     1
 90
        1
176
     1
 40
0.0
176
     1
 90
        0
176
     1
290
     0
176
     1
290
     1
176
     1
290
     1
176
     1
290
     0
176
     1
290
     0
176
     1
290
     0
176
     1
290
     0
176
     1
290
     0
176
     1
290
     0
176
     1
 90
       50
176
     1
 40
0.0
176
     1
 40
1.0
176
     1
 90
        0
176
     1
 62
    18
420
        0
176
     1
 90
       50
176
     1
 90
        3
176
     1
 62
     5
420
      255
176
     1
290
     0
176
     1
 90
       50
176
     1
 90
       50
176
     1
 90
       50
176
     1
290
     0
176
     1
 90
       50
176
     1
 62
   256
176
     0
 40
1.0
176
     0
 90
        2
176
     1
  1
strokes_ogs.tif
176
     1
290
     0
176
     1
 40
1.0
176
     1
 40
1.0
176
     1
  0
VISUALSTYLE
  5
1BE4
102
{ACAD_REACTORS
330
1BD9
102
}
330
1BD9
100
AcDbVisualStyle
  2
Dim
 70
    11
177
     3
291
     1
 70
    58
 90
        2
176
     1
 90
        2
176
     1
 90
        0
176
     1
 90
        0
176
     1
 40
0.6
176
     1
 40
30.0
176
     1
 62
     7
420
 16777215
176
     1
 90
        1
176
     1
 90
        4
176
     1
 62
     7
176
     1
 62
   257
176
     1
 90
        1
176
     1
 90
        1
176
     1
 40
1.0
176
     1
 90
        8
176
     1
 62
     7
176
     1
 40
1.0
176
     1
 90
        1
176
     1
 90
        6
176
     1
 90
        2
176
     1
 62
     7
176
     1
 90
        5
176
     1
 90
        0
176
     1
 90
        0
176
     1
290
     0
176
     1
 90
        1
176
     1
 40
-50.0
176
     1
 90
        0
176
     1
290
     0
176
     1
290
     1
176
     1
290
     1
176
     1
290
     0
176
     1
290
     0
176
     1
290
     0
176
     1
290
     0
176
     1
290
     0
176
     1
290
     0
176
     1
 90
       50
176
     1
 40
0.0
176
     1
 40
1.0
176
     1
 90
        0
176
     1
 62
    18
420
        0
176
     1
 90
       50
176
     1
 90
        3
176
     1
 62
     5
420
      255
176
     1
290
     0
176
     1
 90
       50
176
     1
 90
       50
176
     1
 90
       50
176
     1
290
     0
176
     1
 90
       50
176
     1
 62
   256
176
     0
 40
1.0
176
     0
 90
        2
176
     1
  1
strokes_ogs.tif
176
     1
290
     0
176
     1
 40
1.0
176
     1
 40
1.0
176
     1
  0
VISUALSTYLE
  5
2595
102
{ACAD_REACTORS
330
1BD9
102
}
330
1BD9
100
AcDbVisualStyle
  2
EdgeColorOff
 70
    22
177
     3
291
     1
 70
    58
 90
        2
176
     0
 90
        2
176
     0
 90
        0
176
     0
 90
        0
176
     0
 40
0.6
176
     0
 40
30.0
176
     0
 62
     7
420
 16777215
176
     0
 90
        1
176
     0
 90
        4
176
     0
 62
     7
176
     0
 62
   257
176
     0
 90
        1
176
     0
 90
        1
176
     0
 40
1.0
176
     0
 90
        8
176
     2
 62
     7
176
     0
 40
1.0
176
     0
 90
        1
176
     0
 90
        6
176
     0
 90
        2
176
     0
 62
     7
176
     0
 90
        5
176
     0
 90
        0
176
     0
 90
        0
176
     0
290
     0
176
     0
 90
        1
176
     0
 40
0.0
176
     0
 90
        0
176
     0
290
     0
176
     1
290
     1
176
     1
290
     1
176
     1
290
     0
176
     1
290
     0
176
     1
290
     0
176
     1
290
     0
176
     1
290
     0
176
     1
290
     0
176
     1
 90
       50
176
     1
 40
0.0
176
     1
 40
1.0
176
     1
 90
        0
176
     1
 62
    18
420
        0
176
     1
 90
       50
176
     1
 90
        3
176
     1
 62
     5
420
      255
176
     1
290
     0
176
     1
 90
       50
176
     1
 90
       50
176
     1
 90
       50
176
     1
290
     0
176
     1
 90
       50
176
     1
 62
   256
176
     0
 40
1.0
176
     0
 90
        2
176
     1
  1
strokes_ogs.tif
176
     1
290
     0
176
     1
 40
1.0
176
     1
 40
1.0
176
     1
  0
VISUALSTYLE
  5
1BE8
102
{ACAD_REACTORS
330
1BD9
102
}
330
1BD9
100
AcDbVisualStyle
  2
Facepattern
 70
    15
177
     3
291
     1
 70
    58
 90
        2
176
     1
 90
        2
176
     1
 90
        0
176
     1
 90
        0
176
     1
 40
0.6
176
     1
 40
30.0
176
     1
 62
     7
420
 16777215
176
     1
 90
        1
176
     1
 90
        4
176
     1
 62
     7
176
     1
 62
   257
176
     1
 90
        1
176
     1
 90
        1
176
     1
 40
1.0
176
     1
 90
        8
176
     1
 62
     7
176
     1
 40
1.0
176
     1
 90
        1
176
     1
 90
        6
176
     1
 90
        2
176
     1
 62
     7
176
     1
 90
        5
176
     1
 90
        0
176
     1
 90
        0
176
     1
290
     0
176
     1
 90
        1
176
     1
 40
0.0
176
     1
 90
        0
176
     1
290
     0
176
     1
290
     1
176
     1
290
     1
176
     1
290
     0
176
     1
290
     0
176
     1
290
     0
176
     1
290
     0
176
     1
290
     0
176
     1
290
     0
176
     1
 90
       50
176
     1
 40
0.0
176
     1
 40
1.0
176
     1
 90
        0
176
     1
 62
    18
420
        0
176
     1
 90
       50
176
     1
 90
        3
176
     1
 62
     5
420
      255
176
     1
290
     0
176
     1
 90
       50
176
     1
 90
       50
176
     1
 90
       50
176
     1
290
     0
176
     1
 90
       50
176
     1
 62
   256
176
     0
 40
1.0
176
     0
 90
        2
176
     1
  1
strokes_ogs.tif
176
     1
290
     0
176
     1
 40
1.0
176
     1
 40
1.0
176
     1
  0
VISUALSTYLE
  5
1BDA
102
{ACAD_REACTORS
330
1BD9
102
}
330
1BD9
100
AcDbVisualStyle
  2
Flat
 70
     0
177
     3
291
     1
 70
    58
 90
        2
176
     1
 90
        1
176
     1
 90
        1
176
     1
 90
        2
176
     1
 40
0.6
176
     1
 40
30.0
176
     1
 62
     7
420
 16777215
176
     1
 90
        0
176
     1
 90
        4
176
     1
 62
     7
176
     1
 62
   257
176
     1
 90
        1
176
     1
 90
        1
176
     1
 40
1.0
176
     1
 90
        8
176
     1
 62
     7
176
     1
 40
1.0
176
     1
 90
        1
176
     1
 90
        6
176
     1
 90
        2
176
     1
 62
     7
176
     1
 90
        5
176
     1
 90
        0
176
     1
 90
        0
176
     1
290
     0
176
     1
 90
       13
176
     1
 40
0.0
176
     1
 90
        0
176
     1
290
     0
176
     1
290
     1
176
     1
290
     1
176
     1
290
     0
176
     1
290
     0
176
     1
290
     0
176
     1
290
     0
176
     1
290
     0
176
     1
290
     0
176
     1
 90
       50
176
     1
 40
0.0
176
     1
 40
1.0
176
     1
 90
        0
176
     1
 62
    18
420
        0
176
     1
 90
       50
176
     1
 90
        3
176
     1
 62
     5
420
      255
176
     1
290
     0
176
     1
 90
       50
176
     1
 90
       50
176
     1
 90
       50
176
     1
290
     0
176
     1
 90
       50
176
     1
 62
   256
176
     0
 40
1.0
176
     0
 90
        2
176
     1
  1
strokes_ogs.tif
176
     1
290
     0
176
     1
 40
1.0
176
     1
 40
1.0
176
     1
  0
VISUALSTYLE
  5
1BDB
102
{ACAD_REACTORS
330
1BD9
102
}
330
1BD9
100
AcDbVisualStyle
  2
FlatWithEdges
 70
     1
177
     3
291
     1
 70
    58
 90
        2
176
     1
 90
        1
176
     1
 90
        1
176
     1
 90
        2
176
     1
 40
0.6
176
     1
 40
30.0
176
     1
 62
     7
420
 16777215
176
     1
 90
        1
176
     1
 90
        4
176
     1
 62
     7
176
     1
 62
   257
176
     1
 90
        1
176
     1
 90
        1
176
     1
 40
1.0
176
     1
 90
        0
176
     1
 62
   257
176
     1
 40
1.0
176
     1
 90
        1
176
     1
 90
        6
176
     1
 90
        2
176
     1
 62
     7
176
     1
 90
        5
176
     1
 90
        0
176
     1
 90
        0
176
     1
290
     0
176
     1
 90
       13
176
     1
 40
0.0
176
     1
 90
        0
176
     1
290
     0
176
     1
290
     1
176
     1
290
     1
176
     1
290
     0
176
     1
290
     0
176
     1
290
     0
176
     1
290
     0
176
     1
290
     0
176
     1
290
     0
176
     1
 90
       50
176
     1
 40
0.0
176
     1
 40
1.0
176
     1
 90
        0
176
     1
 62
    18
420
        0
176
     1
 90
       50
176
     1
 90
        3
176
     1
 62
     5
420
      255
176
     1
290
     0
176
     1
 90
       50
176
     1
 90
       50
176
     1
 90
       50
176
     1
290
     0
176
     1
 90
       50
176
     1
 62
   256
176
     0
 40
1.0
176
     0
 90
        2
176
     1
  1
strokes_ogs.tif
176
     1
290
     0
176
     1
 40
1.0
176
     1
 40
1.0
176
     1
  0
VISUALSTYLE
  5
1BDC
102
{ACAD_REACTORS
330
1BD9
102
}
330
1BD9
100
AcDbVisualStyle
  2
Gouraud
 70
     2
177
     3
291
     1
 70
    58
 90
        2
176
     1
 90
        2
176
     1
 90
        1
176
     1
 90
        2
176
     1
 40
0.6
176
     1
 40
30.0
176
     1
 62
     7
420
 16777215
176
     1
 90
        0
176
     1
 90
        4
176
     1
 62
     7
176
     1
 62
   257
176
     1
 90
        1
176
     1
 90
        1
176
     1
 40
1.0
176
     1
 90
        0
176
     1
 62
     7
176
     1
 40
1.0
176
     1
 90
        1
176
     1
 90
        6
176
     1
 90
        2
176
     1
 62
     7
176
     1
 90
        5
176
     1
 90
        0
176
     1
 90
        0
176
     1
290
     0
176
     1
 90
       13
176
     1
 40
0.0
176
     1
 90
        0
176
     1
290
     0
176
     1
290
     1
176
     1
290
     1
176
     1
290
     0
176
     1
290
     0
176
     1
290
     0
176
     1
290
     0
176
     1
290
     0
176
     1
290
     0
176
     1
 90
       50
176
     1
 40
0.0
176
     1
 40
1.0
176
     1
 90
        0
176
     1
 62
    18
420
        0
176
     1
 90
       50
176
     1
 90
        3
176
     1
 62
     5
420
      255
176
     1
290
     0
176
     1
 90
       50
176
     1
 90
       50
176
     1
 90
       50
176
     1
290
     0
176
     1
 90
       50
176
     1
 62
   256
176
     0
 40
1.0
176
     0
 90
        2
176
     1
  1
strokes_ogs.tif
176
     1
290
     0
176
     1
 40
1.0
176
     1
 40
1.0
176
     1
  0
VISUALSTYLE
  5
1BDD
102
{ACAD_REACTORS
330
1BD9
102
}
330
1BD9
100
AcDbVisualStyle
  2
GouraudWithEdges
 70
     3
177
     3
291
     1
 70
    58
 90
        2
176
     1
 90
        2
176
     1
 90
        1
176
     1
 90
        2
176
     1
 40
0.6
176
     1
 40
30.0
176
     1
 62
     7
420
 16777215
176
     1
 90
        1
176
     1
 90
        4
176
     1
 62
     7
176
     1
 62
   257
176
     1
 90
        1
176
     1
 90
        1
176
     1
 40
1.0
176
     1
 90
        0
176
     1
 62
   257
176
     1
 40
1.0
176
     1
 90
        1
176
     1
 90
        6
176
     1
 90
        2
176
     1
 62
     7
176
     1
 90
        5
176
     1
 90
        0
176
     1
 90
        0
176
     1
290
     0
176
     1
 90
       13
176
     1
 40
0.0
176
     1
 90
        0
176
     1
290
     0
176
     1
290
     1
176
     1
290
     1
176
     1
290
     0
176
     1
290
     0
176
     1
290
     0
176
     1
290
     0
176
     1
290
     0
176
     1
290
     0
176
     1
 90
       50
176
     1
 40
0.0
176
     1
 40
1.0
176
     1
 90
        0
176
     1
 62
    18
420
        0
176
     1
 90
       50
176
     1
 90
        3
176
     1
 62
     5
420
      255
176
     1
290
     0
176
     1
 90
       50
176
     1
 90
       50
176
     1
 90
       50
176
     1
290
     0
176
     1
 90
       50
176
     1
 62
   256
176
     0
 40
1.0
176
     0
 90
        2
176
     1
  1
strokes_ogs.tif
176
     1
290
     0
176
     1
 40
1.0
176
     1
 40
1.0
176
     1
  0
VISUALSTYLE
  5
2DD0
102
{ACAD_REACTORS
330
1BD9
102
}
330
1BD9
100
AcDbVisualStyle
  2
Hidden
 70
     6
177
     3
291
     0
 70
    58
 90
        1
176
     1
 90
        2
176
     1
 90
        2
176
     1
 90
        0
176
     1
 40
0.6
176
     1
 40
30.0
176
     1
 62
     7
420
 16777215
176
     1
 90
        2
176
     1
 90
        6
176
     1
 62
     7
176
     1
 62
   257
176
     1
 90
        2
176
     1
 90
        1
176
     1
 40
40.0
176
     1
 90
        0
176
     1
 62
   257
176
     1
 40
1.0
176
     1
 90
        1
176
     1
 90
        6
176
     1
 90
        2
176
     1
 62
     7
176
     1
 90
        3
176
     1
 90
        0
176
     1
 90
        0
176
     1
290
     0
176
     1
 90
        1
176
     1
 40
0.0
176
     1
 90
        0
176
     1
290
     0
176
     1
290
     1
176
     1
290
     1
176
     1
290
     0
176
     1
290
     0
176
     1
290
     0
176
     1
290
     0
176
     1
290
     0
176
     1
290
     0
176
     1
 90
       50
176
     1
 40
0.0
176
     1
 40
1.0
176
     1
 90
        0
176
     1
 62
    18
420
        0
176
     1
 90
       50
176
     1
 90
        3
176
     1
 62
     5
420
      255
176
     1
290
     0
176
     1
 90
       50
176
     1
 90
       50
176
     1
 90
       50
176
     1
290
     0
176
     1
 90
       50
176
     1
 62
   256
176
     0
 40
1.0
176
     0
 90
        2
176
     1
  1
strokes_ogs.tif
176
     1
290
     0
176
     1
 40
1.0
176
     1
 40
1.0
176
     1
  0
VISUALSTYLE
  5
2593
102
{ACAD_REACTORS
330
1BD9
102
}
330
1BD9
100
AcDbVisualStyle
  2
JitterOff
 70
    20
177
     3
291
     1
 70
    58
 90
        2
176
     0
 90
        2
176
     0
 90
        0
176
     0
 90
        0
176
     0
 40
0.6
176
     0
 40
30.0
176
     0
 62
     7
420
 16777215
176
     0
 90
        1
176
     0
 90
        4
176
     0
 62
     7
176
     0
 62
   257
176
     0
 90
        1
176
     0
 90
        1
176
     0
 40
1.0
176
     0
 90
       10
176
     2
 62
     7
176
     0
 40
1.0
176
     0
 90
        1
176
     0
 90
        6
176
     0
 90
        2
176
     0
 62
     7
176
     0
 90
        5
176
     0
 90
        0
176
     0
 90
        0
176
     0
290
     0
176
     0
 90
        1
176
     0
 40
0.0
176
     0
 90
        0
176
     0
290
     0
176
     1
290
     1
176
     1
290
     1
176
     1
290
     0
176
     1
290
     0
176
     1
290
     0
176
     1
290
     0
176
     1
290
     0
176
     1
290
     0
176
     1
 90
       50
176
     1
 40
0.0
176
     1
 40
1.0
176
     1
 90
        0
176
     1
 62
    18
420
        0
176
     1
 90
       50
176
     1
 90
        3
176
     1
 62
     5
420
      255
176
     1
290
     0
176
     1
 90
       50
176
     1
 90
       50
176
     1
 90
       50
176
     1
290
     0
176
     1
 90
       50
176
     1
 62
   256
176
     0
 40
1.0
176
     0
 90
        2
176
     1
  1
strokes_ogs.tif
176
     1
290
     0
176
     1
 40
1.0
176
     1
 40
1.0
176
     1
  0
VISUALSTYLE
  5
1BE7
102
{ACAD_REACTORS
330
1BD9
102
}
330
1BD9
100
AcDbVisualStyle
  2
Linepattern
 70
    14
177
     3
291
     1
 70
    58
 90
        2
176
     1
 90
        2
176
     1
 90
        0
176
     1
 90
        0
176
     1
 40
0.6
176
     1
 40
30.0
176
     1
 62
     7
420
 16777215
176
     1
 90
        1
176
     1
 90
        4
176
     1
 62
     7
176
     1
 62
   257
176
     1
 90
        7
176
     1
 90
        7
176
     1
 40
1.0
176
     1
 90
        8
176
     1
 62
     7
176
     1
 40
1.0
176
     1
 90
        1
176
     1
 90
        6
176
     1
 90
        2
176
     1
 62
     7
176
     1
 90
        5
176
     1
 90
        0
176
     1
 90
        0
176
     1
290
     0
176
     1
 90
        1
176
     1
 40
0.0
176
     1
 90
        0
176
     1
290
     0
176
     1
290
     1
176
     1
290
     1
176
     1
290
     0
176
     1
290
     0
176
     1
290
     0
176
     1
290
     0
176
     1
290
     0
176
     1
290
     0
176
     1
 90
       50
176
     1
 40
0.0
176
     1
 40
1.0
176
     1
 90
        0
176
     1
 62
    18
420
        0
176
     1
 90
       50
176
     1
 90
        3
176
     1
 62
     5
420
      255
176
     1
290
     0
176
     1
 90
       50
176
     1
 90
       50
176
     1
 90
       50
176
     1
290
     0
176
     1
 90
       50
176
     1
 62
   256
176
     0
 40
1.0
176
     0
 90
        2
176
     1
  1
strokes_ogs.tif
176
     1
290
     0
176
     1
 40
1.0
176
     1
 40
1.0
176
     1
  0
VISUALSTYLE
  5
2594
102
{ACAD_REACTORS
330
1BD9
102
}
330
1BD9
100
AcDbVisualStyle
  2
OverhangOff
 70
    21
177
     3
291
     1
 70
    58
 90
        2
176
     0
 90
        2
176
     0
 90
        0
176
     0
 90
        0
176
     0
 40
0.6
176
     0
 40
30.0
176
     0
 62
     7
420
 16777215
176
     0
 90
        1
176
     0
 90
        4
176
     0
 62
     7
176
     0
 62
   257
176
     0
 90
        1
176
     0
 90
        1
176
     0
 40
1.0
176
     0
 90
        9
176
     2
 62
     7
176
     0
 40
1.0
176
     0
 90
        1
176
     0
 90
        6
176
     0
 90
        2
176
     0
 62
     7
176
     0
 90
        5
176
     0
 90
        0
176
     0
 90
        0
176
     0
290
     0
176
     0
 90
        1
176
     0
 40
0.0
176
     0
 90
        0
176
     0
290
     0
176
     1
290
     1
176
     1
290
     1
176
     1
290
     0
176
     1
290
     0
176
     1
290
     0
176
     1
290
     0
176
     1
290
     0
176
     1
290
     0
176
     1
 90
       50
176
     1
 40
0.0
176
     1
 40
1.0
176
     1
 90
        0
176
     1
 62
    18
420
        0
176
     1
 90
       50
176
     1
 90
        3
176
     1
 62
     5
420
      255
176
     1
290
     0
176
     1
 90
       50
176
     1
 90
       50
176
     1
 90
       50
176
     1
290
     0
176
     1
 90
       50
176
     1
 62
   256
176
     0
 40
1.0
176
     0
 90
        2
176
     1
  1
strokes_ogs.tif
176
     1
290
     0
176
     1
 40
1.0
176
     1
 40
1.0
176
     1
  0
VISUALSTYLE
  5
1BE3
102
{ACAD_REACTORS
330
1BD9
102
}
330
1BD9
100
AcDbVisualStyle
  2
Realistic
 70
     8
177
     3
291
     0
 70
    58
 90
        2
176
     1
 90
        2
176
     1
 90
        0
176
     1
 90
        0
176
     1
 40
0.6
176
     1
 40
30.0
176
     1
 62
     7
420
 16777215
176
     1
 90
        1
176
     1
 90
        0
176
     1
 62
     7
176
     1
 62
   257
176
     1
 90
        1
176
     1
 90
        1
176
     1
 40
1.0
176
     1
 90
        8
176
     1
 62
     8
420
  7895160
176
     1
 40
1.0
176
     1
 90
        1
176
     1
 90
        6
176
     1
 90
        2
176
     1
 62
     7
176
     1
 90
        5
176
     1
 90
        0
176
     1
 90
        0
176
     1
290
     0
176
     1
 90
       13
176
     1
 40
0.0
176
     1
 90
        0
176
     1
290
     0
176
     1
290
     1
176
     1
290
     1
176
     1
290
     0
176
     1
290
     0
176
     1
290
     0
176
     1
290
     0
176
     1
290
     0
176
     1
290
     0
176
     1
 90
       50
176
     1
 40
0.0
176
     1
 40
1.0
176
     1
 90
        0
176
     1
 62
    18
420
        0
176
     1
 90
       50
176
     1
 90
        3
176
     1
 62
     5
420
      255
176
     1
290
     0
176
     1
 90
       50
176
     1
 90
       50
176
     1
 90
       50
176
     1
290
     0
176
     1
 90
       50
176
     1
 62
   256
176
     0
 40
1.0
176
     0
 90
        2
176
     1
  1
strokes_ogs.tif
176
     1
290
     0
176
     1
 40
1.0
176
     1
 40
1.0
176
     1
  0
VISUALSTYLE
  5
2DD5
102
{ACAD_REACTORS
330
1BD9
102
}
330
1BD9
100
AcDbVisualStyle
  2
Shaded
 70
    27
177
     3
291
     0
 70
    58
 90
        2
176
     1
 90
        2
176
     1
 90
        1
176
     1
 90
        2
176
     1
 40
0.6
176
     1
 40
30.0
176
     1
 62
     7
420
 16777215
176
     1
 90
        0
176
     1
 90
        4
176
     1
 62
     7
176
     1
 62
   257
176
     1
 90
        1
176
     1
 90
        1
176
     1
 40
1.0
176
     1
 90
        8
176
     1
 62
   257
176
     1
 40
1.0
176
     1
 90
        1
176
     1
 90
        6
176
     1
 90
        2
176
     1
 62
     8
420
  7895160
176
     1
 90
        3
176
     1
 90
        0
176
     1
 90
        0
176
     1
290
     0
176
     1
 90
        5
176
     1
 40
0.0
176
     1
 90
        0
176
     1
290
     0
176
     1
290
     1
176
     1
290
     1
176
     1
290
     0
176
     1
290
     0
176
     1
290
     0
176
     1
290
     0
176
     1
290
     0
176
     1
290
     0
176
     1
 90
       50
176
     1
 40
0.0
176
     1
 40
1.0
176
     1
 90
        0
176
     1
 62
    18
420
        0
176
     1
 90
       50
176
     1
 90
        3
176
     1
 62
     5
420
      255
176
     1
290
     0
176
     1
 90
       50
176
     1
 90
       50
176
     1
 90
       50
176
     1
290
     0
176
     1
 90
       50
176
     1
 62
   256
176
     0
 40
1.0
176
     0
 90
        2
176
     1
  1
strokes_ogs.tif
176
     1
290
     0
176
     1
 40
1.0
176
     1
 40
1.0
176
     1
  0
VISUALSTYLE
  5
2DD4
102
{ACAD_REACTORS
330
1BD9
102
}
330
1BD9
100
AcDbVisualStyle
  2
Shaded with edges
 70
    26
177
     3
291
     0
 70
    58
 90
        2
176
     1
 90
        2
176
     1
 90
        1
176
     1
 90
        2
176
     1
 40
0.6
176
     1
 40
30.0
176
     1
 62
     7
420
 16777215
176
     1
 90
        1
176
     1
 90
        2
176
     1
 62
     7
176
     1
 62
   257
176
     1
 90
        2
176
     1
 90
        1
176
     1
 40
1.0
176
     1
 90
        8
176
     1
 62
   257
176
     1
 40
1.0
176
     1
 90
        1
176
     1
 90
        6
176
     1
 90
        2
176
     1
 62
     7
176
     1
 90
        3
176
     1
 90
        0
176
     1
 90
        0
176
     1
290
     0
176
     1
 90
        5
176
     1
 40
0.0
176
     1
 90
        0
176
     1
290
     0
176
     1
290
     1
176
     1
290
     1
176
     1
290
     0
176
     1
290
     0
176
     1
290
     0
176
     1
290
     0
176
     1
290
     0
176
     1
290
     0
176
     1
 90
       50
176
     1
 40
0.0
176
     1
 40
1.0
176
     1
 90
        0
176
     1
 62
    18
420
        0
176
     1
 90
       50
176
     1
 90
        3
176
     1
 62
     5
420
      255
176
     1
290
     0
176
     1
 90
       50
176
     1
 90
       50
176
     1
 90
       50
176
     1
290
     0
176
     1
 90
       50
176
     1
 62
   256
176
     0
 40
1.0
176
     0
 90
        2
176
     1
  1
strokes_ogs.tif
176
     1
290
     0
176
     1
 40
1.0
176
     1
 40
1.0
176
     1
  0
VISUALSTYLE
  5
2DD1
102
{ACAD_REACTORS
330
1BD9
102
}
330
1BD9
100
AcDbVisualStyle
  2
Shades of Gray
 70
    23
177
     3
291
     0
 70
    58
 90
        2
176
     1
 90
        2
176
     1
 90
        3
176
     1
 90
        0
176
     1
 40
0.6
176
     1
 40
30.0
176
     1
 62
     7
420
 16777215
176
     1
 90
        2
176
     1
 90
        2
176
     1
 62
     7
176
     1
 62
     7
176
     1
 90
        1
176
     1
 90
        1
176
     1
 40
40.0
176
     1
 90
        8
176
     1
 62
     7
176
     1
 40
1.0
176
     1
 90
        1
176
     1
 90
        6
176
     1
 90
        2
176
     1
 62
     7
176
     1
 90
        3
176
     1
 90
        0
176
     1
 90
        0
176
     1
290
     0
176
     1
 90
        1
176
     1
 40
0.0
176
     1
 90
        0
176
     1
290
     0
176
     1
290
     1
176
     1
290
     1
176
     1
290
     0
176
     1
290
     0
176
     1
290
     0
176
     1
290
     0
176
     1
290
     0
176
     1
290
     0
176
     1
 90
       50
176
     1
 40
0.0
176
     1
 40
1.0
176
     1
 90
        0
176
     1
 62
    18
420
        0
176
     1
 90
       50
176
     1
 90
        3
176
     1
 62
     5
420
      255
176
     1
290
     0
176
     1
 90
       50
176
     1
 90
       50
176
     1
 90
       50
176
     1
290
     0
176
     1
 90
       50
176
     1
 62
   256
176
     0
 40
1.0
176
     0
 90
        2
176
     1
  1
strokes_ogs.tif
176
     1
290
     0
176
     1
 40
1.0
176
     1
 40
1.0
176
     1
  0
VISUALSTYLE
  5
2DD2
102
{ACAD_REACTORS
330
1BD9
102
}
330
1BD9
100
AcDbVisualStyle
  2
Sketchy
 70
    24
177
     3
291
     0
 70
    58
 90
        1
176
     1
 90
        2
176
     1
 90
        2
176
     1
 90
        0
176
     1
 40
0.6
176
     1
 40
30.0
176
     1
 62
     7
420
 16777215
176
     1
 90
        2
176
     1
 90
        2
176
     1
 62
     7
176
     1
 62
     7
176
     1
 90
        1
176
     1
 90
        1
176
     1
 40
40.0
176
     1
 90
       11
176
     1
 62
     7
176
     1
 40
1.0
176
     1
 90
        1
176
     1
 90
        6
176
     1
 90
        2
176
     1
 62
     7
176
     1
 90
        6
176
     1
 90
        0
176
     1
 90
        0
176
     1
290
     0
176
     1
 90
        1
176
     1
 40
0.0
176
     1
 90
        0
176
     1
290
     0
176
     1
290
     1
176
     1
290
     1
176
     1
290
     0
176
     1
290
     0
176
     1
290
     0
176
     1
290
     0
176
     1
290
     0
176
     1
290
     0
176
     1
 90
       50
176
     1
 40
0.0
176
     1
 40
1.0
176
     1
 90
        0
176
     1
 62
    18
420
        0
176
     1
 90
       50
176
     1
 90
        3
176
     1
 62
     5
420
      255
176
     1
290
     0
176
     1
 90
       50
176
     1
 90
       50
176
     1
 90
       50
176
     1
290
     0
176
     1
 90
       50
176
     1
 62
   256
176
     0
 40
1.0
176
     0
 90
        2
176
     1
  1
strokes_ogs.tif
176
     1
290
     0
176
     1
 40
1.0
176
     1
 40
1.0
176
     1
  0
VISUALSTYLE
  5
1BE6
102
{ACAD_REACTORS
330
1BD9
102
}
330
1BD9
100
AcDbVisualStyle
  2
Thicken
 70
    13
177
     3
291
     1
 70
    58
 90
        2
176
     1
 90
        2
176
     1
 90
        0
176
     1
 90
        0
176
     1
 40
0.6
176
     1
 40
30.0
176
     1
 62
     7
420
 16777215
176
     1
 90
        1
176
     1
 90
        4
176
     1
 62
     7
176
     1
 62
   257
176
     1
 90
        1
176
     1
 90
        1
176
     1
 40
1.0
176
     1
 90
       12
176
     1
 62
     7
176
     1
 40
1.0
176
     1
 90
        1
176
     1
 90
        6
176
     1
 90
        2
176
     1
 62
     7
176
     1
 90
        5
176
     1
 90
        0
176
     1
 90
        0
176
     1
290
     0
176
     1
 90
        1
176
     1
 40
0.0
176
     1
 90
        0
176
     1
290
     0
176
     1
290
     1
176
     1
290
     1
176
     1
290
     0
176
     1
290
     0
176
     1
290
     0
176
     1
290
     0
176
     1
290
     0
176
     1
290
     0
176
     1
 90
       50
176
     1
 40
0.0
176
     1
 40
1.0
176
     1
 90
        0
176
     1
 62
    18
420
        0
176
     1
 90
       50
176
     1
 90
        3
176
     1
 62
     5
420
      255
176
     1
290
     0
176
     1
 90
       50
176
     1
 90
       50
176
     1
 90
       50
176
     1
290
     0
176
     1
 90
       50
176
     1
 62
   256
176
     0
 40
1.0
176
     0
 90
        2
176
     1
  1
strokes_ogs.tif
176
     1
290
     0
176
     1
 40
1.0
176
     1
 40
1.0
176
     1
  0
VISUALSTYLE
  5
2DCF
102
{ACAD_REACTORS
330
1BD9
102
}
330
1BD9
100
AcDbVisualStyle
  2
Wireframe
 70
     5
177
     3
291
     0
 70
    58
 90
        0
176
     1
 90
        2
176
     1
 90
        0
176
     1
 90
        0
176
     1
 40
0.6
176
     1
 40
30.0
176
     1
 62
     7
420
 16777215
176
     1
 90
        1
176
     1
 90
        4
176
     1
 62
     7
176
     1
 62
   257
176
     1
 90
        1
176
     1
 90
        1
176
     1
 40
1.0
176
     1
 90
        0
176
     1
 62
   257
176
     1
 40
1.0
176
     1
 90
        1
176
     1
 90
        6
176
     1
 90
        2
176
     1
 62
     7
176
     1
 90
        3
176
     1
 90
        0
176
     1
 90
        0
176
     1
290
     0
176
     1
 90
        1
176
     1
 40
0.0
176
     1
 90
        0
176
     1
290
     0
176
     1
290
     1
176
     1
290
     1
176
     1
290
     0
176
     1
290
     0
176
     1
290
     0
176
     1
290
     0
176
     1
290
     0
176
     1
290
     0
176
     1
 90
       50
176
     1
 40
0.0
176
     1
 40
1.0
176
     1
 90
        0
176
     1
 62
    18
420
        0
176
     1
 90
       50
176
     1
 90
        3
176
     1
 62
     5
420
      255
176
     1
290
     0
176
     1
 90
       50
176
     1
 90
       50
176
     1
 90
       50
176
     1
290
     0
176
     1
 90
       50
176
     1
 62
   256
176
     0
 40
1.0
176
     0
 90
        2
176
     1
  1
strokes_ogs.tif
176
     1
290
     0
176
     1
 40
1.0
176
     1
 40
1.0
176
     1
  0
VISUALSTYLE
  5
2DD3
102
{ACAD_REACTORS
330
1BD9
102
}
330
1BD9
100
AcDbVisualStyle
  2
X-Ray
 70
    25
177
     3
291
     0
 70
    58
 90
        2
176
     1
 90
        2
176
     1
 90
        1
176
     1
 90
        1
176
     1
 40
0.5
176
     1
 40
30.0
176
     1
 62
     7
420
 16777215
176
     1
 90
        1
176
     1
 90
        0
176
     1
 62
     7
176
     1
 62
   257
176
     1
 90
        1
176
     1
 90
        1
176
     1
 40
1.0
176
     1
 90
        8
176
     1
 62
     7
176
     1
 40
1.0
176
     1
 90
        1
176
     1
 90
        6
176
     1
 90
        2
176
     1
 62
     7
176
     1
 90
        3
176
     1
 90
        0
176
     1
 90
        0
176
     1
290
     0
176
     1
 90
       13
176
     1
 40
0.0
176
     1
 90
        0
176
     1
290
     0
176
     1
290
     1
176
     1
290
     1
176
     1
290
     0
176
     1
290
     0
176
     1
290
     0
176
     1
290
     0
176
     1
290
     0
176
     1
290
     0
176
     1
 90
       50
176
     1
 40
0.0
176
     1
 40
1.0
176
     1
 90
        0
176
     1
 62
    18
420
        0
176
     1
 90
       50
176
     1
 90
        3
176
     1
 62
     5
420
      255
176
     1
290
     0
176
     1
 90
       50
176
     1
 90
       50
176
     1
 90
       50
176
     1
290
     0
176
     1
 90
       50
176
     1
 62
   256
176
     0
 40
1.0
176
     0
 90
        2
176
     1
  1
strokes_ogs.tif
176
     1
290
     0
176
     1
 40
1.0
176
     1
 40
1.0
176
     1
  0
DICTIONARYVAR
  5
203F
102
{ACAD_REACTORS
330
4A3
102
}
330
4A3
100
DictionaryVariables
280
     0
  1
1:1
  0
DICTIONARYVAR
  5
203D
102
{ACAD_REACTORS
330
4A3
102
}
330
4A3
100
DictionaryVariables
280
     0
  1
STANDARD
  0
DICTIONARYVAR
  5
10F5
102
{ACAD_REACTORS
330
4A3
102
}
330
4A3
100
DictionaryVariables
280
     0
  1
RK Menü 1
  0
DICTIONARYVAR
  5
46C1
102
{ACAD_REACTORS
330
4A3
102
}
330
4A3
100
DictionaryVariables
280
     0
  1
Metric50
  0
DICTIONARYVAR
  5
46C2
102
{ACAD_REACTORS
330
4A3
102
}
330
4A3
100
DictionaryVariables
280
     0
  1
Metric50
  0
DICTIONARYVAR
  5
BD8
102
{ACAD_REACTORS
330
4A3
102
}
330
4A3
100
DictionaryVariables
280
     0
  1
1
  0
DICTIONARYVAR
  5
2072
102
{ACAD_REACTORS
330
4A3
102
}
330
4A3
100
DictionaryVariables
280
     0
  1
1
  0
DICTIONARYVAR
  5
2073
102
{ACAD_REACTORS
330
4A3
102
}
330
4A3
100
DictionaryVariables
280
     0
  1
15
  0
DICTIONARYVAR
  5
2040
102
{ACAD_REACTORS
330
4A3
102
}
330
4A3
100
DictionaryVariables
280
     0
  1
0
  0
DICTIONARYVAR
  5
31EB
102
{ACAD_REACTORS
330
4A3
102
}
330
4A3
100
DictionaryVariables
280
     0
  1
1
  0
DICTIONARYVAR
  5
203E
102
{ACAD_REACTORS
330
4A3
102
}
330
4A3
100
DictionaryVariables
280
     0
  1
0
  0
DICTIONARYVAR
  5
4A4
102
{ACAD_REACTORS
330
4A3
102
}
330
4A3
100
DictionaryVariables
280
     0
  1
97
  0
XRECORD
  5
28ED
102
{ACAD_REACTORS
330
28EC
102
}
330
28EC
100
AcDbXrecord
280
     1
300
Bemaßungsstile
301
2.0
302
Überprüfen, ob Namen und Eigenschaften von Bemaßungsstilen einer Zeichnung mit denen der zugehörigen Standardsdatei übereinstimmen.
303
Autodesk, Inc.
304
http://www.autodesk.com
  0
XRECORD
  5
28EE
102
{ACAD_REACTORS
330
28EC
102
}
330
28EC
100
AcDbXrecord
280
     1
300
Layer
301
2.0
302
Überprüft, ob Namen und Eigenschaften von Layers in einer Zeichnung denen der zugehörigen Standardsdatei entsprechen.
303
Autodesk, Inc.
304
http://www.autodesk.com
  0
XRECORD
  5
28EF
102
{ACAD_REACTORS
330
28EC
102
}
330
28EC
100
AcDbXrecord
280
     1
300
Linientypen
301
2.0
302
Überprüft, ob Namen und Eigenschaften von Linientypen einer Zeichnung mit denen der zugehörigen Standardsdatei übereinstimmen.
303
Autodesk, Inc.
304
http://www.autodesk.com
  0
XRECORD
  5
28F0
102
{ACAD_REACTORS
330
28EC
102
}
330
28EC
100
AcDbXrecord
280
     1
300
Textstile
301
2.0
302
Überprüft, ob Namen und Eigenschaften von Textstilen einer Zeichnung mit denen der zugehörigen Standardsdatei übereinstimmen.
303
Autodesk, Inc.
304
http://www.autodesk.com
  0
XRECORD
  5
DFBF
102
{ACAD_REACTORS
330
DFBE
102
}
330
DFBE
100
AcDbXrecord
280
     1
 70
    -1
  0
XRECORD
  5
25CB
102
{ACAD_XDICTIONARY
360
25CC
102
}
102
{ACAD_REACTORS
330
11DC
102
}
330
11DC
100
AcDbXrecord
280
     1
 91
     1023
301
für Export z.B. in Word
290
     0
302
V1_035
330
0
 90
        8
 62
     7
370
    -3
331
15
  1
Color_10
330
0
 90
        8
 62
     7
370
    50
331
0
  1
Color_7
330
0
 90
        8
 62
     7
370
    50
331
0
  1
Color_7
330
0
 90
        8
 62
     7
370
    50
331
15
  1
Color_7
330
0
 90
        8
 62
     7
370
    -3
331
15
  1
Color_9
330
0
 90
        8
 62
     7
370
    -3
331
15
  1
Color_141
330
0
 90
        8
 62
     7
370
    35
331
15
  1
Color_101
330
0
 90
        8
 62
     7
370
    25
331
15
  1
Color_1
330
0
 90
        8
 62
     7
370
    -3
331
15
  1
Color_5
330
0
 90
        8
 62
     7
370
    -3
331
15
  1
Color_20
330
0
 90
        8
 62
     7
370
    -3
331
15
  1
Color_20
330
0
 90
        8
 62
     7
370
    70
331
15
  1
Color_6
330
0
 90
        8
 62
     7
370
    -3
331
15
  1
Color_10
330
0
 90
        8
 62
     7
370
    35
331
15
  1
Color_7
330
0
 90
        8
 62
     7
370
    -3
331
15
  1
Color_140
330
0
 90
        8
 62
     7
370
    -3
331
15
  1
Color_130
330
0
 90
        8
 62
     7
370
    -3
331
15
  1
Color_253
330
0
 90
        8
 62
     7
370
    -3
331
15
  1
Color_9
330
0
 90
        0
 62
     7
370
    -3
331
15
  1
Color_10
330
0
 90
        8
 62
     7
370
    -3
331
15
  1
Color_152
330
0
 90
        8
 62
     7
370
    -3
331
15
  1
Color_7
330
0
 90
        8
 62
     7
370
    -3
331
15
  1
Color_142
330
0
 90
        8
 62
     7
370
    -3
331
15
  1
Color_10
330
0
 90
        8
 62
     7
370
    -3
331
15
  1
Color_10
330
0
 90
        8
 62
     7
370
    -3
331
15
  1
Color_10
330
0
 90
        8
 62
     7
370
    35
331
0
  1
Color_104
330
0
 90
        8
 62
     7
370
    35
331
0
  1
Color_104
330
0
 90
        8
 62
     7
370
    25
331
0
  1
Color_142
330
0
 90
        8
 62
     7
370
    35
331
0
  1
Color_104
330
0
 90
        8
 62
     7
370
    25
331
0
  1
Color_142
330
0
 90
        8
 62
     7
370
   100
331
15
  1
Color_12
330
0
 90
        8
 62
     7
370
    35
331
15
  1
Color_7
330
0
 90
        8
 62
     7
370
    25
331
15
  1
Color_142
330
0
 90
        0
 62
     7
370
    -3
331
15
  1
Color_9
330
0
 90
        8
 62
     7
370
    35
331
15
  1
Color_104
330
F
 90
        8
 62
     7
370
    -3
331
15
  1
Color_7
330
0
 90
        8
 62
     7
370
    -3
331
15
  1
Color_10
330
0
 90
        8
 62
     7
370
    -3
331
15
  1
Color_10
330
0
 90
        8
 62
     7
370
    -3
331
0
  1
Color_7
330
0
 90
        8
 62
     7
370
    35
331
15
  1
Color_42
440
        0
330
0
 90
        8
 62
     7
370
    35
331
15
  1
Color_62
440
        0
330
0
 90
        8
 62
     7
370
    35
331
15
  1
Color_122
440
        0
330
0
 90
        8
 62
     7
370
    35
331
15
  1
Color_142
440
        0
330
0
 90
        8
 62
     7
370
    35
331
15
  1
Color_242
440
        0
330
0
 90
        8
 62
     7
370
    -3
331
15
  1
Color_253
440
        0
330
0
 90
        8
 62
     7
370
     9
331
15
  1
Color_11
440
        0
330
0
 90
        8
 62
     7
370
    -3
331
15
  1
Color_7
440
        0
330
0
 90
        8
 62
     7
370
     9
331
0
  1
Color_222
440
        0
330
0
 90
        8
 62
     7
370
    13
331
15
  1
Color_21
440
        0
330
0
 90
        8
 62
     7
370
    13
331
15
  1
Color_21
440
        0
330
0
 90
        8
 62
     7
370
    -3
331
15
  1
Color_10
440
        0
330
0
 90
        8
 62
     7
370
    -3
331
15
  1
Color_10
440
        0
330
0
 90
        8
 62
     7
370
    -3
331
15
  1
Color_10
440
        0
330
0
 90
        8
 62
     7
370
    -3
331
15
  1
Color_10
440
        0
330
0
 90
        8
 62
     7
370
    -3
331
15
  1
Color_10
440
        0
330
0
 90
        8
 62
     7
370
    -3
331
15
  1
Color_10
440
        0
330
0
 90
        8
 62
     7
370
    -3
331
15
  1
Color_7
440
        0
330
0
 90
        8
 62
     7
370
    -3
331
15
  1
Color_253
440
        0
330
0
 90
        8
 62
     7
370
    30
331
0
  1
Color_220
440
        0
330
0
 90
        8
 62
     7
370
    -3
331
15
  1
Color_7
440
        0
330
0
 90
        8
 62
     7
370
    25
331
15
  1
Color_9
440
        0
330
0
 90
        8
 62
     7
370
    35
331
15
  1
Color_101
440
        0
330
0
 90
        8
 62
     7
370
    -3
331
15
  1
Color_141
440
        0
330
0
 90
        8
 62
     7
370
    -3
331
15
  1
Color_9
440
        0
330
0
 90
        8
 62
     7
370
    13
331
15
  1
Color_21
440
        0
330
0
 90
        8
 62
     7
370
    13
331
15
  1
Color_21
440
        0
330
0
 90
        8
 62
     7
370
    -3
331
15
  1
Color_9
440
        0
330
0
 90
        8
 62
     7
370
    -3
331
15
  1
Color_9
440
        0
330
0
 90
        8
 62
     7
370
    25
331
0
  1
Color_4
440
        0
330
0
 90
        8
 62
     7
370
    35
331
0
  1
Color_3
440
        0
330
0
 90
        8
 62
     7
370
    50
331
0
  1
Color_14
440
        0
330
0
 90
        8
 62
     7
370
    35
331
0
  1
Color_3
440
        0
330
0
 90
        8
 62
     7
370
    25
331
0
  1
Color_4
440
        0
330
0
 90
        8
 62
     7
370
    35
331
0
  1
Color_3
440
        0
330
0
 90
        8
 62
     7
370
    -3
331
15
  1
Color_2
440
        0
330
0
 90
        8
 62
     7
370
    -3
331
15
  1
Color_2
440
        0
330
0
 90
        8
 62
     7
370
     9
331
15
  1
Color_11
440
        0
330
0
 90
        8
 62
     7
370
    25
331
15
  1
Color_4
440
        0
330
0
 90
        8
 62
     7
370
    70
331
15
  1
Color_6
440
        0
330
0
 90
        8
 62
     7
370
    35
331
15
  1
Color_7
440
        0
330
0
 90
        8
 62
     7
370
    25
331
15
  1
Color_122
440
        0
330
0
 90
        8
 62
     7
370
    25
331
15
  1
Color_133
440
        0
330
0
 90
        8
 62
     7
370
    25
331
15
  1
Color_101
440
        0
330
0
 90
        8
 62
     7
370
    -3
331
0
  1
Color_7
440
        0
330
0
 90
        8
 62
     7
370
    35
331
15
  1
Color_42
440
        0
330
0
 90
        8
 62
     7
370
    35
331
15
  1
Color_62
440
        0
330
0
 90
        8
 62
     7
370
    35
331
15
  1
Color_122
440
        0
330
0
 90
        8
 62
     7
370
    35
331
15
  1
Color_142
440
        0
330
0
 90
        8
 62
     7
370
    35
331
15
  1
Color_242
440
        0
  0
XRECORD
  5
5214
102
{ACAD_REACTORS
330
11DC
102
}
330
11DC
100
AcDbXrecord
280
     1
 91
     2047
301

290
     0
302
BESCHRIFTUNG
  8
EBENE_5
 90
        8
 62
   242
370
    35
331
15
  1
Color_242
440
        0
  8
EBENE_4
 90
        8
 62
   142
370
    35
331
15
  1
Color_142
440
        0
  8
EBENE_3
 90
        8
 62
   122
370
    35
331
15
  1
Color_122
440
        0
  8
EBENE_2
 90
        8
 62
    62
370
    35
331
15
  1
Color_62
440
        0
  8
EBENE_1
 90
        8
 62
    42
370
    35
331
15
  1
Color_42
440
        0
  8
V3_SANITÄR
 90
        8
 62
    93
370
    25
331
15
  1
Color_93
440
        0
  8
V3_LÜFTUNG
 90
        8
 62
   121
370
    25
331
15
  1
Color_121
440
        0
  8
V3_ELEKTRO
 90
        8
 62
    41
370
    25
331
15
  1
Color_41
440
        0
  8
POS-NR_10
 90
        8
 62
    21
370
    13
331
15
  1
Color_21
440
        0
  8
POS-NR_1
 90
        8
 62
    21
370
    13
331
15
  1
Color_21
440
        0
  8
H2_HILFSLINIE
 90
        8
 62
   220
370
    30
331
0
  1
Color_220
440
        0
  8
V1_010
 90
        8
 62
    11
370
     9
331
15
  1
Color_11
440
        0
  8
SCHRAFFUR_10
 90
        8
 62
     9
370
    -3
331
15
  1
Color_9
440
        0
  8
SCHRAFFUR
 90
        8
 62
     9
370
    -3
331
15
  1
Color_9
440
        0
  8
BESCHRIFTUNG
 90
        8
 62
     7
370
    -3
331
15
  1
Color_7
440
        0
  8
BEM-50
 90
        8
 62
    10
370
    -3
331
15
  1
Color_10
440
        0
  8
Z__FORMATECKEN
 90
        8
 62
     4
370
    -3
331
15
  1
Color_4
440
        0
  8
Z__ANSICHTSFENSTER
 90
        0
 62
    10
370
    -3
331
15
  1
Color_10
440
        0
  8
Z__robert koch cad-support
 90
        8
 62
     7
370
    -3
331
0
  1
Color_7
440
        0
  8
BEM-100
 90
        8
 62
    10
370
    -3
331
15
  1
Color_10
440
        0
  8
OPO Kontur detailliert
 90
        8
 62
   101
370
    35
331
15
  1
Color_101
440
        0
  8
OPO Hilfslinie
 90
        8
 62
     9
370
    25
331
15
  1
Color_9
440
        0
  8
OPO Kontur vereinfacht
 90
        8
 62
   141
370
    -3
331
15
  1
Color_141
440
        0
  8
OPO Schraffur
 90
        8
 62
     9
370
    -3
331
15
  1
Color_9
440
        0
  8
OPO Bemassung Text
 90
        8
 62
     7
370
    -3
331
15
  1
Color_7
440
        0
  8
SP_035
 90
        8
 62
     3
370
    35
331
0
  1
Color_3
440
        0
  8
SS_035
 90
        8
 62
     3
370
    35
331
0
  1
Color_3
440
        0
  8
V2_035
 90
        8
 62
     7
370
    35
331
15
  1
Color_7
440
        0
  8
SYMBOLE_10
 90
        8
 62
     2
370
    -3
331
15
  1
Color_2
440
        0
  8
SYMBOLE_1
 90
        8
 62
     2
370
    -3
331
15
  1
Color_2
440
        0
  8
SS_025
 90
        8
 62
     4
370
    25
331
0
  1
Color_4
440
        0
  8
SPP_035
 90
        8
 62
     3
370
    35
331
0
  1
Color_3
440
        0
  8
SP_050
 90
        8
 62
    14
370
    50
331
0
  1
Color_14
440
        0
  8
SP_025
 90
        8
 62
     4
370
    25
331
0
  1
Color_4
440
        0
  8
V1_070
 90
        8
 62
     6
370
    70
331
15
  1
Color_6
440
        0
  8
BEM-2
 90
        8
 62
    10
370
    -3
331
15
  1
Color_10
440
        0
  8
H1_HILFSLINIE
 90
        8
 62
   253
370
    -3
331
15
  1
Color_253
440
        0
  8
BEM-20
 90
        8
 62
    10
370
    -3
331
15
  1
Color_10
440
        0
  8
BEM-10
 90
        8
 62
    10
370
    -3
331
15
  1
Color_10
440
        0
  8
BEM-1
 90
        8
 62
    10
370
    -3
331
15
  1
Color_10
440
        0
  8
V1_025
 90
        8
 62
     4
370
    25
331
15
  1
Color_4
440
        0
  8
DEFPOINTS
 90
        0
 62
     9
370
    -3
331
15
  1
Color_9
440
        0
  8
V1_035
 90
        8
 62
     3
370
    35
331
15
  1
Color_3
440
        0
  8
0
 90
        8
 62
     7
370
    -3
331
15
  1
Color_7
440
        0
330
0
 90
        8
 62
     7
370
    35
331
15
  1
Color_7
440
        0
  0
XRECORD
  5
25FE
102
{ACAD_REACTORS
330
11DC
102
}
330
11DC
100
AcDbXrecord
280
     1
 91
     1023
301

290
     0
302
V1_035
  8
BEM-100
 90
        8
 62
    10
370
    -3
331
15
  1
Color_10
  8
SS_050
 90
        8
 62
     7
370
    50
331
0
  1
Color_7
  8
SP_050
 90
        8
 62
     7
370
    50
331
0
  1
Color_7
  8
V1_050
 90
        8
 62
     7
370
    50
331
15
  1
Color_7
  8
OPO Schraffur
 90
        8
 62
     9
370
    -3
331
15
  1
Color_9
  8
OPO Kontur vereinfacht
 90
        8
 62
     4
370
    -3
331
15
  1
Color_4
  8
OPO Kontur detailliert
 90
        8
 62
     3
370
    35
331
15
  1
Color_3
  8
OPO Hilfslinie
 90
        8
 62
     1
370
    25
331
15
  1
Color_1
  8
OPO Bemassung Text
 90
        8
 62
     5
370
    -3
331
15
  1
Color_5
  8
SYMBOLE_10
 90
        8
 62
     2
370
    -3
331
15
  1
Color_2
  8
SYMBOLE_1
 90
        8
 62
     2
370
    -3
331
15
  1
Color_2
  8
V1_070
 90
        8
 62
     6
370
    70
331
15
  1
Color_6
  8
BEM-2
 90
        8
 62
    10
370
    -3
331
15
  1
Color_10
  8
A__KOPF
 90
        8
 62
     7
370
    35
331
15
  1
Color_7
  8
RASTER_2
 90
        8
 62
   140
370
    -3
331
15
  1
Color_140
  8
RASTER_1
 90
        8
 62
   130
370
    -3
331
15
  1
Color_130
  8
H1_HILFSLINIE
 90
        8
 62
   253
370
    -3
331
15
  1
Color_253
  8
A__SCHRAFFUR
 90
        8
 62
     9
370
    -3
331
15
  1
Color_9
  8
A__MANSFEN
 90
        0
 62
    10
370
    -3
331
15
  1
Color_10
  8
Z__KOPF_F
 90
        8
 62
     7
370
    -3
331
15
  1
Color_7
  8
Z__KOPF_G
 90
        8
 62
     7
370
    -3
331
15
  1
Color_7
  8
A__FORMATECKEN
 90
        8
 62
     4
370
    -3
331
15
  1
Color_4
  8
BEM-20
 90
        8
 62
    10
370
    -3
331
15
  1
Color_10
  8
BEM-10
 90
        8
 62
    10
370
    -3
331
15
  1
Color_10
  8
BEM-1
 90
        8
 62
    10
370
    -3
331
15
  1
Color_10
  8
SPP_035
 90
        8
 62
     3
370
    35
331
0
  1
Color_3
  8
SP_035
 90
        8
 62
     3
370
    35
331
0
  1
Color_3
  8
SP_025
 90
        8
 62
     4
370
    25
331
0
  1
Color_4
  8
SS_035
 90
        8
 62
     3
370
    35
331
0
  1
Color_3
  8
SS_025
 90
        8
 62
     4
370
    25
331
0
  1
Color_4
  8
V1_100
 90
        8
 62
    12
370
   100
331
15
  1
Color_12
  8
V2_035
 90
        8
 62
     7
370
    35
331
15
  1
Color_7
  8
V1_025
 90
        8
 62
     4
370
    25
331
15
  1
Color_4
  8
DEFPOINTS
 90
        0
 62
     9
370
    -3
331
15
  1
Color_9
  8
V1_035
 90
        8
 62
     3
370
    35
331
15
  1
Color_3
  8
0
 90
        8
 62
     7
370
    -3
331
15
  1
Color_7
330
0
 90
        8
 62
    10
370
    -3
331
15
  1
Color_10
330
0
 90
        8
 62
     7
370
    -3
331
15
  1
Color_10
330
0
 90
        8
 62
     9
370
    -3
331
15
  1
Color_7
330
0
 90
        0
 62
    10
370
    -3
331
15
  1
Color_7
330
0
 90
        8
 62
     4
370
    -3
331
15
  1
Color_7
330
0
 90
        8
 62
     7
370
    35
331
15
  1
Color_7
330
0
 90
        8
 62
     7
370
    -3
331
0
  1
Color_7
330
0
 90
        8
 62
    42
370
    35
331
15
  1
Color_42
440
        0
330
0
 90
        8
 62
    62
370
    35
331
15
  1
Color_62
440
        0
330
0
 90
        8
 62
   122
370
    35
331
15
  1
Color_122
440
        0
330
0
 90
        8
 62
   142
370
    35
331
15
  1
Color_142
440
        0
330
0
 90
        8
 62
   242
370
    35
331
15
  1
Color_242
440
        0
330
0
 90
        8
 62
     9
370
    -3
331
15
  1
Color_253
440
        0
330
0
 90
        8
 62
    11
370
     9
331
15
  1
Color_11
440
        0
330
0
 90
        8
 62
    21
370
    13
331
15
  1
Color_21
440
        0
330
0
 90
        8
 62
    21
370
    13
331
15
  1
Color_21
440
        0
330
0
 90
        8
 62
   222
370
     9
331
0
  1
Color_222
440
        0
330
0
 90
        8
 62
    10
370
    -3
331
15
  1
Color_10
440
        0
330
0
 90
        8
 62
     7
370
    -3
331
15
  1
Color_7
440
        0
330
0
 90
        8
 62
   220
370
    30
331
0
  1
Color_220
440
        0
330
0
 90
        8
 62
    21
370
    13
331
15
  1
Color_21
440
        0
330
0
 90
        8
 62
    21
370
    13
331
15
  1
Color_21
440
        0
330
0
 90
        8
 62
     9
370
    -3
331
15
  1
Color_9
440
        0
330
0
 90
        8
 62
     9
370
    -3
331
15
  1
Color_9
440
        0
330
0
 90
        8
 62
    11
370
     9
331
15
  1
Color_11
440
        0
330
0
 90
        8
 62
   122
370
    25
331
15
  1
Color_122
440
        0
330
0
 90
        8
 62
   133
370
    25
331
15
  1
Color_133
440
        0
330
0
 90
        8
 62
   101
370
    25
331
15
  1
Color_101
440
        0
330
0
 90
        8
 62
     7
370
    -3
331
0
  1
Color_7
440
        0
  0
XRECORD
  5
25C8
102
{ACAD_XDICTIONARY
360
25C9
102
}
102
{ACAD_REACTORS
330
11DC
102
}
330
11DC
100
AcDbXrecord
280
     1
 91
     1023
301
RK-Menü farben mit hellem Hintergrund
290
     0
302
V1_035
330
0
 90
        8
 62
    10
370
    -3
331
15
  1
Color_10
330
0
 90
        8
 62
     7
370
    50
331
0
  1
Color_7
330
0
 90
        8
 62
     7
370
    50
331
0
  1
Color_7
330
0
 90
        8
 62
     7
370
    50
331
15
  1
Color_7
330
0
 90
        8
 62
     9
370
    -3
331
15
  1
Color_9
330
0
 90
        8
 62
   141
370
    -3
331
15
  1
Color_141
330
0
 90
        8
 62
   101
370
    35
331
15
  1
Color_101
330
0
 90
        8
 62
     1
370
    25
331
15
  1
Color_1
330
0
 90
        8
 62
     5
370
    -3
331
15
  1
Color_5
330
0
 90
        8
 62
    20
370
    -3
331
15
  1
Color_20
330
0
 90
        8
 62
    20
370
    -3
331
15
  1
Color_20
330
0
 90
        8
 62
     6
370
    70
331
15
  1
Color_6
330
0
 90
        8
 62
    10
370
    -3
331
15
  1
Color_10
330
0
 90
        8
 62
     7
370
    35
331
15
  1
Color_7
330
0
 90
        8
 62
   140
370
    -3
331
15
  1
Color_140
330
0
 90
        8
 62
   130
370
    -3
331
15
  1
Color_130
330
0
 90
        8
 62
   253
370
    -3
331
15
  1
Color_253
330
0
 90
        8
 62
     9
370
    -3
331
15
  1
Color_9
330
0
 90
        0
 62
    10
370
    -3
331
15
  1
Color_10
330
0
 90
        8
 62
   152
370
    -3
331
15
  1
Color_152
330
0
 90
        8
 62
     7
370
    -3
331
15
  1
Color_7
330
0
 90
        8
 62
   142
370
    -3
331
15
  1
Color_142
330
0
 90
        8
 62
    10
370
    -3
331
15
  1
Color_10
330
0
 90
        8
 62
    10
370
    -3
331
15
  1
Color_10
330
0
 90
        8
 62
    10
370
    -3
331
15
  1
Color_10
330
0
 90
        8
 62
   104
370
    35
331
0
  1
Color_104
330
0
 90
        8
 62
   104
370
    35
331
0
  1
Color_104
330
0
 90
        8
 62
   142
370
    25
331
0
  1
Color_142
330
0
 90
        8
 62
   104
370
    35
331
0
  1
Color_104
330
0
 90
        8
 62
   142
370
    25
331
0
  1
Color_142
330
0
 90
        8
 62
    12
370
   100
331
15
  1
Color_12
330
0
 90
        8
 62
     7
370
    35
331
15
  1
Color_7
330
0
 90
        8
 62
   142
370
    25
331
15
  1
Color_142
330
0
 90
        0
 62
     9
370
    -3
331
15
  1
Color_9
330
0
 90
        8
 62
   104
370
    35
331
15
  1
Color_104
330
F
 90
        8
 62
     7
370
    -3
331
15
  1
Color_7
330
0
 90
        8
 62
    10
370
    -3
331
15
  1
Color_10
330
0
 90
        8
 62
     7
370
    -3
331
15
  1
Color_10
330
0
 90
        8
 62
     7
370
    -3
331
0
  1
Color_7
330
0
 90
        8
 62
    42
370
    35
331
15
  1
Color_42
440
        0
330
0
 90
        8
 62
    62
370
    35
331
15
  1
Color_62
440
        0
330
0
 90
        8
 62
   122
370
    35
331
15
  1
Color_122
440
        0
330
0
 90
        8
 62
   142
370
    35
331
15
  1
Color_142
440
        0
330
0
 90
        8
 62
   242
370
    35
331
15
  1
Color_242
440
        0
330
0
 90
        8
 62
     9
370
    -3
331
15
  1
Color_253
440
        0
330
0
 90
        8
 62
    11
370
     9
331
15
  1
Color_11
440
        0
330
0
 90
        8
 62
     7
370
    -3
331
15
  1
Color_7
440
        0
330
0
 90
        8
 62
    21
370
    13
331
15
  1
Color_21
440
        0
330
0
 90
        8
 62
    21
370
    13
331
15
  1
Color_21
440
        0
330
0
 90
        8
 62
   222
370
     9
331
0
  1
Color_222
440
        0
330
0
 90
        8
 62
    10
370
    -3
331
15
  1
Color_10
440
        0
330
0
 90
        8
 62
    10
370
    -3
331
15
  1
Color_10
440
        0
330
0
 90
        8
 62
    10
370
    -3
331
15
  1
Color_10
440
        0
330
0
 90
        8
 62
    10
370
    -3
331
15
  1
Color_10
440
        0
330
0
 90
        8
 62
    10
370
    -3
331
15
  1
Color_10
440
        0
330
0
 90
        8
 62
    10
370
    -3
331
15
  1
Color_10
440
        0
330
0
 90
        8
 62
     7
370
    -3
331
15
  1
Color_7
440
        0
330
0
 90
        8
 62
   253
370
    -3
331
15
  1
Color_253
440
        0
330
0
 90
        8
 62
   220
370
    30
331
0
  1
Color_220
440
        0
330
0
 90
        8
 62
     7
370
    -3
331
15
  1
Color_7
440
        0
330
0
 90
        8
 62
     9
370
    25
331
15
  1
Color_9
440
        0
330
0
 90
        8
 62
   101
370
    35
331
15
  1
Color_101
440
        0
330
0
 90
        8
 62
   141
370
    -3
331
15
  1
Color_141
440
        0
330
0
 90
        8
 62
     9
370
    -3
331
15
  1
Color_9
440
        0
330
0
 90
        8
 62
    21
370
    13
331
15
  1
Color_21
440
        0
330
0
 90
        8
 62
    21
370
    13
331
15
  1
Color_21
440
        0
330
0
 90
        8
 62
     9
370
    -3
331
15
  1
Color_9
440
        0
330
0
 90
        8
 62
     9
370
    -3
331
15
  1
Color_9
440
        0
330
0
 90
        8
 62
     4
370
    25
331
0
  1
Color_4
440
        0
330
0
 90
        8
 62
     3
370
    35
331
0
  1
Color_3
440
        0
330
0
 90
        8
 62
    14
370
    50
331
0
  1
Color_14
440
        0
330
0
 90
        8
 62
     3
370
    35
331
0
  1
Color_3
440
        0
330
0
 90
        8
 62
     4
370
    25
331
0
  1
Color_4
440
        0
330
0
 90
        8
 62
     3
370
    35
331
0
  1
Color_3
440
        0
330
0
 90
        8
 62
     2
370
    -3
331
15
  1
Color_2
440
        0
330
0
 90
        8
 62
     2
370
    -3
331
15
  1
Color_2
440
        0
330
0
 90
        8
 62
    11
370
     9
331
15
  1
Color_11
440
        0
330
0
 90
        8
 62
     4
370
    25
331
15
  1
Color_4
440
        0
330
0
 90
        8
 62
     6
370
    70
331
15
  1
Color_6
440
        0
330
0
 90
        8
 62
     7
370
    35
331
15
  1
Color_7
440
        0
330
0
 90
        8
 62
   122
370
    25
331
15
  1
Color_122
440
        0
330
0
 90
        8
 62
   133
370
    25
331
15
  1
Color_133
440
        0
330
0
 90
        8
 62
   101
370
    25
331
15
  1
Color_101
440
        0
330
0
 90
        8
 62
     7
370
    -3
331
0
  1
Color_7
440
        0
  0
XRECORD
  5
2D3A
102
{ACAD_REACTORS
330
2D38
102
}
330
2D38
100
AcDbXrecord
280
     1
  1
AcLyLayerGroup
 90
        1
300
frieren in AF Detaildarstellung
330
0
330
0
330
0
330
0
330
0
330
0
330
0
  0
XRECORD
  5
2D3B
102
{ACAD_REACTORS
330
2D38
102
}
330
2D38
100
AcDbXrecord
280
     1
  1
AcLyLayerGroup
 90
        1
300
frieren in AF verkleinerte WZ
330
0
330
0
330
0
330
0
330
0
330
0
330
0
  0
ACDBASSOCNETWORK
  5
DAB1
102
{ACAD_REACTORS
330
DAB0
102
}
330
DAB0
100
AcDbAssocAction
 90
        2
 90
        0
330
AEF6
360
0
 90
       88
 90
        0
 90
        0
 90
        0
 90
        0
 90
        0
 90
        0
100
AcDbAssocNetwork
 90
        0
 90
        2
 90
        1
360
DAAF
 90
        0
  0
ACDB_DYNAMICBLOCKPROXYNODE
  5
DAA7
330
DAA6
100
AcDbEvalExpr
 90
        5
 98
       31
 99
      106
  0
BLOCKUSERPARAMETER
  5
DAA8
330
DAA6
100
AcDbEvalExpr
 90
       10
 98
       31
 99
      106
100
AcDbBlockElement
300

 98
       31
 99
      106
1071
        1
100
AcDbBlockParameter
280
     1
281
     0
100
AcDbBlock1PtParameter
1010
0.0
1020
0.0
1030
0.0
 93
        0
170
     0
171
     0
100
AcDbBlockUserParameter
 90
        0
330
DAAF
301

309
AcDbEvalVariant NULL = -9999
170
     3
  0
BLOCKVISIBILITYPARAMETER
  5
DAA9
330
DAA6
100
AcDbEvalExpr
 90
       11
 98
       31
 99
      106
100
AcDbBlockElement
300
Sichtbarkeitsstatus
 98
       31
 99
      106
1071
        0
100
AcDbBlockParameter
280
     0
281
     0
100
AcDbBlock1PtParameter
1010
-155.1096586774657
1020
39.79678970574935
1030
0.0
 93
       15
170
     0
171
     0
100
AcDbBlockVisibilityParameter
281
     1
301
Sprache
302
Sprache
 91
        0
 93
       14
331
DA96
331
DA97
331
DA98
331
DA99
331
DA9A
331
DA9B
331
DA9C
331
DA9D
331
DA9E
331
DA9F
331
DAA0
331
DAA1
331
DAA2
331
DAA3
 92
        2
303
Deutsch
 94
       13
332
DA96
332
DA97
332
DA98
332
DA99
332
DA9A
332
DA9B
332
DA9C
332
DA9D
332
DA9E
332
DA9F
332
DAA0
332
DAA1
332
DAA3
 95
        0
303
Französisch
 94
       13
332
DA96
332
DA97
332
DA98
332
DA99
332
DA9A
332
DA9B
332
DA9C
332
DA9E
332
DA9F
332
DAA0
332
DAA1
332
DAA2
332
DAA3
 95
        0
  0
BLOCKVISIBILITYGRIP
  5
DAAA
330
DAA6
100
AcDbEvalExpr
 90
       15
 98
       31
 99
      106
100
AcDbBlockElement
300
Griff
 98
       31
 99
      106
1071
        0
100
AcDbBlockGrip
 91
       16
 92
       17
1010
-155.1096586774657
1020
39.79678970574935
1030
0.0
280
     0
 93
       -1
100
AcDbBlockVisibilityGrip
  0
BLOCKGRIPLOCATIONCOMPONENT
  5
DAAB
330
DAA6
100
AcDbEvalExpr
 90
       16
 98
       31
 99
      106
  1

 70
    40
140
-185.9223999802425
100
AcDbBlockGripExpr
 91
       11
300
UpdatedX
  0
BLOCKGRIPLOCATIONCOMPONENT
  5
DAAC
330
DAA6
100
AcDbEvalExpr
 90
       17
 98
       31
 99
      106
  1

 70
    40
140
5.676767961064228
100
AcDbBlockGripExpr
 91
       11
300
UpdatedY
  0
BLOCKVISIBILITYPARAMETER
  5
EF6A
330
EF69
100
AcDbEvalExpr
 90
        1
 98
       31
 99
      106
100
AcDbBlockElement
300
Sichtbarkeitsstatus
 98
       31
 99
      106
1071
        0
100
AcDbBlockParameter
280
     1
281
     0
100
AcDbBlock1PtParameter
1010
-281.5221708216397
1020
44.80865832515482
1030
0.0
 93
        2
170
     0
171
     0
100
AcDbBlockVisibilityParameter
281
     1
301
Sprache
302
Sprache
 91
        0
 93
       51
331
EF23
331
EF26
331
EF25
331
EF24
331
EF2B
331
EF2F
331
EF37
331
EF36
331
EF31
331
EF2D
331
EF35
331
EF64
331
EF46
331
EF3E
331
EF61
331
EF65
331
EF45
331
EF41
331
EF39
331
EF34
331
EF30
331
EF2C
331
EF38
331
EF44
331
EF40
331
EF3C
331
EF48
331
EF55
331
EF51
331
EF4D
331
EF49
331
EF52
331
EF4E
331
EF4A
331
EF47
331
EF3B
331
EF54
331
EF50
331
EF4C
331
EF5D
331
EF59
331
EF5E
331
EF5A
331
EF57
331
EF53
331
EF4B
331
EF60
331
EF62
331
EF5F
331
EF66
331
EF67
 92
        2
303
Deutsch
 94
       38
332
EF23
332
EF26
332
EF25
332
EF24
332
EF2B
332
EF2F
332
EF37
332
EF36
332
EF35
332
EF31
332
EF2D
332
EF46
332
EF3E
332
EF45
332
EF41
332
EF39
332
EF66
332
EF34
332
EF30
332
EF2C
332
EF38
332
EF44
332
EF40
332
EF3C
332
EF48
332
EF51
332
EF4D
332
EF49
332
EF52
332
EF4E
332
EF4A
332
EF47
332
EF3B
332
EF54
332
EF50
332
EF4C
332
EF53
332
EF4B
 95
        0
303
Französisch
 94
       38
332
EF23
332
EF26
332
EF25
332
EF24
332
EF36
332
EF35
332
EF31
332
EF2D
332
EF67
332
EF2B
332
EF2F
332
EF37
332
EF64
332
EF46
332
EF61
332
EF65
332
EF45
332
EF39
332
EF34
332
EF30
332
EF2C
332
EF38
332
EF4A
332
EF3B
332
EF54
332
EF4C
332
EF48
332
EF5E
332
EF5A
332
EF5D
332
EF59
332
EF55
332
EF51
332
EF57
332
EF53
332
EF60
332
EF62
332
EF5F
 95
        0
  0
BLOCKVISIBILITYGRIP
  5
EF6B
330
EF69
100
AcDbEvalExpr
 90
        2
 98
       31
 99
      106
100
AcDbBlockElement
300
Griff
 98
       31
 99
      106
1071
        0
100
AcDbBlockGrip
 91
        3
 92
        4
1010
-281.5221708216397
1020
44.80865832515482
1030
0.0
280
     0
 93
       -1
100
AcDbBlockVisibilityGrip
  0
BLOCKGRIPLOCATIONCOMPONENT
  5
EF6C
330
EF69
100
AcDbEvalExpr
 90
        3
 98
       31
 99
      106
  1

 70
    40
140
0.0
100
AcDbBlockGripExpr
 91
        1
300
UpdatedX
  0
BLOCKGRIPLOCATIONCOMPONENT
  5
EF6D
330
EF69
100
AcDbEvalExpr
 90
        4
 98
       31
 99
      106
  1

 70
    40
140
0.0
100
AcDbBlockGripExpr
 91
        1
300
UpdatedY
  0
ACDBASSOCNETWORK
  5
DAD2
102
{ACAD_REACTORS
330
DAD1
102
}
330
DAD1
100
AcDbAssocAction
 90
        2
 90
        0
330
AEF6
360
0
 90
       89
 90
        0
 90
        0
 90
        0
 90
        0
 90
        0
 90
        0
100
AcDbAssocNetwork
 90
        0
 90
        1
 90
        1
360
DACF
 90
        0
  0
ACDB_BLOCKREPRESENTATION_DATA
  5
6ABA
102
{ACAD_REACTORS
330
6AB9
102
}
330
6AB9
100
AcDbBlockRepresentationData
 70
     1
340
2CD1
  0
DICTIONARY
  5
AFD3
102
{ACAD_REACTORS
330
6AB9
102
}
330
6AB9
100
AcDbDictionary
280
     1
281
     1
  3
ACAD_ENHANCEDBLOCKDATA
360
103A2
  3
ACAD_ENHANCEDBLOCKHDATA
360
AFD7
  3
ACAD_ENHANCEDBLOCKHISTORY
360
103A1
  0
ACDB_BLOCKREPRESENTATION_DATA
  5
E108
102
{ACAD_REACTORS
330
E107
102
}
330
E107
100
AcDbBlockRepresentationData
 70
     1
340
C31F
  0
DICTIONARY
  5
E109
102
{ACAD_REACTORS
330
E107
102
}
330
E107
100
AcDbDictionary
280
     1
281
     1
  3
ACAD_ENHANCEDBLOCKDATA
360
1039C
  0
DICTIONARY
  5
EDFB
330
4E0F
100
AcDbDictionary
280
     1
281
     1
  3
ACAD_XREC_ROUNDTRIP
360
10C19
  0
DICTIONARY
  5
EDF7
330
41D9
100
AcDbDictionary
280
     1
281
     1
  3
ACAD_XREC_ROUNDTRIP
360
10C17
  0
DICTIONARY
  5
121F
330
ACE
100
AcDbDictionary
280
     1
281
     1
  0
DICTIONARY
  5
25D9
330
579
100
AcDbDictionary
280
     1
281
     1
  0
DICTIONARY
  5
6059
330
1BD8
100
AcDbDictionary
280
     1
281
     1
  3
FBXASSET
360
605A
  0
XRECORD
  5
EE00
102
{ACAD_REACTORS
330
EDFE
102
}
330
EDFE
100
AcDbXrecord
280
     1
102
ACAD_MENTALRAY_SETTING_RT
330
65A9
 70
     1
  0
XRECORD
  5
EDFF
102
{ACAD_REACTORS
330
EDFE
102
}
330
EDFE
100
AcDbXrecord
280
     1
 70
     2
 71
     3
 72
     0
  0
DICTIONARY
  5
EDF9
330
4E0E
100
AcDbDictionary
280
     1
281
     1
  3
ACAD_XREC_ROUNDTRIP
360
10C18
  0
DICTIONARY
  5
EDF5
330
41D7
100
AcDbDictionary
280
     1
281
     1
  3
ACAD_XREC_ROUNDTRIP
360
10C16
  0
DICTIONARY
  5
3AF5
330
3AF4
100
AcDbDictionary
280
     1
281
     1
  3
ACAD_ROUNDTRIP_2008_TABLESTYLE_CELLSTYLEMAP
360
10C15
  0
DICTIONARY
  5
2036
330
107F
100
AcDbDictionary
280
     1
281
     1
  3
ACAD_ROUNDTRIP_2008_TABLESTYLE_CELLSTYLEMAP
360
10C14
  0
DICTIONARY
  5
25CC
330
25CB
100
AcDbDictionary
280
     1
281
     1
  3
AcadLayerStateAnnoScale
360
25CD
  0
DICTIONARY
  5
25C9
330
25C8
100
AcDbDictionary
280
     1
281
     1
  3
AcadLayerStateAnnoScale
360
25CA
  0
ACDBASSOCVARIABLE
  5
DAAF
330
DAB1
100
AcDbAssocAction
 90
        2
 90
        0
330
DAB1
360
0
 90
        1
 90
        0
 90
        0
 90
        0
 90
        0
 90
        0
 90
        0
100
AcDbAssocVariable
 90
        2
  1
user1
  1
1
  1
AcDbCalc:1.0
  1

 90
        1
290
     0
290
     0
 90
        0
  0
ACDBASSOCVARIABLE
  5
DACF
330
DAD2
100
AcDbAssocAction
 90
        2
 90
        0
330
DAD2
360
0
 90
        1
 90
        0
 90
        0
 90
        0
 90
        0
 90
        0
 90
        0
100
AcDbAssocVariable
 90
        2
  1
user1
  1
1
  1
AcDbCalc:1.0
  1

 90
        1
290
     0
290
     0
 90
        0
  0
DICTIONARY
  5
103A2
102
{ACAD_REACTORS
330
AFD3
102
}
330
AFD3
100
AcDbDictionary
280
     1
281
     1
  3
10
360
103A3
  3
11
360
103A4
  0
DICTIONARY
  5
AFD7
102
{ACAD_REACTORS
330
AFD3
102
}
330
AFD3
100
AcDbDictionary
281
     1
  3
10
350
AFD8
  0
XRECORD
  5
103A1
102
{ACAD_REACTORS
330
AFD3
102
}
330
AFD3
100
AcDbXrecord
280
     1
1070
     3
1071
       11
300
Sprache
  1
Deutsch
  0
DICTIONARY
  5
1039C
102
{ACAD_REACTORS
330
E109
102
}
330
E109
100
AcDbDictionary
280
     1
281
     1
  3
1
360
1039D
  0
XRECORD
  5
10C19
102
{ACAD_REACTORS
330
EDFB
102
}
330
EDFB
100
AcDbXrecord
280
     1
102
DISPLAYNAME
  1
Imperial24
102
FLAGS
 90
        0
  0
XRECORD
  5
10C17
102
{ACAD_REACTORS
330
EDF7
102
}
330
EDF7
100
AcDbXrecord
280
     1
102
DISPLAYNAME
  1
Metric50
102
FLAGS
 90
        0
  0
XRECORD
  5
605A
102
{ACAD_REACTORS
330
6059
102
}
330
6059
100
AcDbXrecord
280
     1
 70
     1
 90
2070111275
 71
     1
  1
7DF25468-CECC-494C-852B-98270A83ADF0
311
504B0304140006080800A75E6F453CC2A371D9000000200100004F00000030303433414237312D323041452D343733382D383645332D4434464544383132323638392F4173736574446174612F446566696E6974696F6E4974657261746F7250726F706572746965732E62696E454E3D6FC23010351D5A75E8C03F40ECC671
311
6C23110195121226BA94A90B3A9C83467212142752C78EFDD7ED590571D2BB779FEFEE8731F67B350AD988F04DFE85788B0D76957DB79F58037B0C15D71EC13DDD7B0F1486748327185C1FB67695B7E81C34D80E7E7C1F9DD4D0931CB859587A26DC0A3E289CFF8F85FB6F84F05260282FC92B788FFD4A9C8E5F42653A5779
311
A1792AB382EB6833E7693A573CCB172ACECDC26853880E7D3B7416BD884574B82A1F2ECDB92AD7CBBEAA71D2408DABA9ED907E2AA7EB38929A4BC9A5D94B99189548F3B11461F20F504B0304140006080800A75E6F45D804EB7C00010000300200004500000030303433414237312D323041452D343733382D383645332D44
311
34464544383132323638392F4173736574446174612F496E7374616E636550726F706572746965732E62696EEB606060F80F0540260323103700495E20ED9E9A975A94991C9C9C919A9BA8021430777133323531B3D075767576D635B13471D6B5303572D2B5B430323770B43076747133604768046931363471713532B5D4
311
35353131D635313332D475727372D13534373670367376B67474B5042A03DBCBA019D37FE8ABC6157B20CD04146B0062181F4C03F940F0C11EA29A8141C08141002C0426541C106CAC2CA046088033B02A030AC2157C6006F21A8018AAF50194E6010A610250382264E08660284CD9E98021862280A91564B406929A0FF62C
311
401E28B6F88038B83CB1243943D7A928312F2535052403520FA4E000C4E7807805AC4B0E2AA30A5781CAC0A51F00504B0304140006080800A75E6F4528BB58AF800100009E0500003D00000030303433414237312D323041452D343733382D383645332D4434464544383132323638392F536368656D61732F436F6D6D6F6E
311
536368656D612E786D6CBD544D4FC23018BEFB2B96DE15493C78601010A34B880709DEDFB52FD0D8B54BD70DF6EFED3AC0B12E6442E2716BFB3CEFF3D18E26FB440405EA8C2B1992E1C323095052C5B8DC842437EBFB673219DF8DA659866649B798C078B48AE6410122242F2A4994AC7F93815DF85C049C8564CA0A901499
311
DD886B2EB9B1E02448F358701A9235880C49A0119892A20C89D1B9FD768815CAD268CB5E0355B40B1E47F3E37A2020464BED06AA57CE8FCC20C3C3446D46761A2632A8C1283D07031EFF2AE7CCB1BFEEE916E406DFAC8E36FFD99A9D60A6944090EEDC3B670C7DC13DE86B6B2C5C240D6E503BB85ACD579D513F1B9F9A69DC
311
9CC22AFA80C426D40AF0B21EA168559156B6276F0F726A6BFF04DCD513A87A62CAD41FB24FCB2858B3952E3D852084DA25B9303C15687973CC8E8AAE11DF2836C38C6A9E765E8C1BA1BFB1DC29CDFE518C8B5A7655A4ED7E77291ABEB80DBD82EC866ADE1B8D05AF9E35CF09D7A061F38A986D9EC412B8F0F65E5D81534D9B
311
231D1E5A8FE577A241F3A5FD01504B0304140006080800A75E6F452CCEBD668A040000E01200003E00000030303433414237312D323041452D343733382D383645332D4434464544383132323638392F536368656D61732F47656E65726963536368656D612E786D6CD5586D6FDB380CFE7EBF42F0F7A649B70E1B90744856
311
B4970F450FCD7A5F05459613EDE4174872DADCAF3F522F8ED3B88D2F1D06AC4050DBA2493EE4438AF2F8EB73AEC8466823CB62928C06C384888297A92C5693A4B6D9D9E7E4EBD51FE3A931C22EF85AE4EC6AFC38BF261BA626C9AD288496DC3F4FCEAFC63366845F7A10452AF41DB320C0D44EC26EAB209187355655826956
311
70811A6A49643A49A6E9069FA4604A64B29016DC4B48552F95E4932463CA888468C1D2B250DB4962750DF7CE273069CE8363F1FF4EDB00E0A21999574AE4A2B00C353B93F3BD4777B8A61ED8F604ABFEDD79CE56A2B7BDFBDBC50996E0ADDE16FED26223C5D30956C29BDF4A55EA686E5E58B112DA45CE67F76F4FA27EFA3F
311
B672FD7372FC388FAECDCA5209E693CAD167BADCD272F943701B3812F8A3D852008B1D2E32DB927B2F833C6EA95879925356D254582695095A3CE982924720BE5774A3CB9CDCDB350427D2DF20DA1B5532EBE2D5D6288D75D4F7E4FD9890A0EF8E3D93EBB8F8BA4758158EF6FB90A6F9520281C93DE7AAC6D24607DA296BB9
311
6018123F821A7D6A5C5884050C475DA4865442732C8B95684A50165CBB3A32F25F783A4A480ED59AD7F924B968AEA50131F46303223E6A397B0E52976030DC1DCA81D7E7C1EDEEA42C19FF27635C505E2BD5198A599020DF50A2330FCB3AAF28CB0124108429553EF1B228802E2265D8F7CC2401042B155BCC7070F1E5C55F
311
13B4A9577362CCCE46C32174E010C3C378C44841A4BDA00FE3A12006CE11EE6AEC59894D3526DDE1CD59D503ECC324017F8061B7F162162FA62EDD81AE3308617770796DCBDAD2B2625C5AE8A63DE20B2C8AA5E95E76E5730823955956E33E705425A2187C185D36489A1B44D3DCEC2172F6BA2105C3546287A7194B233176
311
8EBBE64F6E70A9930ABE0ADEA89E9E2C38523B810287AD67A54A039C1606EAFE68F8304610BB9093DBDDABC0B2AE4E290DCDA15376D7E39F72B556F0B32EAB5D3D498B4C41ABADEC3A1434C422D87E8025A84BDCB2B1417ED750FAE4DA8976863974C577C7F902D3F156AD354DEA3540DE6BEAE2BEA52F7A2EB4CA43802ECE
311
5BF2CE2EDC9347179FFB023CE412E60BE16DA0BE29B374988A553F561DC04615DD35F7D2C8979F60E5955CE93DF29DED8AFA1EE6642D53418086C03C47C377910F75F7E8F5EF665F70B60FFB22AEDF897D119E8423C773E819A3C1E55E550599EE6EDCA34D0C86FD72057DF2CD46F16A470682471C164E4346D5306BF12D7D
311
12D82CFF673D41636C347443FEB51B50D72EA171A8E4A58623A4A16E0FA2B8B10A0D23268D87C33896EE8FB73305A74BF224EDBADFA0BD674AB354D63DB7BD5D83426761C077DE767728235446A552754EB93B755891C3C4CC6CADE37CF0E912A7BB38DBA010F9DE1282EDF470CA69A9CDA482E334C4A6EA4107987980B17E
311
72F31730EBF88BBD39E7C629F56797A3C0009C2C5AE7951D9A05A02773440F02EEB4DE396A3B6A570C72CCFBCD823B0B8ED3F1D5CEDDFED772FA70236C83FB7D86C385D570B87107535572A60A96035F8F7C6A7192F13007246BBE0521855E6AC46F3E27689CEE7D186A6FD679D98CDCAD13333E04EBE7ED6F55FF01504B03
311
04140006080800A75E6F456180134D5F0100006B0300004500000030303433414237312D323041452D343733382D383645332D4434464544383132323638392F536368656D61732F52656E6465724D6174657269616C536368656D612E786D6CA5934D6FC2300C86EFFB1551EEE343DBA41D1A103009551ADAD40EAE28A4A6
311
8D9426284961FCFBE5A340113B2071746D3F765EBF4DC6BFB5407BD0862B49F0B037C0082453059725C18DDD3EBFE3F1E829991803366715D474942CD30FB4A782E00C64017A412D684E454CE3FE28995203B162A6EA5AC94B66997D225E109CD63B0135484BAD1B3C07E9080CA35DB3119C11BCA5C200461A68A1A438126C
311
75E3E230D40FF81FB3F03C91D1E3A3A0AF79FE28E25BC39EC3E17E4C2A2D94A0833A51AF55BCCA7D88572FCBAC529C4140B020FC3AAFA886621DCED7EAD7664CC86024E806DC297DA1BB393E4156543457A4537DB8817349A70F8ACBF09B3EEE2CB2F33E91B65D60786E4E3B39B77E3FEEEF5650424525DA657FB8B46BE6BF
311
064646F0A0F7327C0BC1BC1B4CBBC1C419FA3CCB23500007872A2580CAAE5461865565294E4EDB4617B62FF579DF9A5B2F54E834076A597573A020912FED777F9B3F504B0304140006080800A75E6F45D621868A51000000570000004700000030303433414237312D323041452D343733382D383645332D44344645443831
311
32323638392F4173736574446174612F41737365745461626C654F66436F6E74656E74732E62696E5361606030777133323531B3D075767576D635B13471D6B5303572D2B5B430323770B430767471331002AACB4D2C492DCA4CCC492C28484D2C4ACC4B4E050A82012F90744FCD03CA26072767A4E6260200504B03041400
311
06080800A75E6F45F865834058000000680000004500000030303433414237312D323041452D343733382D383645332D4434464544383132323638392F4173736574446174612F53747265616D56657273696F6E5461626C652E696E66558CBD0A80300C06F73E4B117FB66E451741D041DC5BF98480A492E4FDD18EAEC7DD
311
4555D89EF28DF51A0B1BD8340C4DE7DD848B988C0ACF0649566493F2408C508DDEBB99D5129FF8F1AF8CF5B9503E20FAE5A16B5AF702504B0304140006080800A75E6F45E61D920B340100009A0400003600000030303433414237312D323041452D343733382D383645332D4434464544383132323638392F417373657444
311
6174612F636E782E786D6CCD94314FC3301085FF4AE43D760D544295E30AC1D209242A06B6AB7369AD3A76645F10FC7BEC3403A888A943D7F3BBF3F327BF53EBCFDE551F18930DBE61922F5885DE84D6FA7DC346EAEA7B56ADB58A21D00F19AB3CF4D8B052665AED631887B9D46207A32B5567FD712E3EA484B4859DC3E7EE
311
3178424F8955C6414A0D4BE6803D701829B4988EBC05022E79C414C668304F22DBE33CC94404C296E99B85BCABA5ACE5722BE56A79BB92CB77258A52AB5D086ED6DB7C590C43654EB732BD50A21C6B35463B6BCA5B98FECB23DF59AF44566A9528662673077D0DB90386C1590394D1896008A9CE22845E8993582B5118FC22
311
F1849DF5B6B46CB231A0105FB23D8C64F1EA88FCE7F5F264363E117883D7CBE3DCE1E529BC4E3FE8ED14C82931D796937387DCFAEE022911D31AC9A1295B457F03504B0304140006080800A75E6F450646A495070100004F0300003400000030303433414237312D323041452D343733382D383645332D4434464544383132
311
323638392F536368656D61732F636E782E786D6CCD93314F04211484FF0AA13F58D44DCC85E50A0B2B1BB5B2437877470E781B608DFE7B61A5B84BECB4B80E862F646678C8DD67F0E403527618272AD840094483D6C5C34497B2DFDC53B253322196338C92A8034CB4C954C943C265EE9285BD5E7C53BD8BA72E3E6008185F
311
CC1182A6C4789DF344F3BA657A2968219F98D54533C112645C92817A437101FA0D26812E60A9BA19C4DD46888D185F85D88EB75B31BE49DE4825DF117DE75D2C90702606EB22563B83E4ED58C925B9CEB40C549D7B63B50DC92BA1642EA976D0C9F2355752CFB37746975A155FC11F4649DEA25E047E8408C999EB4C7C61EE
311
DF223F43B4909EEA2B25A7FD7526FFCDE3DF0AE0EBECD711685F417D03504B0304140006080800A75E6F45410A3D5871000000A40000002C00000030303433414237312D323041452D343733382D383645332D4434464544383132323638392F636E782E786D6C55CC4D0E82301086E1AB34B31774E7A22D31F1069E600203
311
34B633A63FC6E34B0909B07DDE2F9FEE7EC1AB2FC5E4840DDC9A2B28E25E06C7938192C7CB1D54677514C9871928C640062A83D55394F2D968A0118BAFEA1DBF377CA444F98919176EAB9FEAAB9F2960DA5BBB1E2ED3FA6FFF504B0304140006080800A75E6F451DF173DC7E000000A300000007000000636E782E786D6C4D
311
8CDF0AC2201C465F457EF796FFD80CD4B198BDC7686E489B86CDE8F1D3D845571F1CBE7354F7D956F476E9E563D0404F04900BF738F9B068C8FB8C25A0CEA814E3FE770314C6CD69A8188C5A52CCCF034D6E1EF35AE9EAC3E3808408DE5F5B8A19E92D162D97583696E341DCEC2029638DBC14E35C9532BF5ED99A375F504B
311
0304140006080800A75E6F4516E99B5DA600000035010000130000005B436F6E74656E745F54797065735D2E786D6C9590410E82301045AFD2740F4517C6180A0BF5065E60AC53688469D30E066F6F91AD9AB89CF9FFFD3F99BA9DC7413C3026E749CB4D59498164FCCD51A7E5C4B6D84BD136F5E5193089ECA5A465CF1C0E
311
4A25D3E308A9F401292BD6C711388FB15301CC1D3A54DBAADA29E38991B8E0254336F5092D4C038BF39CD76B6FC6A538AEBEA54A4B08617006389FA516557DE4AE8E7E70DE30729138228C5F021CD93F02D4FB0DCD0B504B0304140006080800A75E6F453DEE336E64000000790000001B0000006175746F6465736B2D6465
311
7369676E2D7061636B6167652E786D6C35CBC10E83200C00D05F21DCA56CA76D41FC96062B120735B69A7DBE268BB7777961F8D5AF396893C2ADB70FE7ADA196782C2DF776D7A97B5933C430F15651E5469C55D70F80A4992A3ADC954792C525AE70A1E4D6AD9816CC044FEFDF01FE3FDE907802504B0304140006080800A7
311
5E6F455B417041F7000000960100003700000030303433414237312D323041452D343733382D383645332D4434464544383132323638392F4173736574446174612F636F72652E786D6C8550CB6EC32010FC156BEFD8C106378E3091A3F40F7AEA0D01715162B07854FDFC42EC4AEDA9A75DCDCECCEE0E3B7F2D8FEA53FB60
311
9C1D01D707A8B4954E193B8F90E20D1DA13A73E69D8BBF685059B1E8110A0C9CCDDEA57587A4B351DB825AA7F40E8A1074844A3E723342901F7A11B5483133C2BD5E85BC8B59D7B8DE789CA564D42E352ABB999BD11E38212D19F040D0855E3B44A6AE47C3D40D68A0B87FEDE9CBA52747D6143167D12C3FDBA5D7226A05BC
311
3D6082304698BE617CA2DD09D377D614266721FAFCF3BEB47C077C2A575F4514ACD9A67F5CD3AAFE774DC6C6AEDD5D3745008EF391CF01674D4929976784B99644F937504B0304140006080800A75E6F458CB8B5F3F6000000940100003500000030303433414237312D323041452D343733382D383645332D443446454438
311
3132323638392F536368656D61732F636F72652E786D6C8550CB6EC32010FC156BEFD8C106378E3051A2F60BDA536F08888B1283C5A3EAE7176C576A4F3DED6A76667677D8F96B7E549FDA07E3EC08B83E40A5AD74CAD86984146FE808D59933EF5CFC4583CA8A598F5060E06CF22E2D3B249D8DDA16D43AA5775084A02354
311
F2919B1182FCD0B3A8458A9911EEF522E45D4CBAC6F5C6E32C25A376A951D9CDDC8CF6C00969C9800782AEF4B943E4D2F568B874031A28EE5F7AFA74EDC9913545CC5934F3CF76E9B5885A016F0F98208C11A66F189F6877C2F49D3585C959883EFFBC2F2DDF017F5DEF0CACD9667F3CD3A2FEF74CC6C6AEDD3D3745008EF3
311
89EB80B3A66494CB1A60AE254FFE0D504B0304140006080800A75E6F45CC10114902010000D70100002D00000030303433414237312D323041452D343733382D383645332D4434464544383132323638392F636F72652E786D6C9591CB4EC33010457F259ABD93388F36548EABA2862F60C5CEC4D3D46A63477E203E1F9B04
311
013B58D9BA3E77C677861DDFE77BF686D629A37BA0790919EAD148A5A71E82BF900EB22367D618FF03834C8B197B483270365913964D1A8DF6A893AA8DC44D14CEA1876CBCC74B0F6EBCE22C72117C24DC2D5FC4781313E6345F39CEBC9ABFACA345E15102AF4ADA104A096D9F293DB4F581B62FAC48246741695F575B339C
311
5F516666F13112F09615EB6BA482921BA364FCA3BA28B4C0CBB2A94F8F7B4AAAF23490665F77A4DB0D3539374FC3B9A355B5EB1E629168E6CC791B27B3154933F8AB7D35FE4A1616F9CF64ABC301A7DFA18A3466CE8ACF1DC433AD847F00504B0304140006080800A75E6F45A590D18906010000B201000008000000636F72
311
652E786D6C8D50416EC32010FC0ADA3BB6B1C18D234C94A8FD414FBD51435C141B2C0351FBFB42EC4AEDADA74533B33BC3F0D3E73CA1BB5EBD71B607525480B41D9C3276EC21862B3E003A09BE3A177EC9005939EB1E320C828FAB8BCB0E0DCE066D336A9DD23B28BDD701D030A5470F7EF8D0B32C640C49E16FC522879B1C
311
75418A4D277830F3CFEAB06A19B40251578462423061AF841C597324EC8D975929788C46ED5646257773357A0541694D3BD2517C61CF0DA6E7A6C5DDB9E970C748FBD2B2A74B4B0FBCCCCB82FBB0A63FEF4752CE80BCBC675F5E6E94E0EFCE4DBB208552C8D9E90B44C5CB4CFC091D17F58FD0C686A6DE0F6E1B1E0449811E
311
4432CE0DA6F1A837CDDCB6F806504B01021400140006080800A75E6F453CC2A371D9000000200100004F000000000000000000000000000000000030303433414237312D323041452D343733382D383645332D4434464544383132323638392F4173736574446174612F446566696E6974696F6E4974657261746F7250726F
311
706572746965732E62696E504B01021400140006080800A75E6F45D804EB7C000100003002000045000000000000000000000000004601000030303433414237312D323041452D343733382D383645332D4434464544383132323638392F4173736574446174612F496E7374616E636550726F706572746965732E62696E50
311
4B01021400140006080800A75E6F4528BB58AF800100009E0500003D00000000000000000000000000A902000030303433414237312D323041452D343733382D383645332D4434464544383132323638392F536368656D61732F436F6D6D6F6E536368656D612E786D6C504B01021400140006080800A75E6F452CCEBD668A
311
040000E01200003E000000000000000000000000008404000030303433414237312D323041452D343733382D383645332D4434464544383132323638392F536368656D61732F47656E65726963536368656D612E786D6C504B01021400140006080800A75E6F456180134D5F0100006B030000450000000000000000000000
311
00006A09000030303433414237312D323041452D343733382D383645332D4434464544383132323638392F536368656D61732F52656E6465724D6174657269616C536368656D612E786D6C504B01021400140006080800A75E6F45D621868A510000005700000047000000000000000000000000002C0B0000303034334142
311
37312D323041452D343733382D383645332D4434464544383132323638392F4173736574446174612F41737365745461626C654F66436F6E74656E74732E62696E504B01021400140006080800A75E6F45F865834058000000680000004500000000000000000000000000E20B000030303433414237312D323041452D3437
311
33382D383645332D4434464544383132323638392F4173736574446174612F53747265616D56657273696F6E5461626C652E696E66504B01021400140006080800A75E6F45E61D920B340100009A04000036000000000000000000000000009D0C000030303433414237312D323041452D343733382D383645332D44344645
311
44383132323638392F4173736574446174612F636E782E786D6C504B01021400140006080800A75E6F450646A495070100004F0300003400000000000000000000000000250E000030303433414237312D323041452D343733382D383645332D4434464544383132323638392F536368656D61732F636E782E786D6C504B01
311
021400140006080800A75E6F45410A3D5871000000A40000002C000000000000000000000000007E0F000030303433414237312D323041452D343733382D383645332D4434464544383132323638392F636E782E786D6C504B01021400140006080800A75E6F451DF173DC7E000000A3000000070000000000000000000000
311
000039100000636E782E786D6C504B01021400140006080800A75E6F4516E99B5DA6000000350100001300000000000000000000000000DC1000005B436F6E74656E745F54797065735D2E786D6C504B01021400140006080800A75E6F453DEE336E64000000790000001B00000000000000000000000000B3110000617574
311
6F6465736B2D64657369676E2D7061636B6167652E786D6C504B01021400140006080800A75E6F455B417041F70000009601000037000000000000000000000000005012000030303433414237312D323041452D343733382D383645332D4434464544383132323638392F4173736574446174612F636F72652E786D6C504B
311
01021400140006080800A75E6F458CB8B5F3F60000009401000035000000000000000000000000009C13000030303433414237312D323041452D343733382D383645332D4434464544383132323638392F536368656D61732F636F72652E786D6C504B01021400140006080800A75E6F45CC10114902010000D70100002D00
311
000000000000000000000000E514000030303433414237312D323041452D343733382D383645332D4434464544383132323638392F636F72652E786D6C504B01021400140006080800A75E6F45A590D18906010000B2010000080000000000000000000000000032160000636F72652E786D6C504B05060000000011001100
311
5A0600005E1700000000
310
504B0304140006080800A75E6F45000000000000000000000000370000006662782F37463041324144352D453238412D343044372D393242412D3034384432413245373641382F617474726962757465732E62696E504B0304140006080800A75E6F45000000000000000000000000350000006662782F3746304132414435
310
2D453238412D343044372D393242412D3034384432413245373641382F76657274696365732E62696E504B0304140006080800A75E6F45F270F1330600000004000000360000006662782F37463041324144352D453238412D343044372D393242412D3034384432413245373641382F747269616E676C65732E62696E6366
310
60600000504B0304140006080800A75E6F4551464CB48900000043010000360000006662782F37463041324144352D453238412D343044372D393242412D3034384432413245373641382F6469726563746F72792E786D6C9D8F310EC2300C45AF127987122606C71DD918B841D4B851A43646695A717C52A85029031293A5
310
A76FBF6FACEF7DA7264E43906840EF0FA03836E242F406C6DCEE4EA06AC22492573150D1F66C60C640E8938CB705396EEDD86DE9B5042FE27813D640EA63BB001C722AF6E55CB61E4863F58284D5D3F53DD715CE1C3985E63FD7F1B7EBDD617E9F1E504B0304140006080800A75E6F454F02056E3E070000201C0000340000
310
006662782F37463041324144352D453238412D343044372D393242412D3034384432413245373641382F6F626A656374732E786D6CDD595B6FE23814FE2B56F665F721242140614419B5504668D499D1A059ED5B6482A1DE3A1739494BF7D7EFB16387380D90CE455A6D2B15EAD8C7E77CE77E327D7F88187A223CA3497C6D
310
793DD742240E932D8DF7D75691EFECB185DECFD09427495EDB67A11847E4DA12CBD66CBAE74991AAA52DD9E182355797B77FA12C2431B150C870965D5B59F84022DCC3459E6C49F6D8DBE21CF7F6BB43CFEB951B4DB27B8ED387C65529E624CE8155588F818AE2C033FF05919CD9D4111B8C6D7EB76DFD33DB1C29B8C9288D
310
B31CC7E12BAE1AD7F54F70D5B8CEF7068BBBFE70620F0703DF1E8CFA9E7DBBBC5DD8DE95EFCE47F3F9E4E66E62A1D9749324AC52404AE22D68F1C59A7953473CA9C45728B4F11D26714C428566DB862D517429C99A9818C07A52B49A424A596B0B7E47E14F6CEB048AC19281B6164E7FD6AD37D9FC0D20645DAC9467445879
310
9673D0B5C2BEF40777EA94AB865E6886229C134E31438C6E38E6A020D85A2AC82023BC4590420233A9454DAFCE2B18F6655F6AE372573026FCD79A494F0BC01F499E49CEE83F841FB9AFDF063C81B4058DF3B112367F4981C464EAC8C5F299DF570F4B20D18EE13D580B882936F9FD065E73110B560B6BF671B939AC457C68
310
BF3CE5494A782E2C4F3AB3F23BADC19A6981F17500A5C4D5D4DD1195AF00FD2740BEE2054D41739C1E068781969DE338DB253C02ED2017D92EFC7191F8FAEADBD4A90ECF103262E5294CC16D7F12A68618C6DD354867D32730FA84FB4AB8758819D8F43D8D859F83A12096C012C4FBDDE660CD56104C61114E6106D2C3EFD4
310
115F117C947420DE3434D4167E3B284A3B4CD3CF8EBAFA0036C36958A9CA90F114BEC39F82EFCD62FD715DF01D0EC9BD72EC05D9D198E6904CDB193240375CFEDBEA93F4C80F2CD960763C6D6C0AE19A7D22E2468B5AD64A2D48EA05381169B8D48C5CB9A7E0ED8CE1982445A6D6DBE25498B084079B97A074E1D6BBFED436
310
505EA60CA0359641720F394D0526D64C69AB0A84BD9AA06061982B0BDC975A0D36459406384A8A5884DAD7A6D8E403E28CB044A02AA969C3D65EABC96EE96E576410BC5A49CE0D20953F6BC2A5850F208EB5F1CBC98E6348A2491C50C8C1E02CAD37181754E09DE739236C1750C68A28D85106792488707A827E4709EA99EB
310
91BC3C277CDB4AD0B42CED93DA8604E00A580D92CE5665CC573AE5E4898A3253E6339D0D8C1DAA0EB5668313E942648A1640B5314A33BF5A2CFBC3C1686CCFEFE6737B3019CCEDF1B07F6B4FC6FD2BF766ECDF2C96472B91081CA3553DDF812A459963F85FFE50449B1853060F84D8789BBE7B2FB3E7B503A1D1F1E7833BFF
310
6E39B06FBDF9D21EB88B917D7B3BF2819589DFBF1B4E8683E1D2E1244B0A1E92CCE93B6EA04D328DF74DF42EC750286B2E273BADAFA630FFE318DACC098612FFAB41B4B2CA9682B06B1015479B2114878F22450521547DADEED308A24D3EDAE2DC1BE3B2DBF35DF9E37993BE3BE98F27A3CAD8CF066A79CF0FC7B9360942E8
310
3B8B3C48521CD2BC3DA13670E918A7DF945B7ABE3744804EF5B7BAE47C9E51970434C27B12ECB0E8125A02E325095A73D89E2559466392C92EEF55F5D7A0E9F6A09832736E8B11D22C88488EBFC7FE64DBD0B06988CD2C807E341713818B554165D0AA0339455174BF90B8A5FC2F4186A394959DEE250CBCBE8640F7386D16
310
279816573C81BD05380FDC2D91838B4BD42BF6757DD0AAB526F5C977933F018FAE6B7E213CFA8AEEA5536FE84DC4CF1882CA68E8F9575A1197B0D257E5A28F6305749EE14BF04CE8FEA153A1D94D27B592AD2CAA7312411B8BF38277F2D7D1D07D75918A0B0D87A8DDF4C6E250F66FBA8303F4640377AABCAD5D0375288D61
310
CED549905752B49AB0D4859CE989D1D51BFCFAACB2EB547F385EFEF28AB9EE7C911CFE5CC601AAE53200ABE863D4D4AD55B7510F65CF380F2190AEE5A77D0B1EB125DB636366906B2BD1759D7AA97A5E89801AC1C4168B387B2FBEB0AF18540DDD73E67C288B36A75C5F89C4D683E1F4910F836993D6E70FEB061558E97CFA
310
8BC0883C3728A8D5B9E886CF90FAB63AF6FC0D0A4AA26FAB33C7FF131D8556606D8C06D3E02C611486F2648BF62481EC0D63870EDD068F4826B33218AF0A52FA8D4087D34FE54C35C71BA64F870F1806D34CF56245084351C898D7965A47BFC118544C22E570AAF7086D988A61162A38BDB6C062730ADD566F03E32C393C94
310
D41BE34A706C1CEF45BE2F4F55FF1F8F0974202A1DE5AAF674C1454966381314B6A97C4F00555FF96036FD7ED1353B08E7F07553E49530C785A3340A04FD42A0140EA67E8F0ADE031414E7E5F27A728F0149A7C9FC593B28A9DA39E67B395EAFE17DB3F8E288C9F8EA334A59B117EA3CD7FD1A946CD175B3A29C424DC13094
310
98291635E4FC9DF38527F08A29424B0A46807E3F8C477F38F3248A92B85C726ED48B2AB47E80D74E5B478FFCA08D77BDA123A7006AAC1F6C70467A789B3DC202A89653311B2D21360CA08AA63503D01A11BA8063C6FED502A9DAA83621A9875D018F9CE9237024F12E47B84D7D436D0009BE005CC987C72F7A61EA701882CF
310
FE05504B0304140006080800A75E6F45F54771E63C01000046050000300000006662782F37463041324144352D453238412D343044372D393242412D3034384432413245373641382F636E782E786D6CCD94C14E032110865F85705F286A13D3B034F1E0137830DE5876BA6259D8C060ECDB0B755B35A6C643937A23C33FC9
310
FFCDFC19B97E1B1D7985986CF02D156C410978137AEB879666DC34B794AC958C21E01719255E8FD0D25AA64A0E31E4692EF5B0D1D9D5AAB37E3B173562B45D46489418A7536A6932CF306AA633861ED296F51A35132C420A391A28FD684798FB4D048DD05375B510378D108D583E08B15A5EAFC4F249F2AA54B20BC1CD7AEB
310
1162988809E5E18B9985E4F55BC91CEDACA904547D3A639DF592977F255371EB875987BBA9EAA6C959A3B18C890783804D11811E25FF102BC92BEF37EAFBBBC78303D2DB080643DC5D6800E2D4008EC65849C2DFF8F7C2DFB143F752702FB5ED93B0B3ADB3A11ED29A4A5C7FEEBFA448FBC1FDBFD01F8D9D3FF3E594A035FF
310
0FF9E0EB4CC47C7FF2CAD2EB0554EF504B0304140006080800A75E6F459BEE28DF7E000000A30000000B0000006662782F636E782E786D6C4D8CD10AC22018465F45FE7BCB64A5C174FCE17A8FD1DC909C0E9BD1E3A7B18BAE3E387CE7B4DD67F1E46DD3CBC5A0E07460406C78C4D1855941DE262A8174BA4D316E7F372061
310
58AC828A41B7738A79DDD168A721FB4ABD0BCF1D8A3B438EE64C7B2E9136CC087AE537A4AC918623EFC50565318E5529F3EB95AD79FD05504B0304140006080800A75E6F45A6D797065F0000008200000007000000636E782E786D6C4DCB3B0E80201045D1AD90E9FD7516806B51190811670C8A61F982B1B0BAC9C97B72CA
310
7B1037C6D3332918DA1E04D2CAC69353902EDB8C20262D23F3F59B81A079470595414B17391D1F19B4730A5583A7ED43BBE4025D9592775E5ADFFA01504B0304140006080800A75E6F454FEB6A7CA0000000F4000000130000005B436F6E74656E745F54797065735D2E786D6C7D8F4B0EC2300C44AF1279DFA6B0400835ED
310
02B8011730C16D239A8F121795DB93D02D6269CFBC19BBED573B8B17C564BC53B0AB1B10E4B47F18372A5878A88E20FAAEBDBD032591BD2E299898C349CAA427B2986A1FC86565F0D122E7318E32A07EE24872DF3407A9BD63725C71C980AEBDD080CBCCE2BAE6F5D69B7110E7CD57AA146008B3D1C8F92C5954F993BB1BF7
310
87F39A89ABC491D09600F9FDA2FB00504B0304140006080800A75E6F453DEE336E64000000790000001B0000006175746F6465736B2D64657369676E2D7061636B6167652E786D6C35CBC10E83200C00D05F21DCA56CA76D41FC96062B120735B69A7DBE268BB7777961F8D5AF396893C2ADB70FE7ADA196782C2DF776D7A9
310
7B5933C430F15651E5469C55D70F80A4992A3ADC954792C525AE70A1E4D6AD9816CC044FEFDF01FE3FDE907802504B0304140006080800A75E6F453E4E4E3DF8000000960100003B0000006662782F37463041324144352D453238412D343044372D393242412D3034384432413245373641382F7265736F75726365732F63
310
6F72652E786D6C8550CB6E833010FC15B477438C834A22E32880FA053DF566990DB5126CE447D5CFAF1DA8D49E7ADAD5ECCCECEEF0CBD7F2283ED1796D4D07B43C408146D9499BB983186EA485E222B8B336FCA24161E4821D6418049F9D8DEB0E296B029A8C1A3BE10E4AEF3140A11EA9E9C0AB0F5C642963480C7F2F57A9
310
EE72C692961B4FF018F5B44BF594DCF44DA303D19EC6767C61AF64607D4F8E43DF906BCB28A9C7FED0B2E17A1A869157592C78D0CBCF76E550069C40D4077A249412DABC517A6ED89936EFBCCA4CC17D70E9E77D69FE0E84436FA353E879B54DFFB8C675FADF356A1358BDBB6E0A0F82A6239F03C1AB9C522ACF0853CD898A
310
6F504B0304140006080800A75E6F459D311C38F2000000B1010000310000006662782F37463041324144352D453238412D343044372D393242412D3034384432413245373641382F636F72652E786D6C8D50CB6EC32010FC156BEFD886D8B51B61222AA75FD0536F08130725068B47D5CF2FC4AED4DE725A343BC3CC0E3D7D
310
2FF7E24B39AFAD1900973514CA483B69330F10C305F5509C1875D6863F34288C58D4001906466767E3BA43D29AA04C468D9DD40E0AEF558042DED363002FAF6A11A5882131FCAD5C85BC895995B8DC788C06BDFC4AA55322A80918A971833046B8FDC0F8D81E8EB8FDA45566321AA39E762B3D25777DD1CA01EBDE6B4EF8D8
310
A233E9396AEAB143AFE48DA3BAE947C2C9B97BE13DADB298511F5CBA79FF245FF7AC7C13FECB1CD7E989CCDA8403D90D37850786539EC782D12A1798C6A3DD3473D9EC07504B0304140006080800A75E6F457478F10053010000DD0200000C0000006662782F636F72652E786D6C8D525D6F832014FD2B8677B468CD6C8334
310
55B35FB0A7BD51A48E54C12098FEFC811F713EAC5B4C909C7BEF39F79C802FCFAE0D46AE07A1640E50780001974CD5423639B0E60E33105C08D64A991F6D2090B4E339F03020B8D1CAF60BC494345C7A54AA9A2F201D066E40C05A77C9C1C0BE7847436A8DEB181E614FD983363C44E1DC47B0B5A25E4645EDD8C45D700D48
310
76AAB2EA2D7987655214F0581629BC66098271551CB2A4BC9ECAB2C2911F26D8886E55679A53C36B40E2033A4284204A3F103AA7C919A59F38F29D040F463BCF8BA87707C8FDF6C4D18CEFF86C5FFFCD67853449BCF0CD130320C8AD3715088E7C3EEE3785B7CFD009BBFC0CBDB5AB85878346CE8CD24757A995DD4A236D2D
310
77D48760FA7034571DF344F01B4FFC82E735870B8ACAC6AD468DBBDEACF1EAFB9D7AAEE1689E8154BAA3EDB6DCBCE2766E423B4BEB3853ADD2FF995EADAE6146FE61926F504B0304140006080800A75E6F45C6570F3207010000B201000008000000636F72652E786D6C8D50C16E842014FC15F2EEA8E89ABA1B64B36AFA05
310
3DF5468175C92A18814DFBF785D526EDADA74766E6BD19869E3FE7093DD4EAB4352D90AC00A48CB0529BB185E0AFB801746674B5D6FF9201327C562D2418181D571B961D12D67865126AAC543BC89D531E9098E2A305276E6AE6190F3E2ADC3D5BB8B8F3516524DB748C7A3DFFAC8A5571AF24B0B220074C0826F51B21A7BA
310
3A91FA9DE649C968085AEE565A46777DD56A05D61C876678A95E715F751D3EF45D8D2F4D457039744553F59763DF0F344FCB8C3ABFC63FEF47624E8F1C7F245F9A6F14A31FD64EBB208692C89AE90B5841F344FC091D16F98FD0DAF8AADC0F6E1B0E1889819E44344E0DC6F1AC37CED436FB06504B01021400140006080800
310
A75E6F450000000000000000000000003700000000000000000000000000000000006662782F37463041324144352D453238412D343044372D393242412D3034384432413245373641382F617474726962757465732E62696E504B01021400140006080800A75E6F4500000000000000000000000035000000000000000000
310
00000000550000006662782F37463041324144352D453238412D343044372D393242412D3034384432413245373641382F76657274696365732E62696E504B01021400140006080800A75E6F45F270F13306000000040000003600000000000000000000000000A80000006662782F37463041324144352D453238412D3430
310
44372D393242412D3034384432413245373641382F747269616E676C65732E62696E504B01021400140006080800A75E6F4551464CB489000000430100003600000000000000000000000000020100006662782F37463041324144352D453238412D343044372D393242412D3034384432413245373641382F646972656374
310
6F72792E786D6C504B01021400140006080800A75E6F454F02056E3E070000201C00003400000000000000000000000000DF0100006662782F37463041324144352D453238412D343044372D393242412D3034384432413245373641382F6F626A656374732E786D6C504B01021400140006080800A75E6F45F54771E63C01
310
00004605000030000000000000000000000000006F0900006662782F37463041324144352D453238412D343044372D393242412D3034384432413245373641382F636E782E786D6C504B01021400140006080800A75E6F459BEE28DF7E000000A30000000B00000000000000000000000000F90A00006662782F636E782E78
310
6D6C504B01021400140006080800A75E6F45A6D797065F000000820000000700000000000000000000000000A00B0000636E782E786D6C504B01021400140006080800A75E6F454FEB6A7CA0000000F40000001300000000000000000000000000240C00005B436F6E74656E745F54797065735D2E786D6C504B0102140014
310
0006080800A75E6F453DEE336E64000000790000001B00000000000000000000000000F50C00006175746F6465736B2D64657369676E2D7061636B6167652E786D6C504B01021400140006080800A75E6F453E4E4E3DF8000000960100003B00000000000000000000000000920D00006662782F37463041324144352D4532
310
38412D343044372D393242412D3034384432413245373641382F7265736F75726365732F636F72652E786D6C504B01021400140006080800A75E6F459D311C38F2000000B10100003100000000000000000000000000E30E00006662782F37463041324144352D453238412D343044372D393242412D303438443241324537
310
3641382F636F72652E786D6C504B01021400140006080800A75E6F457478F10053010000DD0200000C00000000000000000000000000241000006662782F636F72652E786D6C504B01021400140006080800A75E6F45C6570F3207010000B20100000800000000000000000000000000A1110000636F72652E786D6C504B05
310
06000000000E000E0080040000CE1200000000
  0
XRECORD
  5
10C18
102
{ACAD_REACTORS
330
EDF9
102
}
330
EDF9
100
AcDbXrecord
280
     1
102
DISPLAYNAME
  1
Imperial24
102
FLAGS
 90
        0
  0
XRECORD
  5
10C16
102
{ACAD_REACTORS
330
EDF5
102
}
330
EDF5
100
AcDbXrecord
280
     1
102
DISPLAYNAME
  1
Metric50
102
FLAGS
 90
        0
  0
CELLSTYLEMAP
  5
10C15
102
{ACAD_REACTORS
330
3AF5
102
}
330
3AF5
100
AcDbCellStyleMap
 90
        3
300
CELLSTYLE
  1
TABLEFORMAT_BEGIN
 90
        5
170
     1
 91
        0
 92
    32768
 62
   257
 93
        1
300
CONTENTFORMAT
  1
CONTENTFORMAT_BEGIN
 90
        0
 91
        0
 92
        4
 93
        0
300

 40
0.0
140
1.0
 94
        5
 62
   256
340
10
144
4.0
309
CONTENTFORMAT_END
171
     1
301
MARGIN
  1
CELLMARGIN_BEGIN
 40
1.5
 40
1.5
 40
1.5
 40
1.5
 40
0.18
 40
0.18
309
CELLMARGIN_END
 94
        6
 95
        1
302
GRIDFORMAT
  1
GRIDFORMAT_BEGIN
 90
        0
 91
        1
 62
     0
 92
       -2
340
0
 93
        0
 40
0.045
309
GRIDFORMAT_END
 95
        2
302
GRIDFORMAT
  1
GRIDFORMAT_BEGIN
 90
        0
 91
        1
 62
     0
 92
       -2
340
0
 93
        0
 40
0.045
309
GRIDFORMAT_END
 95
        4
302
GRIDFORMAT
  1
GRIDFORMAT_BEGIN
 90
        0
 91
        1
 62
     0
 92
       -2
340
0
 93
        0
 40
0.045
309
GRIDFORMAT_END
 95
        8
302
GRIDFORMAT
  1
GRIDFORMAT_BEGIN
 90
        0
 91
        1
 62
     0
 92
       -2
340
0
 93
        0
 40
0.045
309
GRIDFORMAT_END
 95
       16
302
GRIDFORMAT
  1
GRIDFORMAT_BEGIN
 90
        0
 91
        1
 62
     0
 92
       -2
340
0
 93
        0
 40
0.045
309
GRIDFORMAT_END
 95
       32
302
GRIDFORMAT
  1
GRIDFORMAT_BEGIN
 90
        0
 91
        1
 62
     0
 92
       -2
340
0
 93
        0
 40
0.045
309
GRIDFORMAT_END
309
TABLEFORMAT_END
  1
CELLSTYLE_BEGIN
 90
        1
 91
        1
300
_TITLE
309
CELLSTYLE_END
300
CELLSTYLE
  1
TABLEFORMAT_BEGIN
 90
        5
170
     1
 91
        0
 92
        0
 62
   257
 93
        1
300
CONTENTFORMAT
  1
CONTENTFORMAT_BEGIN
 90
        0
 91
        0
 92
        4
 93
        0
300

 40
0.0
140
1.0
 94
        5
 62
   256
340
10
144
3.5
309
CONTENTFORMAT_END
171
     1
301
MARGIN
  1
CELLMARGIN_BEGIN
 40
1.5
 40
1.5
 40
1.5
 40
1.5
 40
0.18
 40
0.18
309
CELLMARGIN_END
 94
        6
 95
        1
302
GRIDFORMAT
  1
GRIDFORMAT_BEGIN
 90
        0
 91
        1
 62
     0
 92
       -2
340
0
 93
        0
 40
0.045
309
GRIDFORMAT_END
 95
        2
302
GRIDFORMAT
  1
GRIDFORMAT_BEGIN
 90
        0
 91
        1
 62
     0
 92
       -2
340
0
 93
        0
 40
0.045
309
GRIDFORMAT_END
 95
        4
302
GRIDFORMAT
  1
GRIDFORMAT_BEGIN
 90
        0
 91
        1
 62
     0
 92
       -2
340
0
 93
        0
 40
0.045
309
GRIDFORMAT_END
 95
        8
302
GRIDFORMAT
  1
GRIDFORMAT_BEGIN
 90
        0
 91
        1
 62
     0
 92
       -2
340
0
 93
        0
 40
0.045
309
GRIDFORMAT_END
 95
       16
302
GRIDFORMAT
  1
GRIDFORMAT_BEGIN
 90
        0
 91
        1
 62
     0
 92
       -2
340
0
 93
        0
 40
0.045
309
GRIDFORMAT_END
 95
       32
302
GRIDFORMAT
  1
GRIDFORMAT_BEGIN
 90
        0
 91
        1
 62
     0
 92
       -2
340
0
 93
        0
 40
0.045
309
GRIDFORMAT_END
309
TABLEFORMAT_END
  1
CELLSTYLE_BEGIN
 90
        2
 91
        1
300
_HEADER
309
CELLSTYLE_END
300
CELLSTYLE
  1
TABLEFORMAT_BEGIN
 90
        5
170
     1
 91
        0
 92
        0
 62
   257
 93
        1
300
CONTENTFORMAT
  1
CONTENTFORMAT_BEGIN
 90
        0
 91
        0
 92
        4
 93
        0
300

 40
0.0
140
1.0
 94
        2
 62
   256
340
10
144
2.5
309
CONTENTFORMAT_END
171
     1
301
MARGIN
  1
CELLMARGIN_BEGIN
 40
1.5
 40
1.5
 40
1.5
 40
1.5
 40
0.18
 40
0.18
309
CELLMARGIN_END
 94
        6
 95
        1
302
GRIDFORMAT
  1
GRIDFORMAT_BEGIN
 90
        0
 91
        1
 62
     0
 92
       -2
340
0
 93
        0
 40
0.045
309
GRIDFORMAT_END
 95
        2
302
GRIDFORMAT
  1
GRIDFORMAT_BEGIN
 90
        0
 91
        1
 62
     0
 92
       -2
340
0
 93
        0
 40
0.045
309
GRIDFORMAT_END
 95
        4
302
GRIDFORMAT
  1
GRIDFORMAT_BEGIN
 90
        0
 91
        1
 62
     0
 92
       -2
340
0
 93
        0
 40
0.045
309
GRIDFORMAT_END
 95
        8
302
GRIDFORMAT
  1
GRIDFORMAT_BEGIN
 90
        0
 91
        1
 62
     0
 92
       -2
340
0
 93
        0
 40
0.045
309
GRIDFORMAT_END
 95
       16
302
GRIDFORMAT
  1
GRIDFORMAT_BEGIN
 90
        0
 91
        1
 62
     0
 92
       -2
340
0
 93
        0
 40
0.045
309
GRIDFORMAT_END
 95
       32
302
GRIDFORMAT
  1
GRIDFORMAT_BEGIN
 90
        0
 91
        1
 62
     0
 92
       -2
340
0
 93
        0
 40
0.045
309
GRIDFORMAT_END
309
TABLEFORMAT_END
  1
CELLSTYLE_BEGIN
 90
        3
 91
        2
300
_DATA
309
CELLSTYLE_END
  0
CELLSTYLEMAP
  5
10C14
102
{ACAD_REACTORS
330
2036
102
}
330
2036
100
AcDbCellStyleMap
 90
        3
300
CELLSTYLE
  1
TABLEFORMAT_BEGIN
 90
        5
170
     1
 91
        0
 92
    32768
 62
   257
 93
        1
300
CONTENTFORMAT
  1
CONTENTFORMAT_BEGIN
 90
        0
 91
        0
 92
        4
 93
        0
300

 40
0.0
140
1.0
 94
        5
 62
     0
340
10
144
3.0
309
CONTENTFORMAT_END
171
     1
301
MARGIN
  1
CELLMARGIN_BEGIN
 40
1.5
 40
1.5
 40
1.5
 40
1.5
 40
0.18
 40
0.18
309
CELLMARGIN_END
 94
        6
 95
        1
302
GRIDFORMAT
  1
GRIDFORMAT_BEGIN
 90
        0
 91
        1
 62
     0
 92
       -2
340
0
 93
        0
 40
0.045
309
GRIDFORMAT_END
 95
        2
302
GRIDFORMAT
  1
GRIDFORMAT_BEGIN
 90
        0
 91
        1
 62
     0
 92
       -2
340
0
 93
        0
 40
0.045
309
GRIDFORMAT_END
 95
        4
302
GRIDFORMAT
  1
GRIDFORMAT_BEGIN
 90
        0
 91
        1
 62
     0
 92
       -2
340
0
 93
        0
 40
0.045
309
GRIDFORMAT_END
 95
        8
302
GRIDFORMAT
  1
GRIDFORMAT_BEGIN
 90
        0
 91
        1
 62
     0
 92
       -2
340
0
 93
        0
 40
0.045
309
GRIDFORMAT_END
 95
       16
302
GRIDFORMAT
  1
GRIDFORMAT_BEGIN
 90
        0
 91
        1
 62
     0
 92
       -2
340
0
 93
        0
 40
0.045
309
GRIDFORMAT_END
 95
       32
302
GRIDFORMAT
  1
GRIDFORMAT_BEGIN
 90
        0
 91
        1
 62
     0
 92
       -2
340
0
 93
        0
 40
0.045
309
GRIDFORMAT_END
309
TABLEFORMAT_END
  1
CELLSTYLE_BEGIN
 90
        1
 91
        1
300
_TITLE
309
CELLSTYLE_END
300
CELLSTYLE
  1
TABLEFORMAT_BEGIN
 90
        5
170
     1
 91
        0
 92
        0
 62
   257
 93
        1
300
CONTENTFORMAT
  1
CONTENTFORMAT_BEGIN
 90
        0
 91
        0
 92
        4
 93
        0
300

 40
0.0
140
1.0
 94
        5
 62
     0
340
10
144
2.5
309
CONTENTFORMAT_END
171
     1
301
MARGIN
  1
CELLMARGIN_BEGIN
 40
1.5
 40
1.5
 40
1.5
 40
1.5
 40
0.18
 40
0.18
309
CELLMARGIN_END
 94
        6
 95
        1
302
GRIDFORMAT
  1
GRIDFORMAT_BEGIN
 90
        0
 91
        1
 62
     0
 92
       -2
340
0
 93
        0
 40
0.045
309
GRIDFORMAT_END
 95
        2
302
GRIDFORMAT
  1
GRIDFORMAT_BEGIN
 90
        0
 91
        1
 62
     0
 92
       -2
340
0
 93
        0
 40
0.045
309
GRIDFORMAT_END
 95
        4
302
GRIDFORMAT
  1
GRIDFORMAT_BEGIN
 90
        0
 91
        1
 62
     0
 92
       -2
340
0
 93
        0
 40
0.045
309
GRIDFORMAT_END
 95
        8
302
GRIDFORMAT
  1
GRIDFORMAT_BEGIN
 90
        0
 91
        1
 62
     0
 92
       -2
340
0
 93
        0
 40
0.045
309
GRIDFORMAT_END
 95
       16
302
GRIDFORMAT
  1
GRIDFORMAT_BEGIN
 90
        0
 91
        1
 62
     0
 92
       -2
340
0
 93
        0
 40
0.045
309
GRIDFORMAT_END
 95
       32
302
GRIDFORMAT
  1
GRIDFORMAT_BEGIN
 90
        0
 91
        1
 62
     0
 92
       -2
340
0
 93
        0
 40
0.045
309
GRIDFORMAT_END
309
TABLEFORMAT_END
  1
CELLSTYLE_BEGIN
 90
        2
 91
        1
300
_HEADER
309
CELLSTYLE_END
300
CELLSTYLE
  1
TABLEFORMAT_BEGIN
 90
        5
170
     1
 91
        0
 92
        0
 62
   257
 93
        1
300
CONTENTFORMAT
  1
CONTENTFORMAT_BEGIN
 90
        0
 91
        0
 92
        4
 93
        0
300

 40
0.0
140
1.0
 94
        2
 62
     0
340
10
144
2.0
309
CONTENTFORMAT_END
171
     1
301
MARGIN
  1
CELLMARGIN_BEGIN
 40
1.25
 40
1.25
 40
1.5
 40
1.5
 40
0.18
 40
0.18
309
CELLMARGIN_END
 94
        6
 95
        1
302
GRIDFORMAT
  1
GRIDFORMAT_BEGIN
 90
        0
 91
        1
 62
     0
 92
       -2
340
0
 93
        0
 40
0.045
309
GRIDFORMAT_END
 95
        2
302
GRIDFORMAT
  1
GRIDFORMAT_BEGIN
 90
        0
 91
        1
 62
     0
 92
       -2
340
0
 93
        0
 40
0.045
309
GRIDFORMAT_END
 95
        4
302
GRIDFORMAT
  1
GRIDFORMAT_BEGIN
 90
        0
 91
        1
 62
     0
 92
       -2
340
0
 93
        0
 40
0.045
309
GRIDFORMAT_END
 95
        8
302
GRIDFORMAT
  1
GRIDFORMAT_BEGIN
 90
        0
 91
        1
 62
     0
 92
       -2
340
0
 93
        0
 40
0.045
309
GRIDFORMAT_END
 95
       16
302
GRIDFORMAT
  1
GRIDFORMAT_BEGIN
 90
        0
 91
        1
 62
     0
 92
       -2
340
0
 93
        0
 40
0.045
309
GRIDFORMAT_END
 95
       32
302
GRIDFORMAT
  1
GRIDFORMAT_BEGIN
 90
        0
 91
        1
 62
     0
 92
       -2
340
0
 93
        0
 40
0.045
309
GRIDFORMAT_END
309
TABLEFORMAT_END
  1
CELLSTYLE_BEGIN
 90
        3
 91
        2
300
_DATA
309
CELLSTYLE_END
  0
XRECORD
  5
25CD
102
{ACAD_REACTORS
330
25CC
102
}
330
25CC
100
AcDbXrecord
280
     1
330
1F3B
  0
XRECORD
  5
25CA
102
{ACAD_REACTORS
330
25C9
102
}
330
25C9
100
AcDbXrecord
280
     1
330
1F3B
  0
XRECORD
  5
103A3
102
{ACAD_REACTORS
330
103A2
102
}
330
103A2
100
AcDbXrecord
280
     1
1071
  6894073
1071
  9375021
 70
    25
 70
   104
 10
0.0
 20
0.0
 30
0.0
 40
1.0
  0
XRECORD
  5
103A4
102
{ACAD_REACTORS
330
103A2
102
}
330
103A2
100
AcDbXrecord
280
     1
1071
135625452
1071
184556386
 70
    25
 70
   104
 10
-155.1096586774657
 20
39.79678970574935
 30
0.0
  1
Deutsch
  0
XRECORD
  5
AFD8
102
{ACAD_REACTORS
330
AFD7
102
}
330
AFD7
100
AcDbXrecord
280
     1
1071
  6894073
1071
  9375021
 70
    25
 70
   104
 10
0.0
 20
0.0
 30
0.0
 40
1.0
  0
XRECORD
  5
1039D
102
{ACAD_REACTORS
330
1039C
102
}
330
1039C
100
AcDbXrecord
280
     1
1071
135625452
1071
184556386
 70
    25
 70
   104
 10
-281.5221708216397
 20
44.80865832515482
 30
0.0
  1
Deutsch
  0
ENDSEC
  0
SECTION
  2
ACDSDATA
 70
     2
 71
     8
  0
ACDSSCHEMA
 90
        0
  1
AcDb_Thumbnail_Schema
  2
AcDbDs::ID
280
    10
 91
        8
  2
Thumbnail_Data
280
    15
 91
        0
101
ACDSRECORD
 95
        0
 90
        1
  2
AcDbDs::TreatedAsObjectData
280
     1
291
     1
101
ACDSRECORD
 95
        0
 90
        2
  2
AcDbDs::Legacy
280
     1
291
     1
101
ACDSRECORD
  1
AcDbDs::ID
 90
        3
  2
AcDs:Indexable
280
     1
291
     1
101
ACDSRECORD
  1
AcDbDs::ID
 90
        4
  2
AcDbDs::HandleAttribute
280
     7
282
     1
  0
ACDSSCHEMA
 90
        1
  1
AcDbDs::TreatedAsObjectDataSchema
  2
AcDbDs::TreatedAsObjectData
280
     1
 91
        0
  0
ACDSSCHEMA
 90
        2
  1
AcDbDs::LegacySchema
  2
AcDbDs::Legacy
280
     1
 91
        0
  0
ACDSSCHEMA
 90
        3
  1
AcDbDs::IndexedPropertySchema
  2
AcDs:Indexable
280
     1
 91
        0
  0
ACDSSCHEMA
 90
        4
  1
AcDbDs::HandleAttributeSchema
  2
AcDbDs::HandleAttribute
280
     7
 91
        1
284
     1
  0
ACDSRECORD
 90
        0
  2
AcDbDs::ID
280
    10
320
2C9F
  2
Thumbnail_Data
280
    15
 94
      346
310
89504E470D0A1A0A0000000D4948445200000080000000440802000000C625AA3E000001214944415478DAEDDC316A0241008651332BB838416D12489DE001D2E64CE632DE25BD47B04813C80552197143047749A78B950B6646F07DDDA0B0C5EFCEEBECF52449D7DACDE95F9DBE3E3E2CCAFD711487EBEA27D7B1FADDC672
310
90F8D18BE5FBD907E877FAF6D7EAFB428EAB4D35B98D291F7D3F19FFC71B105C02793340E63A5C41FD10EE5AAFE1280EDB9F263EC6B26C1B90E0D1471F651860D734D76C802B8801320084210C6108CB00061084210C615710036400084318C21096010C20084318C2AE2006C80010863084212C031840108630845D410C90
310
01200C61084358063080200C6108BB821820034018C2108630036400084318C21016030CA0B475F8EBE2A7D973787B39E85114BBBACE75AC9BA60821F1A33F3EE77E3192A4B3F507DFBD0BDFF8135F4B0000000049454E44AE426082
  0
ACDSRECORD
 90
        0
  2
AcDbDs::ID
280
    10
320
579
  2
Thumbnail_Data
280
    15
 94
     1489
310
89504E470D0A1A0A0000000D49484452000001000000009208030000009D75E4A800000300504C5445000000000000C8C8C80000000000000000000000000000000000000000000000000000330000660000990000CC0000FF0033000033330033660033990033CC0033FF0066000066330066660066990066CC0066FF0099
310
000099330099660099990099CC0099FF00CC0000CC3300CC6600CC9900CCCC00CCFF00FF0000FF3300FF6600FF9900FFCC00FFFF3300003300333300663300993300CC3300FF3333003333333333663333993333CC3333FF3366003366333366663366993366CC3366FF3399003399333399663399993399CC3399FF33CC00
310
33CC3333CC6633CC9933CCCC33CCFF33FF0033FF3333FF6633FF9933FFCC33FFFF6600006600336600666600996600CC6600FF6633006633336633666633996633CC6633FF6666006666336666666666996666CC6666FF6699006699336699666699996699CC6699FF66CC0066CC3366CC6666CC9966CCCC66CCFF66FF0066
310
FF3366FF6666FF9966FFCC66FFFF9900009900339900669900999900CC9900FF9933009933339933669933999933CC9933FF9966009966339966669966999966CC9966FF9999009999339999669999999999CC9999FF99CC0099CC3399CC6699CC9999CCCC99CCFF99FF0099FF3399FF6699FF9999FFCC99FFFFCC0000CC00
310
33CC0066CC0099CC00CCCC00FFCC3300CC3333CC3366CC3399CC33CCCC33FFCC6600CC6633CC6666CC6699CC66CCCC66FFCC9900CC9933CC9966CC9999CC99CCCC99FFCCCC00CCCC33CCCC66CCCC99CCCCCCCCCCFFCCFF00CCFF33CCFF66CCFF99CCFFCCCCFFFFFF0000FF0033FF0066FF0099FF00CCFF00FFFF3300FF3333
310
FF3366FF3399FF33CCFF33FFFF6600FF6633FF6666FF6699FF66CCFF66FFFF9900FF9933FF9966FF9999FF99CCFF99FFFFCC00FFCC33FFCC66FFCC99FFCCCCFFCCFFFFFF00FFFF33FFFF66FFFF99FFFFCCFFFFFF0000000D0D0D1A1A1A2828283535354343435050505D5D5D6B6B6B787878868686939393A1A1A1AEAEAEBB
310
BBBBC9C9C9D6D6D6E4E4E4F1F1F1FFFFFF00000000000000000000000000000000000000000000000000000000000008F1915C0000020D4944415478DAED9C5D72C3200C06B9FFA1B895DE3BD87182A9ED3A466EF2A1DDC74EC6038BF813D09400000000000000E0135861CCAAE5EC2C20ABD5FF149380933F1D31003EF9C1
310
DB0DA4D85D0001CE6380290AF01D01F4BA40FEE2CF21000108B871F29B873FDF35BECA8EA199E05C115AFE448E804A40B278F5AF05B8165A53C01202A5F43946FD570296624FCBFD10013055B40CD78B803904AABF0C1E00AD80B9E07102604340090187FA2755018FA6EB4DE7C90C811B02A6B68B1200AF60CFABC6CB2948
310
006C0B2819AFCE8F2A25C45B01BD15903B38AAB6C3AB4AFCB1C13BF193AC24E099E77D0C5F76D0BE873B5D6B634BA40BEC56F44DEAE482C8C9901DE5FFBB0498484AEC9E62EA44C07F772E0080D1670025017E2B00B903912A04F26A2FE8B308D0DA0ADE100152E7625546D0A7E4E51B8A022CB9955BC5C06D0254D282BF04
310
B8955A51806700A8186804F89E0E2B4C04AD00D78C4042000210A02CA07717A42EC0AEB4F940022CF56E84F50574F67A04200001084000020614B0BFCD0D21E028E5AB2660BEC2F0BAC97052C0FED1471001B123C0E8020818670CB83A0BC416107E1DC04A1001084000028208B890141F4AC0A5B5E53802BACF45381C4500
310
0210A02720FA25A9E0D7E4C25F94E4AAACDF3577D3BC2CBDFC07158FEA4B5D97CFEBE7B3C9E3C58CE68389704F66B2F1682A010000000000000000000000000000000000007C073FFDB7329BE2F195F20000000049454E44AE42608280A800BE45866372E105443F2A1BFEB034C7E5B93011F8CACCE9EE5CC3A539D54B5379
310
FF151AD6D3054405785C9C54BE39C9B73D00000000000000000000C083F902D165E98A4CF0C63E0000000049454E44AE42608252A21B44B4FE0C0C21841042082184104228BDBE000EF13592E9A18B7F0000000049454E44AE426082
  0
ACDSRECORD
 90
        0
  2
AcDbDs::ID
280
    10
320
ACE
  2
Thumbnail_Data
280
    15
 94
     2654
310
89504E470D0A1A0A0000000D4948445200000100000000B5080300000087DCD12600000300504C5445FFFFFF000000C8C8C80000000000000000000000000000000000000000000000000000330000660000990000CC0000FF0033000033330033660033990033CC0033FF0066000066330066660066990066CC0066FF0099
310
000099330099660099990099CC0099FF00CC0000CC3300CC6600CC9900CCCC00CCFF00FF0000FF3300FF6600FF9900FFCC00FFFF3300003300333300663300993300CC3300FF3333003333333333663333993333CC3333FF3366003366333366663366993366CC3366FF3399003399333399663399993399CC3399FF33CC00
310
33CC3333CC6633CC9933CCCC33CCFF33FF0033FF3333FF6633FF9933FFCC33FFFF6600006600336600666600996600CC6600FF6633006633336633666633996633CC6633FF6666006666336666666666996666CC6666FF6699006699336699666699996699CC6699FF66CC0066CC3366CC6666CC9966CCCC66CCFF66FF0066
310
FF3366FF6666FF9966FFCC66FFFF9900009900339900669900999900CC9900FF9933009933339933669933999933CC9933FF9966009966339966669966999966CC9966FF9999009999339999669999999999CC9999FF99CC0099CC3399CC6699CC9999CCCC99CCFF99FF0099FF3399FF6699FF9999FFCC99FFFFCC0000CC00
310
33CC0066CC0099CC00CCCC00FFCC3300CC3333CC3366CC3399CC33CCCC33FFCC6600CC6633CC6666CC6699CC66CCCC66FFCC9900CC9933CC9966CC9999CC99CCCC99FFCCCC00CCCC33CCCC66CCCC99CCCCCCCCCCFFCCFF00CCFF33CCFF66CCFF99CCFFCCCCFFFFFF0000FF0033FF0066FF0099FF00CCFF00FFFF3300FF3333
310
FF3366FF3399FF33CCFF33FFFF6600FF6633FF6666FF6699FF66CCFF66FFFF9900FF9933FF9966FF9999FF99CCFF99FFFFCC00FFCC33FFCC66FFCC99FFCCCCFFCCFFFFFF00FFFF33FFFF66FFFF99FFFFCCFFFFFF0000000D0D0D1A1A1A2828283535354343435050505D5D5D6B6B6B787878868686939393A1A1A1AEAEAEBB
310
BBBBC9C9C9D6D6D6E4E4E4F1F1F1FFFFFF000000000000000000000000000000000000000000000000000000000000B0E2D2350000053C4944415478DAED9D4B9AAA3A1080F3B981DEC6D9998E70E42A9CC1E4F44674222CE02E23D3ABE21758C0490208CAC388959850155F3C029DFAA9A4AA42D2B033439DCE8C00100002
310
C0FE204D2D009C579F00100002D000E0285317C07F08D323007C158000100002E00580AA412600CB0390653600989ED50B0066A902609C3B200036D4165001BC01F0661520002101C88001C80A101400F046900707E04B4AE5511580757142015049AD4A5B6937320059D5ACA9A202CB1F8A06D4AD7AA30138AB00BFB70128
310
1BC17B1B00EC100764051AE933861480728218B823108A15A863617800617488345E6B66E766460800AA6F0B1D5D810068BE6561396A000C1A0067A02724000102003D9F0B00B0250E0E007089A115CA02803AFCBD07C1A0AD36B859750000F4A2811B551700004B0D2EBF2B0040E5866E505D01802AB805F909803D00AD31
310
AC8BCE3F3E6F2B3F9C317004A02A3DFF547CCE4200F0EC08B54A301F813E90DB7007DC01A885E0B3C5E72C3800CF9D61AAD4E6DD3ADD9CCFB98301D0A44EEB3528E174B7575F58B89B4D96AB4036795DFB128EF0B13850C82E80615BFEAE068C287BE63580B1B10E6C561FF0D8C97CD600FB3703FC06104C22000480001000
310
02400008803B57180B003E3D28F8BB83229CB9C20FCE2A489F606055004E03EC2170D41F50776A7DD027C8B91D026EFA04395815E04102802AB90D022E00C095DB020127032418E0DD61E6FF0089010090E3038203005C646802F6074A327000610D9303D7594E0008007A002CA0C1D21646B57002801C00EC60C16F00F8B4
310
27287400EFC5C503D2060FE05315580000F41A40000800012000048000F4FD43C4002AE1CDFCDE0502A82603F0C1C0214000DD2933460078FBC10DC0545F96088033E400D06B00EE36A0B5027C1100E6F90123F3EA10B9C2C35D65140B1000024000080001200004605900DEBA31B64000EF45166C6900D0DF1EFF3CDAA421
310
3204201C00E887C9D1404902801E8085F902A1FD5759DC132668CA0C4D9A423F6D8E264EE29D3ADB4E9F473A793AE3347DFE49833FAE02E100A07FA1C1C248F46F74080001E80240981E00847701019E5AF508E067228D19A7D966CD8B676E4100F852640F14617E13800F8F5C83AC029DD35647BC02701165BD56167BB5AC
310
578B4B290ABD51BEF395D897F58A90799A03F2BC1F29CC2207D0083E9F572D68D97FA62E940270BD14252BCBA2941F09434AA75EC5BE106A93DA515C6F42675208C4F92698DE21C1FCEF11801E0F530087F32D2D64925F627D48F5425A8ACB2A16D572915EAFF15EA48562511ED68755BDBDC8D71E6AC0DB5620D7828A54C8
310
AF6B25B3C271CB63B559BD451EE78A8CCA55ACAEB7B8E655C4B9D700A65A8D0E80D3B1F815E9F1744C0FE951FCCA85D3F157E81FBD4DEE4B0F7251C85C224D4E4799EDAFCCA90E111E5781BA06B0978DE0EF56BF76C92E92298EA224DAC6D156FEA8DF48EE8BD4B6A8DE10EBD564571D64C70ACC3132036D400D60EA541A40
310
B2ABC5D944DB8D1452BF65DAE88FDCA916A2B55A97EF6A6D97542F8F00F49F07F054055E684075A537F2152B09934D8D20D9C56A61DB0048F48FBAFAEA10FB007E4CD23080DA0AD876841EFEEEA88BD43ADE06006C98C191C607C015F605C0A819B01F0C8147836EFD000F8321770521000B02302B381D6D03CCAA174C6F10
310
9F3283C672193E17285800AFFD80BE1934F0C5CD0058EE0F64301AD08F05E6023097D21600B7669000BC1E1A6F15C0582CF09139327E86DE84F31A1A80A71E416F01BC190D1AB786360180563D0F00C07A826E0180B401FEBBC2B300608F06BF25810500285307004399080001B803409AEE0010270240000800F2F40FEA8E
310
4F85986336D10000000049454E44AE426082A0229016004120650D70FAA5A96D024038750008000000006000B08A1076FD740F004A300080750320F34344000152BF6E0D20512F5F0280E8C51F1BC06F756F37EFF527DF16BBF5EFBDAAC541F6BEBD559FF776A76271BA0B6EB74020A202B8FED67774BFD777F6C760B0DCF1
310
57FD5957FC103F515F692522710455492B244E3030FFB600E05CD2A26681FDABDECF85D828EED5EFDBB16AB6EBE27A3D7E5645CD59DCCFEFE7B7F6787D7BDF02809BC8685554ECDFB5C933C7416F477E98BFABDBF1C6C9F058F5DB951E5B5EF5711355E0FB527F55C5E5FB529C8B4BF5C536BE2F5F95F810C7D8B9E2CC362B
310
16AB2A4EDF1716ED3F16935F526D01C0D75EBC0EA7C38E85E36E77DAED8FBB3DFBE09F3B766EC78FEDDA0347B17B3A34176DA117F83A1DDAEC7CECF61F2C93E2CDC287F86327F9C6EE9DEFB377B3773835AF4D00D8772F91E10FAE04AC8C3F5A04A7C3916FEC3B0027F1C14B9F5F42C01042762D401B4BF7E08E359BC2AB07
310
B08800832100000096D506D83513A8FF73BDFE236A00B06C00CFF7A82D0B807D2E014022009EDB062CA91770ADE700C0A30A2CDA0E78C55062739660F200602C0000420348324800509201000080078044C30340C201000000009078F81FD5F0E0BF8DDE03310000000049454E44AE426082
  0
ENDSEC
  0
EOF
