  0
SECTION
  2
HEADER
  9
$ACADVER
  1
AC1024
  9
$ACADMAINTVER
 70
   205
  9
$DWGCODEPAGE
  3
ANSI_1252
  9
$TITLE
  1
Vorlage für RK-Menü_v6
  9
$AUTHOR
  1
robert koch, cad-support, 2540 grenchen
  9
$COMMENTS
  1
Vorlage für RK-Menü_v6
  9
$LASTSAVEDBY
  1
sima
  9
$CUSTOMPROPERTYTAG
  1
robert koch cad-support
  9
$CUSTOMPROPERTY
  1

  9
$CUSTOMPROPERTYTAG
  1
USERR2
  9
$CUSTOMPROPERTY
  1
0.01
  9
$INSBASE
 10
0.0
 20
0.0
 30
0.0
  9
$EXTMIN
 10
9859.668814027861
 20
56.4092539522332
 30
-0.0000000000000034
  9
$EXTMAX
 10
10752.6531846134
 20
353.4092533293526
 30
0.0000000000271022
  9
$LIMMIN
 10
0.0
 20
0.0
  9
$LIMMAX
 10
8410.0
 20
5940.0
  9
$ORTHOMODE
 70
     0
  9
$REGENMODE
 70
     1
  9
$FILLMODE
 70
     1
  9
$QTEXTMODE
 70
     0
  9
$MIRRTEXT
 70
     0
  9
$LTSCALE
 40
1.0
  9
$ATTMODE
 70
     1
  9
$TEXTSIZE
 40
2.5
  9
$TRACEWID
 40
0.05
  9
$TEXTSTYLE
  7
STANDARD
  9
$CLAYER
  8
0
  9
$CELTYPE
  6
BYLAYER
  9
$CECOLOR
 62
     7
  9
$CELTSCALE
 40
1.0
  9
$DISPSILH
 70
     0
  9
$DIMSCALE
 40
10.0
  9
$DIMASZ
 40
2.0
  9
$DIMEXO
 40
2.0
  9
$DIMDLI
 40
6.0
  9
$DIMRND
 40
0.0
  9
$DIMDLE
 40
1.0
  9
$DIMEXE
 40
1.0
  9
$DIMTP
 40
0.0
  9
$DIMTM
 40
0.0
  9
$DIMTXT
 40
3.0
  9
$DIMCEN
 40
0.0
  9
$DIMTSZ
 40
0.0
  9
$DIMTOL
 70
     0
  9
$DIMLIM
 70
     0
  9
$DIMTIH
 70
     0
  9
$DIMTOH
 70
     0
  9
$DIMSE1
 70
     0
  9
$DIMSE2
 70
     0
  9
$DIMTAD
 70
     1
  9
$DIMZIN
 70
     8
  9
$DIMBLK
  1

  9
$DIMASO
 70
     1
  9
$DIMSHO
 70
     1
  9
$DIMPOST
  1

  9
$DIMAPOST
  1

  9
$DIMALT
 70
     0
  9
$DIMALTD
 70
     2
  9
$DIMALTF
 40
0.03937
  9
$DIMLFAC
 40
1.0
  9
$DIMTOFL
 70
     1
  9
$DIMTVP
 40
0.0
  9
$DIMTIX
 70
     1
  9
$DIMSOXD
 70
     0
  9
$DIMSAH
 70
     1
  9
$DIMBLK1
  1
OBLIQUE
  9
$DIMBLK2
  1
OBLIQUE
  9
$DIMSTYLE
  2
BEM-10
  9
$DIMCLRD
 70
    10
  9
$DIMCLRE
 70
    10
  9
$DIMCLRT
 70
     7
  9
$DIMTFAC
 40
1.0
  9
$DIMGAP
 40
1.0
  9
$DIMJUST
 70
     0
  9
$DIMSD1
 70
     0
  9
$DIMSD2
 70
     0
  9
$DIMTOLJ
 70
     1
  9
$DIMTZIN
 70
     8
  9
$DIMALTZ
 70
     0
  9
$DIMALTTZ
 70
     0
  9
$DIMUPT
 70
     0
  9
$DIMDEC
 70
     1
  9
$DIMTDEC
 70
     1
  9
$DIMALTU
 70
     2
  9
$DIMALTTD
 70
     2
  9
$DIMTXSTY
  7
BEMASSUNG
  9
$DIMAUNIT
 70
     0
  9
$DIMADEC
 70
     1
  9
$DIMALTRND
 40
0.0
  9
$DIMAZIN
 70
     2
  9
$DIMDSEP
 70
    46
  9
$DIMATFIT
 70
     3
  9
$DIMFRAC
 70
     0
  9
$DIMLDRBLK
  1

  9
$DIMLUNIT
 70
     2
  9
$DIMLWD
 70
    -2
  9
$DIMLWE
 70
    -2
  9
$DIMTMOVE
 70
     2
  9
$DIMFXL
 40
1.0
  9
$DIMFXLON
 70
     0
  9
$DIMJOGANG
 40
0.7853981633974483
  9
$DIMTFILL
 70
     0
  9
$DIMTFILLCLR
 70
     0
  9
$DIMARCSYM
 70
     0
  9
$DIMLTYPE
  6

  9
$DIMLTEX1
  6

  9
$DIMLTEX2
  6

  9
$DIMTXTDIRECTION
 70
     0
  9
$LUNITS
 70
     2
  9
$LUPREC
 70
     2
  9
$SKETCHINC
 40
0.1
  9
$FILLETRAD
 40
0.0
  9
$AUNITS
 70
     0
  9
$AUPREC
 70
     2
  9
$MENU
  1
acad
  9
$ELEVATION
 40
0.0
  9
$PELEVATION
 40
0.0
  9
$THICKNESS
 40
0.0
  9
$LIMCHECK
 70
     0
  9
$CHAMFERA
 40
10.0
  9
$CHAMFERB
 40
10.0
  9
$CHAMFERC
 40
20.0
  9
$CHAMFERD
 40
0.0
  9
$SKPOLY
 70
     0
  9
$TDCREATE
 40
2458464.699009641
  9
$TDUCREATE
 40
2458464.657342975
  9
$TDUPDATE
 40
2458562.569536597
  9
$TDUUPDATE
 40
2458562.527869931
  9
$TDINDWG
 40
0.0153096528
  9
$TDUSRTIMER
 40
0.0153095486
  9
$USRTIMER
 70
     1
  9
$ANGBASE
 50
0.0
  9
$ANGDIR
 70
     0
  9
$PDMODE
 70
    35
  9
$PDSIZE
 40
3.0
  9
$PLINEWID
 40
0.0
  9
$SPLFRAME
 70
     0
  9
$SPLINETYPE
 70
     6
  9
$SPLINESEGS
 70
     8
  9
$HANDSEED
  5
E7C4
  9
$SURFTAB1
 70
     6
  9
$SURFTAB2
 70
     6
  9
$SURFTYPE
 70
     6
  9
$SURFU
 70
     6
  9
$SURFV
 70
     6
  9
$UCSBASE
  2

  9
$UCSNAME
  2

  9
$UCSORG
 10
0.0
 20
0.0
 30
0.0
  9
$UCSXDIR
 10
1.0
 20
0.0
 30
0.0
  9
$UCSYDIR
 10
0.0
 20
1.0
 30
0.0
  9
$UCSORTHOREF
  2

  9
$UCSORTHOVIEW
 70
     0
  9
$UCSORGTOP
 10
0.0
 20
0.0
 30
0.0
  9
$UCSORGBOTTOM
 10
0.0
 20
0.0
 30
0.0
  9
$UCSORGLEFT
 10
0.0
 20
0.0
 30
0.0
  9
$UCSORGRIGHT
 10
0.0
 20
0.0
 30
0.0
  9
$UCSORGFRONT
 10
0.0
 20
0.0
 30
0.0
  9
$UCSORGBACK
 10
0.0
 20
0.0
 30
0.0
  9
$PUCSBASE
  2

  9
$PUCSNAME
  2

  9
$PUCSORG
 10
0.0
 20
0.0
 30
0.0
  9
$PUCSXDIR
 10
1.0
 20
0.0
 30
0.0
  9
$PUCSYDIR
 10
0.0
 20
1.0
 30
0.0
  9
$PUCSORTHOREF
  2

  9
$PUCSORTHOVIEW
 70
     0
  9
$PUCSORGTOP
 10
0.0
 20
0.0
 30
0.0
  9
$PUCSORGBOTTOM
 10
0.0
 20
0.0
 30
0.0
  9
$PUCSORGLEFT
 10
0.0
 20
0.0
 30
0.0
  9
$PUCSORGRIGHT
 10
0.0
 20
0.0
 30
0.0
  9
$PUCSORGFRONT
 10
0.0
 20
0.0
 30
0.0
  9
$PUCSORGBACK
 10
0.0
 20
0.0
 30
0.0
  9
$USERI1
 70
     2
  9
$USERI2
 70
     0
  9
$USERI3
 70
     0
  9
$USERI4
 70
     0
  9
$USERI5
 70
     0
  9
$USERR1
 40
0.0
  9
$USERR2
 40
0.01
  9
$USERR3
 40
0.0
  9
$USERR4
 40
0.0
  9
$USERR5
 40
0.0
  9
$WORLDVIEW
 70
     1
  9
$SHADEDGE
 70
     3
  9
$SHADEDIF
 70
    70
  9
$TILEMODE
 70
     0
  9
$MAXACTVP
 70
    64
  9
$PINSBASE
 10
0.0
 20
0.0
 30
0.0
  9
$PLIMCHECK
 70
     0
  9
$PEXTMIN
 10
-286.0139375641984
 20
-1.007827451501384
 30
-0.0015258207003583
  9
$PEXTMAX
 10
1.021730727913677
 20
199.0063340893907
 30
0.0000000349246037
  9
$PLIMMIN
 10
-290.9960973086663
 20
-6.000748200973788
  9
$PLIMMAX
 10
6.003902691333735
 20
203.9992517990262
  9
$UNITMODE
 70
     0
  9
$VISRETAIN
 70
     0
  9
$PLINEGEN
 70
     0
  9
$PSLTSCALE
 70
     1
  9
$TREEDEPTH
 70
  3020
  9
$CMLSTYLE
  2
STANDARD
  9
$CMLJUST
 70
     0
  9
$CMLSCALE
 40
20.0
  9
$PROXYGRAPHICS
 70
     1
  9
$MEASUREMENT
 70
     1
  9
$CELWEIGHT
370
    -1
  9
$ENDCAPS
280
     0
  9
$JOINSTYLE
280
     0
  9
$LWDISPLAY
290
     0
  9
$INSUNITS
 70
     4
  9
$HYPERLINKBASE
  1

  9
$STYLESHEET
  1
_RK Farben 1-15schwarz.ctb
  9
$XEDIT
290
     1
  9
$CEPSNTYPE
380
     0
  9
$PSTYLEMODE
290
     1
  9
$FINGERPRINTGUID
  2
{CCE2C1F6-D11B-4814-BA52-9163352D58F4}
  9
$VERSIONGUID
  2
{3A623EC2-EBEB-4D04-A612-88086B4B751F}
  9
$EXTNAMES
290
     1
  9
$PSVPSCALE
 40
0.0
  9
$OLESTARTUP
290
     0
  9
$SORTENTS
280
   127
  9
$INDEXCTL
280
     0
  9
$HIDETEXT
280
     0
  9
$XCLIPFRAME
280
     0
  9
$HALOGAP
280
     0
  9
$OBSCOLOR
 70
   257
  9
$OBSLTYPE
280
     0
  9
$INTERSECTIONDISPLAY
280
     0
  9
$INTERSECTIONCOLOR
 70
   257
  9
$DIMASSOC
280
     2
  9
$PROJECTNAME
  1

  9
$CAMERADISPLAY
290
     0
  9
$LENSLENGTH
 40
50.0
  9
$CAMERAHEIGHT
 40
0.0
  9
$STEPSPERSEC
 40
2.0
  9
$STEPSIZE
 40
6.0
  9
$3DDWFPREC
 40
2.0
  9
$PSOLWIDTH
 40
0.25
  9
$PSOLHEIGHT
 40
4.0
  9
$LOFTANG1
 40
1.570796326794896
  9
$LOFTANG2
 40
1.570796326794896
  9
$LOFTMAG1
 40
0.0
  9
$LOFTMAG2
 40
0.0
  9
$LOFTPARAM
 70
     7
  9
$LOFTNORMALS
280
     1
  9
$LATITUDE
 40
37.795
  9
$LONGITUDE
 40
-122.394
  9
$NORTHDIRECTION
 40
0.0
  9
$TIMEZONE
 70
 -8000
  9
$LIGHTGLYPHDISPLAY
280
     1
  9
$TILEMODELIGHTSYNCH
280
     1
  9
$CMATERIAL
347
1BD6
  9
$SOLIDHIST
280
     1
  9
$SHOWHIST
280
     1
  9
$DWFFRAME
280
     2
  9
$DGNFRAME
280
     0
  9
$REALWORLDSCALE
290
     1
  9
$INTERFERECOLOR
 62
     1
  9
$INTERFEREOBJVS
345
1BE3
  9
$INTERFEREVPVS
346
1BE0
  9
$CSHADOW
280
     0
  9
$SHADOWPLANELOCATION
 40
0.0
  0
ENDSEC
  0
SECTION
  2
CLASSES
  0
CLASS
  1
DICTIONARYVAR
  2
AcDbDictionaryVar
  3
ObjectDBX Classes
 90
        0
 91
       12
280
     0
281
     0
  0
CLASS
  1
ACDBDICTIONARYWDFLT
  2
AcDbDictionaryWithDefault
  3
ObjectDBX Classes
 90
        0
 91
        1
280
     0
281
     0
  0
CLASS
  1
RTEXT
  2
RText
  3
RText|AutoCAD Express Tool|expresstools@autodesk.com
 90
     3071
 91
        0
280
     0
281
     1
  0
CLASS
  1
TABLESTYLE
  2
AcDbTableStyle
  3
ObjectDBX Classes
 90
     4095
 91
        2
280
     0
281
     0
  0
CLASS
  1
FIELD
  2
AcDbField
  3
ObjectDBX Classes
 90
     1152
 91
        0
280
     0
281
     0
  0
CLASS
  1
FIELDLIST
  2
AcDbFieldList
  3
ObjectDBX Classes
 90
     1152
 91
        1
280
     0
281
     0
  0
CLASS
  1
SORTENTSTABLE
  2
AcDbSortentsTable
  3
ObjectDBX Classes
 90
        0
 91
        6
280
     0
281
     0
  0
CLASS
  1
MATERIAL
  2
AcDbMaterial
  3
ObjectDBX Classes
 90
     1153
 91
        3
280
     0
281
     0
  0
CLASS
  1
VISUALSTYLE
  2
AcDbVisualStyle
  3
ObjectDBX Classes
 90
     4095
 91
       26
280
     0
281
     0
  0
CLASS
  1
ACAD_TABLE
  2
AcDbTable
  3
ObjectDBX Classes
 90
     1025
 91
        0
280
     0
281
     1
  0
CLASS
  1
SCALE
  2
AcDbScale
  3
ObjectDBX Classes
 90
     1153
 91
       25
280
     0
281
     0
  0
CLASS
  1
MLEADERSTYLE
  2
AcDbMLeaderStyle
  3
ACDB_MLEADERSTYLE_CLASS
 90
     4095
 91
        1
280
     0
281
     0
  0
CLASS
  1
CELLSTYLEMAP
  2
AcDbCellStyleMap
  3
ObjectDBX Classes
 90
     1152
 91
        4
280
     0
281
     0
  0
CLASS
  1
PLOTSETTINGS
  2
AcDbPlotSettings
  3
ObjectDBX Classes
 90
        0
 91
       18
280
     0
281
     0
  0
CLASS
  1
DIMASSOC
  2
AcDbDimAssoc
  3
"AcDbDimAssoc|Product Desc:     AcDim ARX App For Dimension|Company:          Autodesk, Inc.|WEB Address:      www.autodesk.com"
 90
        0
 91
        1
280
     0
281
     0
  0
CLASS
  1
SOLID_BACKGROUND
  2
AcDbSolidBackground
  3
SCENEOE
 90
     4095
 91
        0
280
     0
281
     0
  0
CLASS
  1
NPOCOLLECTION
  2
AcDbImpNonPersistentObjectsCollection
  3
ObjectDBX Classes
 90
     1153
 91
        0
280
     0
281
     0
  0
CLASS
  1
ACAD_EVALUATION_GRAPH
  2
AcDbEvalGraph
  3
ObjectDBX Classes
 90
     1153
 91
        3
280
     0
281
     0
  0
CLASS
  1
ACAECUSTOBJ
  2
AcAeEditorObj
  3
AcAeEditorObj
 90
     1024
 91
        1
280
     0
281
     0
  0
CLASS
  1
ACDB_DYNAMICBLOCKPURGEPREVENTER_VERSION
  2
AcDbDynamicBlockPurgePreventer
  3
ObjectDBX Classes
 90
     1153
 91
        3
280
     0
281
     0
  0
CLASS
  1
BLOCKPOLARPARAMETER
  2
AcDbBlockPolarParameter
  3
ObjectDBX Classes
 90
     1153
 91
        0
280
     0
281
     0
  0
CLASS
  1
BLOCKPOLARGRIP
  2
AcDbBlockPolarGrip
  3
ObjectDBX Classes
 90
     1153
 91
        0
280
     0
281
     0
  0
CLASS
  1
BLOCKGRIPLOCATIONCOMPONENT
  2
AcDbBlockGripExpr
  3
ObjectDBX Classes
 90
     1153
 91
        6
280
     0
281
     0
  0
CLASS
  1
BLOCKPOLARSTRETCHACTION
  2
AcDbBlockPolarStretchAction
  3
ObjectDBX Classes
 90
     1153
 91
        0
280
     0
281
     0
  0
CLASS
  1
EXACXREFPANELOBJECT
  2
ExAcXREFPanelObject
  3
EXAC_ESW
 90
     1025
 91
        0
280
     0
281
     0
  0
CLASS
  1
ACDB_ALDIMOBJECTCONTEXTDATA_CLASS
  2
AcDbAlignedDimensionObjectContextData
  3
ObjectDBX Classes
 90
     1153
 91
        0
280
     0
281
     0
  0
CLASS
  1
MULTILEADER
  2
AcDbMLeader
  3
ACDB_MLEADER_CLASS
 90
     1025
 91
        0
280
     0
281
     1
  0
CLASS
  1
ACDB_MLEADEROBJECTCONTEXTDATA_CLASS
  2
AcDbMLeaderObjectContextData
  3
ObjectDBX Classes
 90
     1153
 91
        0
280
     0
281
     0
  0
CLASS
  1
ACDB_MTEXTOBJECTCONTEXTDATA_CLASS
  2
AcDbMTextObjectContextData
  3
ObjectDBX Classes
 90
     1153
 91
        0
280
     0
281
     0
  0
CLASS
  1
TABLECONTENT
  2
AcDbTableContent
  3
ObjectDBX Classes
 90
     1152
 91
        0
280
     0
281
     0
  0
CLASS
  1
TABLEGEOMETRY
  2
AcDbTableGeometry
  3
ObjectDBX Classes
 90
     1152
 91
        0
280
     0
281
     0
  0
CLASS
  1
ACDB_ANGDIMOBJECTCONTEXTDATA_CLASS
  2
AcDbAngularDimensionObjectContextData
  3
ObjectDBX Classes
 90
     1153
 91
        0
280
     0
281
     0
  0
CLASS
  1
ACDB_DMDIMOBJECTCONTEXTDATA_CLASS
  2
AcDbDiametricDimensionObjectContextData
  3
ObjectDBX Classes
 90
     1153
 91
        0
280
     0
281
     0
  0
CLASS
  1
ACDB_RADIMOBJECTCONTEXTDATA_CLASS
  2
AcDbRadialDimensionObjectContextData
  3
ObjectDBX Classes
 90
     1153
 91
        0
280
     0
281
     0
  0
CLASS
  1
ACDBSECTIONVIEWSTYLE
  2
AcDbSectionViewStyle
  3
ObjectDBX Classes
 90
     1025
 91
        2
280
     0
281
     0
  0
CLASS
  1
ACDBDETAILVIEWSTYLE
  2
AcDbDetailViewStyle
  3
ObjectDBX Classes
 90
     1025
 91
        2
280
     0
281
     0
  0
CLASS
  1
BLOCKPROPERTIESTABLE
  2
AcDbBlockPropertiesTable
  3
ObjectDBX Classes
 90
     1153
 91
        0
280
     0
281
     0
  0
CLASS
  1
BLOCKPROPERTIESTABLEGRIP
  2
AcDbBlockPropertiesTableGrip
  3
ObjectDBX Classes
 90
     1153
 91
        0
280
     0
281
     0
  0
CLASS
  1
BLOCKPROPERTIESTABLEGRIPENTITY
  2
AcDbBlockPropertiesTableGripEntity
  3
ObjectDBX Classes
 90
     1025
 91
        0
280
     0
281
     1
  0
CLASS
  1
ACAEEEMGROBJ
  2
AcAeEEMgrObj
  3
AcAeEEMgrObj
 90
     1024
 91
        1
280
     0
281
     0
  0
CLASS
  1
BLOCKPROPERTIESTABLEENTITY
  2
AcDbBlockPropertiesTableEntity
  3
ObjectDBX Classes
 90
     1025
 91
        0
280
     0
281
     1
  0
CLASS
  1
ACDB_DYNAMICBLOCKPROXYNODE
  2
AcDbDynamicBlockProxyNode
  3
ObjectDBX Classes
 90
     1153
 91
        2
280
     0
281
     0
  0
CLASS
  1
ACDB_BLOCKREPRESENTATION_DATA
  2
AcDbBlockRepresentationData
  3
ObjectDBX Classes
 90
     1153
 91
        2
280
     0
281
     0
  0
CLASS
  1
BLOCKLOOKUPACTION
  2
AcDbBlockLookupAction
  3
ObjectDBX Classes
 90
     1153
 91
        0
280
     0
281
     0
  0
CLASS
  1
BLOCKLOOKUPPARAMETER
  2
AcDbBlockLookupParameter
  3
ObjectDBX Classes
 90
     1153
 91
        0
280
     0
281
     0
  0
CLASS
  1
BLOCKLOOKUPGRIP
  2
AcDbBlockLookupGrip
  3
ObjectDBX Classes
 90
     1153
 91
        0
280
     0
281
     0
  0
CLASS
  1
LOOKUPGRIPENTITY
  2
AcDbBlockLookupGripEntity
  3
ObjectDBX Classes
 90
     1025
 91
        0
280
     0
281
     1
  0
CLASS
  1
LOOKUPPARAMETERENTITY
  2
AcDbBlockLookupParameterEntity
  3
ObjectDBX Classes
 90
     1025
 91
        0
280
     0
281
     1
  0
CLASS
  1
LOOKUPACTIONENTITY
  2
AcDbBlockLookupActionEntity
  3
ObjectDBX Classes
 90
     1025
 91
        0
280
     0
281
     1
  0
CLASS
  1
BLOCKVISIBILITYPARAMETER
  2
AcDbBlockVisibilityParameter
  3
ObjectDBX Classes
 90
     1153
 91
        3
280
     0
281
     0
  0
CLASS
  1
BLOCKVISIBILITYGRIP
  2
AcDbBlockVisibilityGrip
  3
ObjectDBX Classes
 90
     1153
 91
        3
280
     0
281
     0
  0
CLASS
  1
VISIBILITYGRIPENTITY
  2
AcDbBlockVisibilityGripEntity
  3
ObjectDBX Classes
 90
     1025
 91
        1
280
     0
281
     1
  0
CLASS
  1
VISIBILITYPARAMETERENTITY
  2
AcDbBlockVisibilityParameterEntity
  3
ObjectDBX Classes
 90
     1025
 91
        1
280
     0
281
     1
  0
CLASS
  1
BLOCKFLIPPARAMETER
  2
AcDbBlockFlipParameter
  3
ObjectDBX Classes
 90
     1153
 91
        0
280
     0
281
     0
  0
CLASS
  1
BLOCKFLIPGRIP
  2
AcDbBlockFlipGrip
  3
ObjectDBX Classes
 90
     1153
 91
        0
280
     0
281
     0
  0
CLASS
  1
FLIPGRIPENTITY
  2
AcDbBlockFlipGripEntity
  3
ObjectDBX Classes
 90
     1025
 91
        0
280
     0
281
     1
  0
CLASS
  1
FLIPPARAMETERENTITY
  2
AcDbBlockFlipParameterEntity
  3
ObjectDBX Classes
 90
     1025
 91
        0
280
     0
281
     1
  0
CLASS
  1
BLOCKFLIPACTION
  2
AcDbBlockFlipAction
  3
ObjectDBX Classes
 90
     1153
 91
        0
280
     0
281
     0
  0
CLASS
  1
FLIPACTIONENTITY
  2
AcDbBlockFlipActionEntity
  3
ObjectDBX Classes
 90
     1025
 91
        0
280
     0
281
     1
  0
CLASS
  1
RAPIDRTRENDERSETTINGS
  2
AcDbRapidRTRenderSettings
  3
ObjectDBX Classes
 90
     1024
 91
        7
280
     0
281
     0
  0
CLASS
  1
IMAGEDEF
  2
AcDbRasterImageDef
  3
ISM
 90
        0
 91
        3
280
     0
281
     0
  0
CLASS
  1
RASTERVARIABLES
  2
AcDbRasterVariables
  3
ISM
 90
        0
 91
        1
280
     0
281
     0
  0
CLASS
  1
IMAGEDEF_REACTOR
  2
AcDbRasterImageDefReactor
  3
ISM
 90
        1
 91
        4
280
     0
281
     0
  0
CLASS
  1
IMAGE
  2
AcDbRasterImage
  3
ISM
 90
     2175
 91
        4
280
     0
281
     1
  0
CLASS
  1
ACDBASSOCNETWORK
  2
AcDbAssocNetwork
  3
ObjectDBX Classes
 90
     1025
 91
        5
280
     0
281
     0
  0
CLASS
  1
ACDBASSOC2DCONSTRAINTGROUP
  2
AcDbAssoc2dConstraintGroup
  3
ObjectDBX Classes
 90
     1025
 91
        0
280
     0
281
     0
  0
CLASS
  1
ACDBASSOCGEOMDEPENDENCY
  2
AcDbAssocGeomDependency
  3
ObjectDBX Classes
 90
     1025
 91
        0
280
     0
281
     0
  0
CLASS
  1
MENTALRAYRENDERSETTINGS
  2
AcDbMentalRayRenderSettings
  3
SCENEOE
 90
     1024
 91
        2
280
     0
281
     0
  0
CLASS
  1
BLOCKUSERPARAMETER
  2
AcDbBlockUserParameter
  3
ObjectDBX Classes
 90
     1153
 91
        2
280
     0
281
     0
  0
CLASS
  1
ACDBASSOCVARIABLE
  2
AcDbAssocVariable
  3
ObjectDBX Classes
 90
     1025
 91
        4
280
     0
281
     0
  0
CLASS
  1
BLOCKPOINTPARAMETER
  2
AcDbBlockPointParameter
  3
ObjectDBX Classes
 90
     1153
 91
        0
280
     0
281
     0
  0
CLASS
  1
BLOCKXYGRIP
  2
AcDbBlockXYGrip
  3
ObjectDBX Classes
 90
     1153
 91
        0
280
     0
281
     0
  0
CLASS
  1
XYGRIPENTITY
  2
AcDbBlockXYGripEntity
  3
ObjectDBX Classes
 90
     1025
 91
        0
280
     0
281
     1
  0
CLASS
  1
POINTPARAMETERENTITY
  2
AcDbBlockPointParameterEntity
  3
ObjectDBX Classes
 90
     1025
 91
        0
280
     0
281
     1
  0
ENDSEC
  0
SECTION
  2
TABLES
  0
TABLE
  2
VPORT
  5
8
330
0
100
AcDbSymbolTable
 70
     1
  0
VPORT
  5
1BD4
330
8
100
AcDbSymbolTableRecord
100
AcDbViewportTableRecord
  2
*Active
 70
     0
 10
0.0
 20
0.0
 11
1.0
 21
1.0
 12
11470.87076133404
 22
-30.0920098511524
 13
0.0
 23
0.0
 14
0.25
 24
0.25
 15
100.0
 25
100.0
 16
0.0
 26
0.0
 36
1.0
 17
0.0
 27
0.0
 37
0.0
 40
2089.374230639581
 41
2.292712066905615
 42
50.0
 43
0.0
 44
0.0
 50
0.0
 51
0.0
 71
     0
 72
  1000
 73
     1
 74
     3
 75
     0
 76
     1
 77
     0
 78
     0
281
     0
 65
     1
110
0.0
120
0.0
130
0.0
111
1.0
121
0.0
131
0.0
112
0.0
122
1.0
132
0.0
 79
     0
146
0.0
348
1BDF
 60
     2
 61
     5
292
     1
282
     1
141
0.0
142
0.0
 63
   250
421
  3355443
1001
ACAD_NAV_VCDISPLAY
1070
     3
  0
ENDTAB
  0
TABLE
  2
LTYPE
  5
5
330
0
100
AcDbSymbolTable
 70
     2
  0
LTYPE
  5
13
330
5
100
AcDbSymbolTableRecord
100
AcDbLinetypeTableRecord
  2
BYBLOCK
 70
     0
  3

 72
    65
 73
     0
 40
0.0
  0
LTYPE
  5
14
330
5
100
AcDbSymbolTableRecord
100
AcDbLinetypeTableRecord
  2
BYLAYER
 70
     0
  3

 72
    65
 73
     0
 40
0.0
  0
LTYPE
  5
15
330
5
100
AcDbSymbolTableRecord
100
AcDbLinetypeTableRecord
  2
CONTINUOUS
 70
     0
  3
Solid line
 72
    65
 73
     0
 40
0.0
  0
ENDTAB
  0
TABLE
  2
LAYER
  5
2
102
{ACAD_XDICTIONARY
360
11DB
102
}
330
0
100
AcDbSymbolTable
 70
    13
  0
LAYER
  5
F
102
{ACAD_XDICTIONARY
360
2152
102
}
330
2
100
AcDbSymbolTableRecord
100
AcDbLayerTableRecord
  2
0
 70
     0
 62
     7
  6
CONTINUOUS
370
    -3
390
576
347
1BD8
  0
LAYER
  5
AE76
102
{ACAD_XDICTIONARY
360
C21B
102
}
330
2
100
AcDbSymbolTableRecord
100
AcDbLayerTableRecord
  2
Bestellung Angaben D
 70
     0
 62
   250
  6
CONTINUOUS
370
    -3
390
576
347
1BD8
1001
AcAecLayerStandard
1000

1000

1001
AcCmTransparency
1071
        0
  0
LAYER
  5
AEC5
102
{ACAD_XDICTIONARY
360
C21D
102
}
330
2
100
AcDbSymbolTableRecord
100
AcDbLayerTableRecord
  2
Bestellung Angaben F
 70
     0
 62
   250
  6
CONTINUOUS
370
    -3
390
576
347
1BD8
1001
AcAecLayerStandard
1000

1000

1001
AcCmTransparency
1071
        0
  0
LAYER
  5
B623
102
{ACAD_XDICTIONARY
360
C221
102
}
330
2
100
AcDbSymbolTableRecord
100
AcDbLayerTableRecord
  2
Plankopf_Text
 70
     0
 62
     7
  6
CONTINUOUS
370
    -3
390
576
347
1BD8
1001
AcAecLayerStandard
1000

1000

1001
AcCmTransparency
1071
        0
  0
LAYER
  5
B625
102
{ACAD_XDICTIONARY
360
C225
102
}
330
2
100
AcDbSymbolTableRecord
100
AcDbLayerTableRecord
  2
Plankopf_Variablen
 70
     0
 62
     7
  6
CONTINUOUS
370
    -3
390
576
347
1BD8
1001
AcAecLayerStandard
1000

1000

1001
AcCmTransparency
1071
        0
  0
LAYER
  5
B775
102
{ACAD_XDICTIONARY
360
C229
102
}
330
2
100
AcDbSymbolTableRecord
100
AcDbLayerTableRecord
  2
Plankopf_Anschrift
 70
     0
 62
     7
  6
CONTINUOUS
370
    -3
390
576
347
1BD8
1001
AcAecLayerStandard
1000

1000

1001
AcCmTransparency
1071
        0
  0
LAYER
  5
BAC5
102
{ACAD_XDICTIONARY
360
BAF0
102
}
330
2
100
AcDbSymbolTableRecord
100
AcDbLayerTableRecord
  2
Bestellung_Symbole
 70
     0
 62
     7
  6
CONTINUOUS
370
    20
390
576
347
1BD8
1001
AcAecLayerStandard
1000

1000

1001
AcCmTransparency
1071
        0
  0
LAYER
  5
CF41
102
{ACAD_XDICTIONARY
360
DB03
102
}
330
2
100
AcDbSymbolTableRecord
100
AcDbLayerTableRecord
  2
Verdeckt
 70
     0
 62
     3
  6
CONTINUOUS
290
     0
370
    -3
390
576
347
1BD8
1001
AcAecLayerStandard
1000

1000

1001
AcCmTransparency
1071
        0
  0
LAYER
  5
CF49
102
{ACAD_XDICTIONARY
360
DB05
102
}
330
2
100
AcDbSymbolTableRecord
100
AcDbLayerTableRecord
  2
Zeichnungsfenster
 70
     0
 62
    30
  6
CONTINUOUS
290
     0
370
    -3
390
576
347
1BD8
1001
AcAecLayerStandard
1000

1000

1001
AcCmTransparency
1071
        0
  0
LAYER
  5
D025
102
{ACAD_XDICTIONARY
360
DB07
102
}
330
2
100
AcDbSymbolTableRecord
100
AcDbLayerTableRecord
  2
Bestellung_Eingabe
 70
     0
 62
     5
  6
CONTINUOUS
370
    -3
390
576
347
1BD8
1001
AcAecLayerStandard
1000

1000

1001
AcCmTransparency
1071
        0
  0
LAYER
  5
DC05
102
{ACAD_XDICTIONARY
360
DC06
102
}
330
2
100
AcDbSymbolTableRecord
100
AcDbLayerTableRecord
  2
DEFPOINTS
 70
     0
 62
   211
  6
CONTINUOUS
290
     0
370
    -3
390
576
347
1BD8
  0
LAYER
  5
E264
102
{ACAD_XDICTIONARY
360
E265
102
}
330
2
100
AcDbSymbolTableRecord
100
AcDbLayerTableRecord
  2
AUßENKONTUR
 70
     0
 62
     7
  6
CONTINUOUS
370
    -3
390
576
347
1BD8
  0
LAYER
  5
E266
102
{ACAD_XDICTIONARY
360
E267
102
}
330
2
100
AcDbSymbolTableRecord
100
AcDbLayerTableRecord
  2
MANSFEN
 70
     0
 62
    -7
  6
CONTINUOUS
370
    -3
390
576
347
1BD8
  0
ENDTAB
  0
TABLE
  2
STYLE
  5
3
330
0
100
AcDbSymbolTable
 70
     6
  0
STYLE
  5
10
330
3
100
AcDbSymbolTableRecord
100
AcDbTextStyleTableRecord
  2
STANDARD
 70
     0
 40
0.0
 41
1.0
 50
0.0
 71
     0
 42
2.5
  3
arial.ttf
  4

1001
ACAD
1000
Arial
1071
       34
  0
STYLE
  5
54
330
3
100
AcDbSymbolTableRecord
100
AcDbTextStyleTableRecord
  2
BEMASSUNG
 70
     0
 40
0.0
 41
1.0
 50
0.0
 71
     0
 42
2.5
  3
arial.ttf
  4

1001
ACAD
1000
Arial
1071
       34
  0
STYLE
  5
2836
330
3
100
AcDbSymbolTableRecord
100
AcDbTextStyleTableRecord
  2
Plankopf_cad-support
 70
     0
 40
0.0
 41
1.0
 50
0.0
 71
     0
 42
2.5
  3
arial.ttf
  4

1001
ACAD
1000
Arial
1071
       34
  0
STYLE
  5
49A2
330
3
100
AcDbSymbolTableRecord
100
AcDbTextStyleTableRecord
  2
robert_koch
 70
     0
 40
0.0
 41
1.0
 50
0.0
 71
     0
 42
2.5
  3
arial.ttf
  4

1001
ACAD
1000
Arial
1071
       34
  0
ENDTAB
  0
TABLE
  2
VIEW
  5
6
330
0
100
AcDbSymbolTable
 70
     4
  0
VIEW
  5
2C9F
102
{ACAD_XDICTIONARY
360
2CA0
102
}
330
6
100
AcDbSymbolTableRecord
100
AcDbViewTableRecord
  2
robert koch cad-support
 70
     0
 40
6512.0
 10
4898.242857142857
 20
2940.0
 41
12599.68085106383
 11
0.0
 21
0.0
 31
1.0
 12
0.0
 22
0.0
 32
0.0
 42
50.0
 43
0.0
 44
0.0
 50
0.0
 71
     0
281
     0
 72
     1
110
0.0
120
0.0
130
0.0
111
1.0
121
0.0
131
0.0
112
0.0
122
1.0
132
0.0
 79
     0
146
0.0
 73
     0
348
1BDF
  0
ENDTAB
  0
TABLE
  2
UCS
  5
7
330
0
100
AcDbSymbolTable
 70
     0
  0
ENDTAB
  0
TABLE
  2
APPID
  5
9
330
0
100
AcDbSymbolTable
 70
    35
  0
APPID
  5
11
330
9
100
AcDbSymbolTableRecord
100
AcDbRegAppTableRecord
  2
ACAD
 70
     0
  0
APPID
  5
2E2
330
9
100
AcDbSymbolTableRecord
100
AcDbRegAppTableRecord
  2
CONTENTTABDATA
 70
     0
  0
APPID
  5
2E3
330
9
100
AcDbSymbolTableRecord
100
AcDbRegAppTableRecord
  2
CONTENTCURRENTTAB
 70
     0
  0
APPID
  5
4B1
330
9
100
AcDbSymbolTableRecord
100
AcDbRegAppTableRecord
  2
DRAWINGVARIABLESXDATA
 70
     0
  0
APPID
  5
4F7
330
9
100
AcDbSymbolTableRecord
100
AcDbRegAppTableRecord
  2
CONTENTBLOCKDESCRIPTION
 70
     0
  0
APPID
  5
4F8
330
9
100
AcDbSymbolTableRecord
100
AcDbRegAppTableRecord
  2
CONTENTBLOCKICON
 70
     0
  0
APPID
  5
10A3
330
9
100
AcDbSymbolTableRecord
100
AcDbRegAppTableRecord
  2
ACAD_DSTYLE_DIMTEXT_FILL
 70
     0
  0
APPID
  5
11CD
330
9
100
AcDbSymbolTableRecord
100
AcDbRegAppTableRecord
  2
PE_URL
 70
     0
  0
APPID
  5
136A
330
9
100
AcDbSymbolTableRecord
100
AcDbRegAppTableRecord
  2
ACAD_EXEMPT_FROM_CAD_STANDARDS
 70
     0
  0
APPID
  5
15D0
330
9
100
AcDbSymbolTableRecord
100
AcDbRegAppTableRecord
  2
ACAD_PSEXT
 70
     0
  0
APPID
  5
1F5E
330
9
100
AcDbSymbolTableRecord
100
AcDbRegAppTableRecord
  2
ACAD_MLEADERVER
 70
     0
  0
APPID
  5
205B
330
9
100
AcDbSymbolTableRecord
100
AcDbRegAppTableRecord
  2
ACAD_DSTYLE_DIMJAG
 70
     0
  0
APPID
  5
205C
330
9
100
AcDbSymbolTableRecord
100
AcDbRegAppTableRecord
  2
ACAD_DSTYLE_DIMTALN
 70
     0
  0
APPID
  5
23F0
330
9
100
AcDbSymbolTableRecord
100
AcDbRegAppTableRecord
  2
ACAD_DSTYLE_DIMEXT_ENABLED
 70
     0
  0
APPID
  5
23F1
330
9
100
AcDbSymbolTableRecord
100
AcDbRegAppTableRecord
  2
ACAD_DSTYLE_DIMEXT_LENGTH
 70
     0
  0
APPID
  5
23F2
330
9
100
AcDbSymbolTableRecord
100
AcDbRegAppTableRecord
  2
DCO15
 70
     0
  0
APPID
  5
23F3
330
9
100
AcDbSymbolTableRecord
100
AcDbRegAppTableRecord
  2
AcadAnnotative
 70
     0
  0
APPID
  5
23F4
330
9
100
AcDbSymbolTableRecord
100
AcDbRegAppTableRecord
  2
AcadAnnoPO
 70
     0
  0
APPID
  5
23F5
330
9
100
AcDbSymbolTableRecord
100
AcDbRegAppTableRecord
  2
ACAD_DSTYLE_DIMRADIAL_EXTENSION
 70
     0
  0
APPID
  5
23F6
330
9
100
AcDbSymbolTableRecord
100
AcDbRegAppTableRecord
  2
ACAD_DSTYLE_DIMBREAK
 70
     0
  0
APPID
  5
23F7
330
9
100
AcDbSymbolTableRecord
100
AcDbRegAppTableRecord
  2
AcAecLayerStandard
 70
     0
  0
APPID
  5
279F
330
9
100
AcDbSymbolTableRecord
100
AcDbRegAppTableRecord
  2
AcadAnnoAV
 70
     0
  0
APPID
  5
27C8
330
9
100
AcDbSymbolTableRecord
100
AcDbRegAppTableRecord
  2
ACAUTHENVIRON
 70
     0
  0
APPID
  5
27CE
330
9
100
AcDbSymbolTableRecord
100
AcDbRegAppTableRecord
  2
AcDbDynamicBlockTrueName
 70
     0
  0
APPID
  5
27CF
330
9
100
AcDbSymbolTableRecord
100
AcDbRegAppTableRecord
  2
AcDbDynamicBlockGUID
 70
     0
  0
APPID
  5
2B3B
330
9
100
AcDbSymbolTableRecord
100
AcDbRegAppTableRecord
  2
AECBASE
 70
     0
  0
APPID
  5
2DEF
330
9
100
AcDbSymbolTableRecord
100
AcDbRegAppTableRecord
  2
ACAD_NAV_VCDISPLAY
 70
     0
  0
APPID
  5
310B
330
9
100
AcDbSymbolTableRecord
100
AcDbRegAppTableRecord
  2
AcCmTransparency
 70
     0
  0
APPID
  5
3348
330
9
100
AcDbSymbolTableRecord
100
AcDbRegAppTableRecord
  2
AcDbBlockRepETag
 70
     0
  0
APPID
  5
4231
330
9
100
AcDbSymbolTableRecord
100
AcDbRegAppTableRecord
  2
AcadBPTGraphNodeId
 70
     0
  0
APPID
  5
4238
330
9
100
AcDbSymbolTableRecord
100
AcDbRegAppTableRecord
  2
AcDbDynamicBlockTrueName2
 70
     0
  0
APPID
  5
4245
330
9
100
AcDbSymbolTableRecord
100
AcDbRegAppTableRecord
  2
AcDbBlockRepBTag
 70
     0
  0
APPID
  5
BB9C
330
9
100
AcDbSymbolTableRecord
100
AcDbRegAppTableRecord
  2
GradientColor1ACI
 70
     0
  0
APPID
  5
BB9D
330
9
100
AcDbSymbolTableRecord
100
AcDbRegAppTableRecord
  2
GradientColor2ACI
 70
     0
  0
APPID
  5
DFC0
330
9
100
AcDbSymbolTableRecord
100
AcDbRegAppTableRecord
  2
AEC_ISOLATEDOBJECTS_XDATA
 70
     0
  0
ENDTAB
  0
TABLE
  2
DIMSTYLE
  5
A
330
0
100
AcDbSymbolTable
 70
     7
100
AcDbDimStyleTable
 71
     4
340
108C
340
E4D6
340
E4D7
340
49A6
  0
DIMSTYLE
105
108C
330
A
100
AcDbSymbolTableRecord
100
AcDbDimStyleTableRecord
  2
BEM-10
 70
     0
 40
10.0
 41
2.0
 42
2.0
 43
6.0
 44
1.0
 46
1.0
 73
     0
 74
     0
 77
     1
 78
     8
 79
     2
140
3.0
141
0.0
143
0.03937
147
1.0
172
     1
173
     1
174
     1
176
    10
177
    10
178
     7
179
     1
271
     1
272
     1
279
     2
284
     8
340
54
343
41
344
41
1001
ACAD_DSTYLE_DIMJAG
1070
   388
1040
1.5
1001
ACAD_DSTYLE_DIMTALN
1070
   392
1070
     0
  0
DIMSTYLE
105
49A6
330
A
100
AcDbSymbolTableRecord
100
AcDbDimStyleTableRecord
  2
Standard
 70
     0
 41
2.5
 42
0.0
 43
6.0
 44
0.5
 73
     0
 74
     0
 77
     1
 78
     8
 79
     2
140
2.5
141
0.0
147
0.5
172
     1
176
    10
177
    10
179
     1
271
     1
272
     1
279
     2
340
10
1001
ACAD_DSTYLE_DIMJAG
1070
   388
1040
1.5
1001
ACAD_DSTYLE_DIMTALN
1070
   392
1070
     0
  0
DIMSTYLE
105
E268
330
A
100
AcDbSymbolTableRecord
100
AcDbDimStyleTableRecord
  2
M1_1
 70
     0
 41
1.5
 42
1.5
 43
0.7
 44
0.2
 73
     0
 74
     0
 77
     1
140
3.5
141
0.1
147
1.0
173
     1
178
     7
271
     0
272
     0
340
10
341
41
343
41
344
41
  0
DIMSTYLE
105
E269
330
A
100
AcDbSymbolTableRecord
100
AcDbDimStyleTableRecord
  2
M1_1$0
 70
     0
 41
1.5
 42
1.5
 43
0.5
 44
0.2
 73
     0
 74
     0
 77
     1
140
3.5
141
0.1
147
1.0
173
     1
178
     7
271
     0
272
     0
340
10
341
41
343
41
344
41
  0
DIMSTYLE
105
E4D6
102
{ACAD_REACTORS
330
E321
102
}
330
A
100
AcDbSymbolTableRecord
100
AcDbDimStyleTableRecord
  2
Studer Standard M1_5 ab3
 70
     0
 40
0.0
 41
3.0
 42
3.0
 43
0.7
 44
2.0
 46
2.0
 73
     0
 74
     0
 77
     1
140
3.5
141
0.1
147
1.0
173
     1
176
     5
177
     5
178
     5
271
     0
272
     0
340
10
341
41
343
41
344
41
1001
ACAD_DSTYLE_DIMBREAK
1070
   391
1040
3.75
1001
ACAD_DSTYLE_DIMJAG
1070
   388
1040
1.5
1001
ACAD_DSTYLE_DIMTALN
1070
   392
1070
     0
  0
DIMSTYLE
105
E4D7
102
{ACAD_REACTORS
330
E2CC
330
E620
102
}
330
A
100
AcDbSymbolTableRecord
100
AcDbDimStyleTableRecord
  2
Studer Standard M1_5 ab10
 70
     0
 40
0.0
 41
3.0
 42
10.0
 43
0.7
 44
2.0
 46
2.0
 73
     0
 74
     0
 77
     1
140
3.5
141
0.1
147
1.0
173
     1
176
     5
177
     5
178
     5
271
     0
272
     0
340
10
341
41
343
41
344
41
1001
ACAD_DSTYLE_DIMBREAK
1070
   391
1040
3.75
1001
ACAD_DSTYLE_DIMJAG
1070
   388
1040
1.5
1001
ACAD_DSTYLE_DIMTALN
1070
   392
1070
     0
  0
ENDTAB
  0
TABLE
  2
BLOCK_RECORD
  5
1
330
0
100
AcDbSymbolTable
 70
    14
  0
BLOCK_RECORD
  5
19
102
{ACAD_XDICTIONARY
360
2792
102
}
330
1
100
AcDbSymbolTableRecord
100
AcDbBlockTableRecord
  2
*MODEL_SPACE
340
579
 70
     0
280
     1
281
     0
  0
BLOCK_RECORD
  5
ACD
102
{ACAD_XDICTIONARY
360
BB9F
102
}
330
1
100
AcDbSymbolTableRecord
100
AcDbBlockTableRecord
  2
*Paper_Space
340
ACE
 70
     0
280
     1
281
     0
  0
BLOCK_RECORD
  5
41
330
1
100
AcDbSymbolTableRecord
100
AcDbBlockTableRecord
  2
_OBLIQUE
340
0
310
2800000020000000200000000100080000000000000400000000000000000000000000000000000000000000000080000080000000808000800000008000800080800000C0C0C000C0DCC000F0CAA6000020400000206000002080000020A0000020C0000020E00000400000004020000040400000406000004080000040A0
310
000040C0000040E00000600000006020000060400000606000006080000060A0000060C0000060E00000800000008020000080400000806000008080000080A0000080C0000080E00000A0000000A0200000A0400000A0600000A0800000A0A00000A0C00000A0E00000C0000000C0200000C0400000C0600000C0800000C0
310
A00000C0C00000C0E00000E0000000E0200000E0400000E0600000E0800000E0A00000E0C00000E0E00040000000400020004000400040006000400080004000A0004000C0004000E00040200000402020004020400040206000402080004020A0004020C0004020E000404000004040200040404000404060004040800040
310
40A0004040C0004040E00040600000406020004060400040606000406080004060A0004060C0004060E00040800000408020004080400040806000408080004080A0004080C0004080E00040A0000040A0200040A0400040A0600040A0800040A0A00040A0C00040A0E00040C0000040C0200040C0400040C0600040C08000
310
40C0A00040C0C00040C0E00040E0000040E0200040E0400040E0600040E0800040E0A00040E0C00040E0E00080000000800020008000400080006000800080008000A0008000C0008000E00080200000802020008020400080206000802080008020A0008020C0008020E00080400000804020008040400080406000804080
310
008040A0008040C0008040E00080600000806020008060400080606000806080008060A0008060C0008060E00080800000808020008080400080806000808080008080A0008080C0008080E00080A0000080A0200080A0400080A0600080A0800080A0A00080A0C00080A0E00080C0000080C0200080C0400080C0600080C0
310
800080C0A00080C0C00080C0E00080E0000080E0200080E0400080E0600080E0800080E0A00080E0C00080E0E000C0000000C0002000C0004000C0006000C0008000C000A000C000C000C000E000C0200000C0202000C0204000C0206000C0208000C020A000C020C000C020E000C0400000C0402000C0404000C0406000C0
310
408000C040A000C040C000C040E000C0600000C0602000C0604000C0606000C0608000C060A000C060C000C060E000C0800000C0802000C0804000C0806000C0808000C080A000C080C000C080E000C0A00000C0A02000C0A04000C0A06000C0A08000C0A0A000C0A0C000C0A0E000C0C00000C0C02000C0C04000C0C06000
310
C0C08000C0C0A000F0FBFF00A4A0A000808080000000FF0000FF000000FFFF00FF000000FF00FF00FFFF0000FFFFFF00F6F6F6F6F6F6F6F6F6F6F6F6F6F6F6F6F6F6F6F6F6F6F6F6F6F6F6F6F6F6F6F6F600F6F6F6F6F6F6F6F6F6F6F6F6F6F6F6F6F6F6F6F6F6F6F6F6F6F6F6F6F6F6F6F600F6F6F6F6F6F6F6F6F6F6F6F6
310
F6F6F6F6F6F6F6F6F6F6F6F6F6F6F6F6F6F6F6F600F6F6F6F6F6F6F6F6F6F6F6F6F6F6F6F6F6F6F6F6F6F6F6F6F6F6F6F6F6F6F6F600F6F6F6F6F6F6F6F6F6F6F6F6F6F6F6F6F6F6F6F6F6F6F6F6F6F6F6F6F6F6F6F600F6F6F6F6F6F6F6F6F6F6F6F6F6F6F6F6F6F6F6F6F6F6F6F6F6F6F6F6F6F6F6F600F6F6F6F6F6F6F6
310
F6F6F6F6F6F6F6F6F6F6F6F6F6F6F6F6F6F6F6F6F6F6F6F6F600F6F6F6F6F6F6F6F6F6F6F6F6F6F6F6F6F6F6F6F6F6F6F6F6F6F6F6F6F6F6F6F600F6F6F6F6F6F6F6F6F6F6F6F6F6F6F6F6F6F6F6F6F6F6F6F6F6F6F6F6F6F6F6F600F6F6F6F6F6F6F6F6F6F6F6F6F6F6F6F6F6F6F6F6F6F6F6F6F6F6F6F6F6F6F6F600F6F6
310
F6F6F6F6F6F6F6F6F6F6F6F6F6F6F6F6F6F6F6F6F6F6F6F6F6F6F6F6F6F600F6F6F6F6F6F6F6F6F6F6F6F6F6F6F6F6F6F6F6F6F6F6F6F6F6F6F6F6F6F6F6F600F6F6F6F6F6F6F6F6F6F6F6F6F6F6F6F6F6F6F6F6F6F6F6F6F6F6F6F6F6F6F6F600F6F6F6F6F6F6F6F6F6F6F6F6F6F6F6F6F6F6F6F6F6F6F6F6F6F6F6F6F6F6
310
F6F600F6F6F6F6F6F6F6F6F6F6F6F6F6F6F6F6F6F6F6F6F6F6F6F6F6F6F6F6F6F6F6F600F6F6F6F6F6F6F6F6F6F6F6F6F6F6F6F6F6F6F6F6F6F6F6F6F6F6F6F6F6F6F6F600F6F6F6F6F6F6F6F6F6F6F6F6F6F6F6F6F6F6F6F6F6F6F6F6F6F6F6F6F6F6F6F600F6F6F6F6F6F6F6F6F6F6F6F6F6F6F6F6F6F6F6F6F6F6F6F6F6
310
F6F6F6F6F6F6F600F6F6F6F6F6F6F6F6F6F6F6F6F6F6F6F6F6F6F6F6F6F6F6F6F6F6F6F6F6F6F6F600F6F6F6F6F6F6F6F6F6F6F6F6F6F6F6F6F6F6F6F6F6F6F6F6F6F6F6F6F6F6F6F600F6F6F6F6F6F6F6F6F6F6F6F6F6F6F6F6F6F6F6F6F6F6F6F6F6F6F6F6F6F6F6F600F6F6F6F6F6F6F6F6F6F6F6F6F6F6F6F6F6F6F6F6
310
F6F6F6F6F6F6F6F6F6F6F6F600F6F6F6F6F6F6F6F6F6F6F6F6F6F6F6F6F6F6F6F6F6F6F6F6F6F6F6F6F6F6F6F600F6F6F6F6F6F6F6F6F6F6F6F6F6F6F6F6F6F6F6F6F6F6F6F6F6F6F6F6F6F6F6F600F6F6F6F6F6F6F6F6F6F6F6F6F6F6F6F6F6F6F6F6F6F6F6F6F6F6F6F6F6F6F6F600F6F6F6F6F6F6F6F6F6F6F6F6F6F6F6
310
F6F6F6F6F6F6F6F6F6F6F6F6F6F6F6F6F600F6F6F6F6F6F6F6F6F6F6F6F6F6F6F6F6F6F6F6F6F6F6F6F6F6F6F6F6F6F6F6F600F6F6F6F6F6F6F6F6F6F6F6F6F6F6F6F6F6F6F6F6F6F6F6F6F6F6F6F6F6F6F6F600F6F6F6F6F6F6F6F6F6F6F6F6F6F6F6F6F6F6F6F6F6F6F6F6F6F6F6F6F6F6F6F600F6F6F6F6F6F6F6F6F6F6
310
F6F6F6F6F6F6F6F6F6F6F6F6F6F6F6F6F6F6F6F6F6F600F6F6F6F6F6F6F6F6F6F6F6F6F6F6F6F6F6F6F6F6F6F6F6F6F6F6F6F6F6F6F6F6F6
102
{BLKREFS
331
E6A9
331
E6AA
331
E608
331
E609
331
E611
331
E612
331
E671
331
E672
102
}
 70
     0
280
     1
281
     0
  0
BLOCK_RECORD
  5
2CD1
102
{ACAD_XDICTIONARY
360
E6C8
102
}
330
1
100
AcDbSymbolTableRecord
100
AcDbBlockTableRecord
  2
RK_Plankopf_klein_cad-support
340
0
 70
     4
280
     1
281
     0
1001
AcDbDynamicBlockTrueName2
1000
RK_Plankopf_klein_cad-support
1001
AcDbDynamicBlockGUID
1000
{AA931AD8-BADE-42AF-BD45-94EC233D5C4E}
1001
AcDbBlockRepETag
1070
     1
1071
       38
  0
BLOCK_RECORD
  5
C31F
102
{ACAD_XDICTIONARY
360
E3B7
102
}
330
1
100
AcDbSymbolTableRecord
100
AcDbBlockTableRecord
  2
Beste
340
0
310
28000000200000002000000001002000000000000010000001000000010000000000000000000000FFFFFFFFFFFFFFFFFFFFFFFFFFFFFFFFFFFFFFFFFFFFFFFFFFFFFFFFFFFFFFFFFFFFFFFFFFFFFFFFFFFFFFFFFFFFFFFFFFFFFFFFFFFFFFFFFFFFFFFFFFFFFFFFFFFFFFFFFFFFFFFFFFFFFFFFFFFFFFFFFFFFFFFFFFFFFF
310
FFFFFFFFFFFFFFFFFFFFFFFFFFFFFFFFFFFFFFFFFFFFFFFFFFFFFFFFFFFFFFFFFFFFFFFFFFFFFFFFFFFFFFFFFFFFFFFFFFFFFFFFFFFFFFFFFFFFFFFFFFFFFFFFFFFFFFFFFFFFFFFFFFFFFFFFFFFFFFFFFFFFFFFFFFFFFFFFFFFFFFFFFFFFFFFFFFFFFFFFFFFFFFFFFFFFFFFFFFFFFFFFFFFFFFFFFFFFFFFFFFFFFFFFFFFFFF
310
FFFFFFFFFFFFFFFFFFFFFFFFFFFFFFFFFFFFFFFFFFFFFFFFFFFFFFFFFFFFFFFFFFFFFFFFFFFFFFFFFFFFFFFFFFFFFFFFFFFFFFFFFFFFFFFFFFFFFFFFFFFFFFFFFFFFFFFFFFFFFFFFFFFFFFFFFFFFFFFFFFFFFFFFFFFFFFFFFFFFFFFFFFFFFFFFFFFFFFFFFFFFFFFFFFFFFFFFFFFFFFFFFFFFFFFFFFFFFFFFFFFFFFFFFFFFFF
310
FFFFFFFFFFFFFFFFFFFFFFFFFFFFFFFFFFFFFFFFFFFFFFFFFFFFFFFFFFFFFFFFFFFFFFFFFFFFFFFFFFFFFFFFFFFFFFFFFFFFFFFFFFFFFFFFFFFFFFFFFFFFFFFFFFFFFFFFFFFFFFFFFFFFFFFFFFFFFFFFFFFFFFFFFFFFFFFFFFFFFFFFFFFFFFFFFFFFFFFFFFFFFFFFFFFFFFFFFFFFFFFFFFFFFFFFFFFFFFFFFFFFFFFFFFFFFF
310
FFFFFFFFFFFFFFFFFFFFFFFFFFFFFFFFFFFFFFFFFFFFFFFFFFFFFFFFFFFFFFFFFFFFFFFFFFFFFFFFFFFFFFFFFFFFFFFFFFFFFFFFFFFFFFFFFFFFFFFFFFFFFFFFFFFFFFFFFFFFFFFFFFFFFFFFFFFFFFFFFFFFFFFFFFFFFFFFFFFFFFFFFFFFFFFFFFFFFFFFFFFFFFFFFFFFFFFFFFFFFFFFFFFFFFFFFFFFFFFFFFFFFFFFFFFFFF
310
FFFFFFFFFFFFFFFFFFFFFFFFFFFFFFFFFFFFFFFFFFFFFFFFFFFFFFFFFFFFFFFFFFFFFFFFFFFFFFFFFFFFFFFFFFFFFFFFFFFFFFFFFFFFFFFFFFFFFFFFFFFFFFFFFFFFFFFFFFFFFFFFFFFFFFFFFFFFFFFFFFFFFFFFFFFFFFFFFFFFFFFFFFFFFFFFFFFFFFFFFFFFFFFFFFFFFFFFFFFFFFFFFFFFFFFFFFFFFFFFFFFFFFFFFFFFFF
310
FFFFFFFFFFFFFFFFFFFFFFFFFFFFFFFFFFFFFFFFFFFFFFFFFFFFFFFFFFFFFFFFFFFFFFFFFFFFFFFFFFFFFFFFFFFFFFFFFFFFFFFFFFFFFFFFFFFFFFFFFFFFFFFFFFFFFFFFFFFFFFFFFFFFFFFFFFFFFFFFFFFFFFFFFFFFFFFFFFFFFFFFFFFFFFFFFFFFFFFFFFFFFFFFFFFFFFFFFFFFFFFFFFFFFFFFFFFFFFFFFFFFFFFFFFFFFF
310
FFFFFFFFFFFFFFFFFFFFFFFFFFFFFFFFFFFFFFFFFFFFFFFFFFFFFFFFFFFFFFFFFFFFFFFFFFFFFFFFFFFFFFFFFFFFFFFFFFFFFFFFFFFFFFFFFFFFFFFFFFFFFFFFFFFFFFFFFFFFFFFFFFFFFFFFFFFFFFFFFFFFFFFFFFFFFFFFFFFFFFFFFFFFFFFFFFFFFFFFFFFFFFFFFFFFFFFFFFFFFFFFFFFFFFFFFFFFFFFFFFFFFFFFFFFFFF
310
FFFFFFFFFFFFFFFFFFFFFFFFFFFFFFFFFFFFFFFFFFFFFFFFFFFFFFFFFFFFFFFFFFFFFFFFFFFFFFFFFFFFFFFFFFFFFFFFFFFFFFFFFFFFFFFFFFFFFFFFFFFFFFFFFFFFFFFFFFFFFFFFFFFFFFFFFFFFFFFFFFFFFFFFFFFFFFFFFFFFFFFFFFFFFFFFFFFFFFFFFFFFFFFFFFFFFFFFFFFFFFFFFFFFFFFFFFFFFFFFFFFFFFFFFFFFFF
310
FFFFFFFFFFFFFFFFFFFFFFFFFFFFFFFFFFFFFFFFFFFFFFFFFFFFFFFFFFFFFFFFFFFFFFFFFFFFFFFFFFFFFFFFFFFFFFFFFFFFFFFFFFFFFFFFFFFFFFFFFFFFFFFFFFFFFFFFFFFFFFFFFFFFFFFFFFFFFFFFFFFFFFFFFFFFFFFFFFFFFFFFFFFFFFFFFFFFFFFFFFFFFFFFFFFFFFFFFFFFFFFFFFFFFFFFFFFFFFFFFFFFFFFFFFFFFF
310
FFFFFFFFFFFFFFFFFFFFFFFFFFFFFFFFFFFFFFFFFFFFFFFFFFFFFFFFFFFFFFFFFFFFFFFFFFFFFFFFFFFFFFFFFFFFFFFFFFFFFFFFFFFFFFFFFFFFFFFFFFFFFFFFFFFFFFFFFFFFFFFFFFFFFFFFFFFFFFFFFFFFFFFFFFFFFFFFFFFFFFFFFFFFFFFFFFFFFFFFFFFFFFFFFFFFFFFFFFFFFFFFFFFFFFFFFFFFFFFFFFFFFFFFFFFFFF
310
FFFFFFFFFFFFFFFFFFFFFFFFFFFFFFFFFFFFFFFFFFFFFFFFFFFFFFFFFFFFFFFFFFFFFFFFFFFFFFFFFFFFFFFFFFFFFFFFFFFFFFFFFFFFFFFFFFFFFFFFFFFFFFFFFFFFFFFFFFFFFFFFFFFFFFFFFFFFFFFFFFFFFFFFFFFFFFFFFFFFFFFFFFFFFFFFFFFFFFFFFFFFFFFFFFFFFFFFFFFFFFFFFFFFFFFFFFFFFFFFFFFFFFFFFFFFFF
310
FFFFFFFFFFFFFFFFFFFFFFFFFFFFFFFFFFFFFFFFFFFFFFFFFFFFFFFFFFFFFFFFFFFFFFFFFFFFFFFFFFFFFFFFFFFFFFFFFFFFFFFFFFFFFFFFFF0000FFFF0000FFFF0000FFFF0000FFFF0000FFFF0000FFFF0000FFFFFFFFFFFFFFFFFFFFFFFFFFFFFFFFFFFFFFFFFF000000FF000000FF000000FF000000FF000000FF000000
310
FF000000FF000000FF000000FF000000FF000000FF000000FFFFFFFFFFFFFFFFFFFFFFFFFFFFFFFFFFFFFFFFFFFFFFFFFFFFFFFFFFFFFFFFFFFF0000FFFF0000FFFF0000FFFF0000FFFF0000FFFF0000FFFF0000FFFFFFFFFFFFFFFFFFFFFFFFFFFFFFFFFFFFFFFFFFFF0000FFFF0000FFFF0000FF000000FF000000FF0000
310
00FF000000FF000000FF000000FF000000FF000000FF000000FFFFFFFFFFFFFFFFFFFFFFFFFFFFFFFFFFFFFFFFFFFFFFFFFFFFFFFFFFFFFFFFFFFF0000FFFF0000FFFF0000FFFF0000FFFF0000FFFF0000FFFF0000FFFF0000FFFF0000FFFF0000FFFF0000FFFF0000FF000000FF000000FF000000FF000000FF000000FF00
310
0000FF000000FF000000FF000000FF000000FF000000FF000000FFFFFFFFFFFFFFFFFFFFFFFFFFFFFFFFFFFFFFFFFFFFFFFFFFFFFFFFFFFFFFFFFFFF0000FFFF0000FFFF0000FFFF0000FFFF0000FFFFFFFFFFFFFFFFFFFFFFFFFFFFFFFFFFFFFFFFFFFFFFFFFFFFFFFFFFFF0000FFFF0000FFFF0000FF000000FF000000FF
310
000000FF000000FF000000FF000000FF000000FF000000FF000000FFFFFFFFFFFFFFFFFFFFFFFFFFFFFFFFFFFFFFFFFFFFFFFFFFFFFFFFFFFFFFFFFFFF0000FFFF0000FFFF0000FFFF0000FFFF0000FFFF0000FFFF0000FFFF0000FFFF0000FFFF0000FFFF0000FFFF0000FFFF0000FFFF0000FFFF0000FF000000FFFF0000
310
FFFF0000FF000000FF000000FF000000FF000000FF000000FF000000FFFFFFFFFFFFFFFFFFFFFFFFFFFFFFFFFFFFFFFFFFFFFFFFFFFFFFFFFFFFFFFFFFFF0000FFFF0000FFFF0000FFFF0000FFFFFFFFFFFFFFFFFFFFFFFFFFFFFFFFFFFFFFFFFFFFFFFFFFFFFFFFFFFFFFFFFF000000FF000000FF000000FF000000FFFF00
310
00FFFF0000FF000000FF000000FF000000FF000000FF000000FF000000FFFFFFFFFFFFFFFFFFFFFFFFFFFFFFFFFFFFFFFFFFFFFFFFFFFFFFFFFFFFFFFFFFFF0000FFFF0000FFFF0000FFFF0000FFFF0000FFFF0000FFFF0000FFFF0000FFFF0000FFFF0000FFFF0000FFFF0000FFFF0000FFFF0000FFFF0000FF000000FFFF
310
0000FF000000FF000000FF000000FFFFFFFFFFFFFFFFFFFFFFFFFF000000FFFFFFFFFFFFFFFFFFFFFFFFFFFFFFFFFFFFFFFFFFFFFFFFFFFFFFFFFFFFFFFFFFFF0000FFFF0000FFFF0000FFFFFFFFFFFF0000FFFF0000FFFF0000FFFF0000FFFFFFFFFFFF0000FFFF0000FFFFFFFFFF000000FF000000FF000000FF000000FF
310
000000FF000000FF000000FF000000FF000000FF000000FF000000FF000000FFFFFFFFFFFFFFFFFFFFFFFFFFFFFFFFFFFFFFFFFFFFFFFFFFFFFFFFFFFFFFFFFFFFFFFFFFFFFFFFFFFFFFFFFFFFFFFFFFFFFFFFFFFFFFFFFFFFFFFFFFFFFFFFFFFFFFFFFFFFFFFFFFFFFFFFFFFFFFFFFFFFFFFFFFFFFFFFFFFFFFFFFFFFFFFF
310
FFFFFFFFFFFFFFFFFFFFFFFFFFFFFFFFFFFFFFFFFFFFFFFFFFFFFFFFFFFFFFFFFFFFFFFFFFFFFFFFFFFFFFFFFFFFFFFFFFFFFFFFFFFFFFFFFFFFFFFFFFFFFFFFFFFFFFFFFFFFFFFFFFFFFFFFFFFFFFFFFFFFFFFFFFFFFFFFFFFFFFFFFFFFFFFFFFFFFFFFFFFFFFFFFFFFFFFFFFFFFFFFFFFFFFFFFFFFFFFFFFFFFFFFFFFFFF
310
FFFFFFFFFFFFFFFFFFFFFFFFFFFFFFFFFFFFFFFFFFFFFFFFFFFFFFFFFFFFFFFFFFFFFFFFFFFFFFFFFFFFFFFFFFFFFFFFFFFFFFFFFFFFFFFFFFFFFFFFFFFFFFFFFFFFFFFFFFFFFFFFFFFFFFFFFFFFFFFFFFFFFFFFFFFFFFFFFFFFFFFFFFFFFFFFFFFFFFFFFFFFFFFFFFFFFFFFFFFFFFFFFFFFFFFFFFFFFFFFFFFFFFFFFFFFFF
310
FFFFFFFFFFFFFFFFFFFFFFFFFFFFFFFFFFFFFFFFFFFFFFFFFFFFFFFFFFFFFFFFFFFFFFFFFFFFFFFFFFFFFFFFFFFFFFFFFFFFFFFFFFFFFFFFFFFFFFFFFFFFFFFFFFFFFFFFFFFFFFFFFFFFFFFFFFFFFFFFFFFFFFFFFFFFFFFFFFFFFFFFFFFFFFFFFFFFFFFFFFFFFFFFFFFFFFFFFFFFFFFFFFFFFFFFFFFFFFFFFFFFFFFFFFFFFF
310
FFFFFFFFFFFFFFFFFFFFFFFFFFFFFFFFFFFFFFFFFFFFFFFFFFFFFFFFFFFFFFFFFFFFFFFFFFFFFFFFFFFFFFFFFFFFFFFFFFFFFFFFFFFFFFFFFFFFFFFFFFFFFFFFFFFFFFFFFFFFFFFFFFFFFFFFFFFFFFFFFFFFFFFFFFFFFFFFFFFFFFFFFFFFFFFFFFFFFFFFFFFFFFFFFFFFFFFFFFFFFFFFFFFFFFFFFFFFFFFFFFFFFFFFFFFFFF
310
FFFFFFFFFFFFFFFFFFFFFFFFFFFFFFFFFFFFFFFFFFFFFFFFFFFFFFFFFFFFFFFFFFFFFFFFFFFFFFFFFFFFFFFFFFFFFFFFFFFFFFFFFFFFFFFFFFFFFFFFFFFFFFFFFFFFFFFFFFFFFFFFFFFFFFFFFFFFFFFFFFFFFFFFFFFFFFFFFFFFFFFFFFFFFFFFFFFFFFFFFFFFFFFFFFFFFFFFFFFFFFFFFFFFFFFFFFFFFFFFFFFFFFFFFFFFFF
310
FFFFFFFFFFFFFFFFFFFFFFFFFFFFFFFFFFFFFFFFFFFFFFFFFFFFFFFFFFFFFFFFFFFFFFFFFFFFFFFFFFFFFFFFFFFFFFFFFFFFFFFFFFFFFFFFFFFFFFFFFFFFFFFFFFFFFFFFFFFFFFFFFFFFFFFFFFFFFFFFFFFFFFFFFFFFFFFFFFFFFFFFFFFFFFFFFFFFFFFFFFFFFFFFFFFFFFFFFFFFFFFFFFFFFFFFFFFFFFFFFFFFFFFFFFFFFF
310
FFFFFFFFFFFFFFFFFFFFFFFFFFFFFFFFFFFFFFFFFFFFFFFFFFFFFFFFFFFFFFFFFFFFFFFFFFFFFFFFFFFFFFFFFFFFFFFFFFFFFFFFFFFFFFFFFFFFFFFFFFFFFFFFFFFFFFFFFFFFFFFFFFFFFFFFFFFFFFFFFFFFFFFFFFFFFFFFFFFFFFFFFFFFFFFFFFFFFFFFFFFFFFFFFFFFFFFFFFFFFFFFFFFFFFFFFFFFFFFFFFFFFFFFFFFFFF
310
FFFFFFFFFFFFFFFFFFFFFFFFFFFFFFFFFFFFFFFFFFFFFFFFFFFFFFFFFFFFFFFFFFFFFFFFFFFFFFFFFFFFFFFFFFFFFFFFFFFFFFFFFFFFFFFFFFFFFFFFFFFFFFFFFFFFFFFFFFFFFFFFFFFFFFFFFFFFFFFFFFFFFFFFFFFFFFFFFFFFFFFFFFFFFFFFFFFFFFFFFFFFFFFFFFFFFFFFFFFFFFFFFFFFFFFFFFFFFFFFFFFFFFFFFFFFFF
310
FFFFFFFFFFFFFFFFFFFFFFFFFFFFFFFFFFFFFFFFFFFFFFFFFFFFFFFFFFFFFFFFFFFFFFFFFFFFFFFFFFFFFFFFFFFFFFFFFFFFFFFFFFFFFFFFFFFFFFFFFFFFFFFFFFFFFFFFFFFFFFFFFFFFFFFFFFFFFFFFFFFFFFFFFFFFFFFFFFFFFFFFFFFFFFFFFFFFFFFFFFFFFFFFFFFFFFFFFFFFFFFFFFFFFFFFFFFFFFFFFFFFFFFFFFFFFF
310
FFFFFFFFFFFFFFFFFFFFFFFFFFFFFFFFFFFFFFFFFFFFFFFFFFFFFFFFFFFFFFFFFFFFFFFFFFFFFFFFFFFFFFFFFFFFFFFFFFFFFFFFFFFFFFFFFFFFFFFFFFFFFFFFFFFFFFFFFFFFFFFFFFFFFFFFFFFFFFFFFFFFFFFFFFFFFFFFFFFFFFFFFFFFFFFFFFFFFFFFFFFFFFFFFFFFFFFFFFFFFFFFFFFFFFFFFFFFFFFFFFFFFFFFFFFFFF
310
FFFFFFFFFFFFFFFFFFFFFFFFFFFFFFFFFFFFFFFFFFFFFFFFFFFFFFFFFFFFFFFFFFFFFFFFFFFFFFFFFFFFFFFFFFFFFFFFFFFFFFFFFFFFFFFFFFFFFFFFFFFFFFFFFFFFFFFFFFFFFFFFFFFFFFFFFFFFFFFFFFFFFFFFFFFFFFFFFFFFFFFFFFFFFFFFFFFFFFFFFFFFFFFFFFFFFFFFFFFFFFFFFFFFFFFFFFFFFFFFFFFFFFFFFFFFFF
310
FFFFFFFFFFFFFFFFFFFFFFFFFFFFFFFFFFFFFFFFFFFFFFFFFFFFFFFFFFFFFFFFFFFFFFFFFFFFFFFFFFFFFFFFFFFFFFFFFFFFFFFFFFFFFFFFFFFFFFFFFFFFFFFFFFFFFFFFFFFFFFFF
 70
     4
280
     1
281
     0
1001
AcDbBlockRepETag
1070
     1
1071
       74
1001
AcDbDynamicBlockTrueName
1000
Beste
1001
AcDbDynamicBlockGUID
1000
{7DE24C43-C014-43DF-B8E2-5FD83A072523}
  0
BLOCK_RECORD
  5
DABB
102
{ACAD_XDICTIONARY
360
DAD0
102
}
330
1
100
AcDbSymbolTableRecord
100
AcDbBlockTableRecord
  2
*U3
340
0
 70
     0
280
     1
281
     0
1001
AcDbBlockRepBTag
1070
     1
1005
2CD1
  0
BLOCK_RECORD
  5
E322
330
1
100
AcDbSymbolTableRecord
100
AcDbBlockTableRecord
  2
*D4
340
0
 70
     0
280
     1
281
     0
  0
BLOCK_RECORD
  5
E32E
330
1
100
AcDbSymbolTableRecord
100
AcDbBlockTableRecord
  2
*D5
340
0
 70
     0
280
     1
281
     0
  0
BLOCK_RECORD
  5
E33A
330
1
100
AcDbSymbolTableRecord
100
AcDbBlockTableRecord
  2
*D6
340
0
 70
     0
280
     1
281
     0
  0
BLOCK_RECORD
  5
E3C3
102
{ACAD_XDICTIONARY
360
E407
102
}
330
1
100
AcDbSymbolTableRecord
100
AcDbBlockTableRecord
  2
*U7
340
0
102
{BLKREFS
331
E105
102
}
 70
     0
280
     1
281
     0
1001
AcDbBlockRepBTag
1070
     1
1005
C31F
  0
BLOCK_RECORD
  5
E621
330
1
100
AcDbSymbolTableRecord
100
AcDbBlockTableRecord
  2
*D8
340
0
 70
     0
280
     1
281
     0
  0
BLOCK_RECORD
  5
E6E1
102
{ACAD_XDICTIONARY
360
E6F8
102
}
330
1
100
AcDbSymbolTableRecord
100
AcDbBlockTableRecord
  2
*U11
340
0
102
{BLKREFS
331
6AB7
102
}
 70
     0
280
     1
281
     0
1001
AcDbBlockRepBTag
1070
     1
1005
2CD1
  0
ENDTAB
  0
ENDSEC
  0
SECTION
  2
BLOCKS
  0
BLOCK
  5
1A
330
19
100
AcDbEntity
  8
0
100
AcDbBlockBegin
  2
*MODEL_SPACE
 70
     0
 10
0.0
 20
0.0
 30
0.0
  3
*MODEL_SPACE
  1

  0
ENDBLK
  5
1B
330
19
100
AcDbEntity
  8
0
100
AcDbBlockEnd
  0
BLOCK
  5
ACF
330
ACD
100
AcDbEntity
 67
     1
  8
0
100
AcDbBlockBegin
  2
*Paper_Space
 70
     0
 10
0.0
 20
0.0
 30
0.0
  3
*Paper_Space
  1

  0
ENDBLK
  5
AD0
330
ACD
100
AcDbEntity
 67
     1
  8
0
100
AcDbBlockEnd
  0
BLOCK
  5
42
330
41
100
AcDbEntity
  8
0
100
AcDbBlockBegin
  2
_OBLIQUE
 70
     0
 10
0.0
 20
0.0
 30
0.0
  3
_OBLIQUE
  1

  0
LINE
  5
43
330
41
100
AcDbEntity
  8
0
  6
ByBlock
 62
     0
100
AcDbLine
 10
-0.5
 20
-0.5
 30
0.0
 11
0.5
 21
0.5
 31
0.0
  0
ENDBLK
  5
44
330
41
100
AcDbEntity
  8
0
100
AcDbBlockEnd
  0
BLOCK
  5
2CEC
330
2CD1
100
AcDbEntity
  8
0
100
AcDbBlockBegin
  2
RK_Plankopf_klein_cad-support
 70
     2
 10
0.0
 20
0.0
 30
0.0
  3
RK_Plankopf_klein_cad-support
  1

  0
TEXT
  5
E6B9
330
2CD1
100
AcDbEntity
  8
Plankopf_Variablen
 60
     1
100
AcDbText
 10
-34.18332480369922
 20
20.6389974660471
 30
0.0
 40
1.8
  1
Ech.
  7
Plankopf_cad-support
 72
     2
 11
-29.15167405335816
 21
20.6389974660471
 31
0.0
100
AcDbText
1001
AcDbBlockRepETag
1070
     1
1071
        3
1005
E6B9
  0
TEXT
  5
E6BA
330
2CD1
100
AcDbEntity
  8
Plankopf_Variablen
100
AcDbText
 10
-79.54207546896475
 20
20.72346510224173
 30
0.0
 40
1.8
  1
Date:
  7
Plankopf_cad-support
100
AcDbText
1001
AcDbBlockRepETag
1070
     1
1071
        5
1005
E6BA
  0
ATTDEF
  5
E6BB
330
2CD1
100
AcDbEntity
  8
Plankopf_Variablen
100
AcDbText
 10
-26.37590902967417
 20
20.72346510224173
 30
0.0
 40
2.0
  1
1:15
  7
robert_koch
100
AcDbAttributeDefinition
280
     0
  3
Massstab:
  2
MASSSTAB
 70
     4
280
     0
1001
AcDbBlockRepETag
1070
     1
1071
        4
1005
0
  0
ATTDEF
  5
E6BC
330
2CD1
100
AcDbEntity
  8
Plankopf_Variablen
100
AcDbText
 10
-64.04207546896476
 20
20.72346510224173
 30
0.0
 40
2.0
  1
dd.mm.jjjj
  7
robert_koch
100
AcDbAttributeDefinition
280
     0
  3
Datum Erstellt:
  2
DATUM-ERST
 70
     4
280
     0
1001
AcDbBlockRepETag
1070
     1
1071
        6
1005
0
  0
LINE
  5
E6BD
330
2CD1
100
AcDbEntity
  8
0
100
AcDbLine
 10
-155.1096586774657
 20
19.31430228908696
 30
0.0
 11
0.0
 21
19.31430228908695
 31
0.0
1001
AcDbBlockRepETag
1070
     1
1071
       11
1005
E6BD
  0
LWPOLYLINE
  5
E6BE
330
2CD1
100
AcDbEntity
  8
0
100
AcDbPolyline
 90
        4
 70
     1
 43
0.0
 10
0.0
 20
0.0
 10
-155.1096586774657
 20
-0.2645942145166771
 10
-155.1096586774657
 20
34.99354328505923
 10
0.0000000000000142
 20
35.25813749957591
1001
AcDbBlockRepETag
1070
     1
1071
       13
1005
E6BE
  0
LWPOLYLINE
  5
E6BF
330
2CD1
100
AcDbEntity
  8
0
100
AcDbPolyline
 90
        3
 70
     0
 43
0.0
 10
-81.47309283979494
 20
35.12584039231757
 10
-81.47309283979494
 20
35.12584039231757
 10
-81.47309283979495
 20
0.3974901491781679
1001
AcDbBlockRepETag
1070
     1
1071
       19
1005
E6BF
  0
MTEXT
  5
E6C0
330
2CD1
100
AcDbEntity
  8
Plankopf_Text
100
AcDbMText
 10
-79.57945067512731
 20
16.00489694425158
 30
0.0
 40
1.8
 41
77.95493821702439
 46
0.0
 71
     1
 72
     5
  1
Alle Abmessungen in mm. Farbe und Abmessungen können aufgrund des Produktionsprozesses geringfügig abweichen. Weitergabe sowie Verfielfältigung dieser Unterlage und Mitteilung ihres Inhalts ist nicht gestattet., soweit nicht ausdrücklich zugestanden.
  7
robert_koch
 73
     1
 44
1.0
1001
AcDbBlockRepETag
1070
     1
1071
       25
1005
E6C0
1001
ACAD
1000
ACAD_MTEXT_COLUMN_INFO_BEGIN
1070
    75
1070
     2
1070
    79
1070
     0
1070
    76
1070
     1
1070
    78
1070
     0
1070
    48
1040
77.95493821702439
1070
    49
1040
12.5
1070
    50
1070
     1
1040
0.0
1000
ACAD_MTEXT_COLUMN_INFO_END
  0
MTEXT
  5
E6C1
330
2CD1
100
AcDbEntity
  8
Plankopf_Anschrift
100
AcDbMText
 10
-152.9465280856904
 20
6.45380978811579
 30
0.0
 40
2.0
 41
56.00456736621527
 46
0.0
 71
     7
 72
     5
  1
{\C0;Studer Handels AG\PHarbirbenweg 1\fCalibri|b0|i0|c0|p34;^J\fArial|b0|i0|c0|p34;8181 Höri}
 73
     1
 44
1.0
1001
AcDbBlockRepETag
1070
     1
1071
       27
1005
E6C1
1001
ACAD
1000
ACAD_MTEXT_COLUMN_INFO_BEGIN
1070
    75
1070
     2
1070
    79
1070
     0
1070
    76
1070
     1
1070
    78
1070
     0
1070
    48
1040
56.00456736621527
1070
    49
1040
12.5
1070
    50
1070
     1
1040
0.0
1000
ACAD_MTEXT_COLUMN_INFO_END
  0
MTEXT
  5
E6C2
330
2CD1
100
AcDbEntity
  8
Plankopf_Anschrift
100
AcDbMText
 10
-113.3494038308032
 20
6.45380978811579
 30
0.0
 40
2.0
 41
56.00456736621527
 46
0.0
 71
     7
 72
     5
  1
{\C0;Telefon: 044 823 18 80\fCalibri|b0|i0|c0|p34;^J\fArial|b0|i0|c0|p34;www.studerhandels.ch \Pinfo@studerhandels.ch}
 73
     1
 44
1.0
1001
AcDbBlockRepETag
1070
     1
1071
       28
1005
E6C2
1001
ACAD
1000
ACAD_MTEXT_COLUMN_INFO_BEGIN
1070
    75
1070
     2
1070
    79
1070
     0
1070
    76
1070
     1
1070
    78
1070
     0
1070
    48
1040
56.00456736621527
1070
    49
1040
12.5
1070
    50
1070
     1
1040
0.0
1000
ACAD_MTEXT_COLUMN_INFO_END
  0
ATTDEF
  5
E6C3
330
2CD1
100
AcDbEntity
  8
Plankopf_Variablen
100
AcDbText
 10
-64.42938305725771
 20
27.53059164123852
 30
0.0
 40
3.5
  1

  7
Plankopf_cad-support
100
AcDbAttributeDefinition
280
     0
  3
Typ/Type
  2
TYP/TYPE:
 70
     4
280
     0
1001
AcDbBlockRepETag
1070
     1
1071
       30
1005
0
  0
TEXT
  5
E6C4
330
2CD1
100
AcDbEntity
  8
Plankopf_Variablen
100
AcDbText
 10
-79.92938305725771
 20
27.53059164123852
 30
0.0
 40
3.5
  1
Typ:
  7
Plankopf_cad-support
100
AcDbText
1001
AcDbBlockRepETag
1070
     1
1071
       31
1005
E6C4
  0
MTEXT
  5
E6C5
330
2CD1
100
AcDbEntity
  8
0
 60
     1
100
AcDbMText
 10
-79.57945067512731
 20
16.00489694425158
 30
0.0
 40
1.8
 41
77.95493821702439
 46
0.0
 71
     1
 72
     5
  3
Toutes les dimensions en mm. En raison du processus de\Pproduction les coloris et dimensions peuvent légèrement différer du\Pfichier. La transmission et la reproduction de ce document ainsi que\Pla communication de son contenu sont interdites, sauf a
  1
ccord formel.
  7
robert_koch
 73
     1
 44
1.0
1001
AcDbBlockRepETag
1070
     1
1071
       32
1005
E6C5
1001
ACAD
1000
ACAD_MTEXT_COLUMN_INFO_BEGIN
1070
    75
1070
     2
1070
    79
1070
     0
1070
    76
1070
     1
1070
    78
1070
     0
1070
    48
1040
77.95493821702439
1070
    49
1040
12.5
1070
    50
1070
     1
1040
0.0
1000
ACAD_MTEXT_COLUMN_INFO_END
  0
IMAGE
  5
E6C6
330
2CD1
100
AcDbEntity
  8
0
 62
     7
160
               140
310
8C00000001000000840000000600000005000000BC4143890E4863C0C593FD3366F135400000000000000000BC4143890E4863C0601AE4EB3014404000000000000000005A4739A7969D54C0601AE4EB3014404000000000000000005A4739A7969D54C0C593FD3366F135400000000000000000BC4143890E4863C0C593FD
310
3366F135400000000000000000
100
AcDbRasterImage
 90
        0
 10
-154.2517744363412
 20
21.94296574536181
 30
0.0
 11
0.0408591088751599
 21
0.0
 31
0.0
 12
0.0
 22
0.0408591088751599
 32
0.0
 13
1757.0
 23
250.0
340
D790
 70
     7
280
     0
281
    50
282
    50
283
     0
290
     0
360
E6C7
 71
     1
 91
        2
 14
-0.5
 24
-0.5
 14
1756.5
 24
249.5
1001
AcDbBlockRepETag
1070
     1
1071
       35
1005
E6C6
  0
TEXT
  5
E6DD
330
2CD1
100
AcDbEntity
  8
Plankopf_Variablen
100
AcDbText
 10
-79.54207546896475
 20
20.72346510224173
 30
0.0
 40
1.8
  1
Date:
  7
Plankopf_cad-support
100
AcDbText
1001
AcDbBlockRepETag
1070
     1
1071
       36
1005
E6DD
  0
TEXT
  5
E6DE
330
2CD1
100
AcDbEntity
  8
Plankopf_Variablen
100
AcDbText
 10
-33.22233865670785
 20
20.72346510224173
 30
0.0
 40
1.8
  1
Mst.
  7
Plankopf_cad-support
100
AcDbText
1001
AcDbBlockRepETag
1070
     1
1071
       37
1005
E6DE
  0
ENDBLK
  5
2CED
330
2CD1
100
AcDbEntity
  8
0
100
AcDbBlockEnd
  0
BLOCK
  5
C320
330
C31F
100
AcDbEntity
  8
0
 62
     7
100
AcDbBlockBegin
  2
Beste
 70
     0
 10
0.0
 20
0.0
 30
0.0
  3
Beste
  1

  0
CIRCLE
  5
E372
330
C31F
100
AcDbEntity
  8
Bestellung_Symbole
100
AcDbCircle
 10
-202.8184196596068
 20
16.51848021816525
 30
0.0
 40
1.445345169475509
1001
AcDbBlockRepETag
1070
     1
1071
        0
1005
E372
  0
LINE
  5
E373
330
C31F
100
AcDbEntity
  8
Bestellung_Symbole
100
AcDbLine
 10
-203.4077514933053
 20
15.84998238243017
 30
0.0
 11
-202.085734366442
 21
15.84998238243017
 31
0.0
1001
AcDbBlockRepETag
1070
     1
1071
        1
1005
E373
  0
LINE
  5
E374
330
C31F
100
AcDbEntity
  8
Bestellung_Symbole
100
AcDbLine
 10
-202.085734366442
 20
15.84998238243017
 30
0.0
 11
-202.085734366442
 21
15.84998238243017
 31
0.0
1001
AcDbBlockRepETag
1070
     1
1071
        2
1005
E374
  0
LINE
  5
E375
330
C31F
100
AcDbEntity
  8
Bestellung_Symbole
100
AcDbLine
 10
-202.085734366442
 20
15.84998238243017
 30
0.0
 11
-202.085734366442
 21
17.17106245491132
 31
0.0
1001
AcDbBlockRepETag
1070
     1
1071
        3
1005
E375
  0
CIRCLE
  5
E376
330
C31F
100
AcDbEntity
  8
Bestellung_Symbole
100
AcDbCircle
 10
-202.8184196596068
 20
20.01848021816526
 30
0.0
 40
1.445345169475509
1001
AcDbBlockRepETag
1070
     1
1071
        4
1005
E376
  0
LINE
  5
E377
330
C31F
100
AcDbEntity
  8
Bestellung_Symbole
100
AcDbLine
 10
-203.3997608151413
 20
20.6939384533469
 30
0.0
 11
-202.0778371532448
 21
20.6782185348281
 31
0.0
1001
AcDbBlockRepETag
1070
     1
1071
        5
1005
E377
  0
LINE
  5
E378
330
C31F
100
AcDbEntity
  8
Bestellung_Symbole
100
AcDbLine
 10
-202.0778371532448
 20
20.6782185348281
 30
0.0
 11
-202.0778371532448
 21
20.6782185348281
 31
0.0
1001
AcDbBlockRepETag
1070
     1
1071
        6
1005
E378
  0
LINE
  5
E379
330
C31F
100
AcDbEntity
  8
Bestellung_Symbole
100
AcDbLine
 10
-202.0778371532448
 20
20.6782185348281
 30
0.0
 11
-202.0935459293827
 21
19.35723186106526
 31
0.0
1001
AcDbBlockRepETag
1070
     1
1071
        7
1005
E379
  0
CIRCLE
  5
E37A
330
C31F
100
AcDbEntity
  8
Bestellung_Symbole
100
AcDbCircle
 10
-202.8184196596068
 20
25.19359369046812
 30
0.0
 40
1.445345169475509
1001
AcDbBlockRepETag
1070
     1
1071
        8
1005
E37A
  0
CIRCLE
  5
E37B
330
C31F
100
AcDbEntity
  8
Bestellung_Symbole
100
AcDbCircle
 10
-202.8191454233125
 20
28.69359387268516
 30
0.0
 40
1.445345169475509
1001
AcDbBlockRepETag
1070
     1
1071
        9
1005
E37B
  0
CIRCLE
  5
E37C
330
C31F
100
AcDbEntity
  8
Bestellung_Symbole
100
AcDbCircle
 10
-202.8184196596068
 20
33.62848730273679
 30
0.0
 40
1.445345169475509
1001
AcDbBlockRepETag
1070
     1
1071
       10
1005
E37C
  0
CIRCLE
  5
E37D
330
C31F
100
AcDbEntity
  8
Bestellung_Symbole
100
AcDbCircle
 10
-202.8184196596068
 20
37.12848730273677
 30
0.0
 40
1.445345169475509
1001
AcDbBlockRepETag
1070
     1
1071
       11
1005
E37D
  0
LINE
  5
E37E
330
C31F
100
AcDbEntity
  8
Bestellung_Symbole
100
AcDbLine
 10
-203.6894587970163
 20
32.47509514044895
 30
0.0
 11
-201.9473805221973
 21
34.7818794650246
 31
0.0
1001
AcDbBlockRepETag
1070
     1
1071
       13
1005
E37E
  0
LINE
  5
E37F
330
C31F
100
AcDbEntity
  8
Bestellung_Symbole
370
    70
100
AcDbLine
 10
-202.8928512393241
 20
25.84161160611542
 30
0.0
 11
-202.8928512393241
 21
24.30535591478661
 31
0.0
1001
AcDbBlockRepETag
1070
     1
1071
       14
1005
E37F
  0
LINE
  5
E380
330
C31F
100
AcDbEntity
  8
Bestellung_Symbole
100
AcDbLine
 10
-202.8928512393241
 20
24.30535591478661
 30
0.0
 11
-202.8928512393241
 21
24.30535591478661
 31
0.0
1001
AcDbBlockRepETag
1070
     1
1071
       15
1005
E380
  0
HATCH
  5
E381
330
C31F
100
AcDbEntity
  8
0
 62
     7
100
AcDbHatch
 10
0.0
 20
0.0
 30
0.0
210
0.0
220
0.0
230
1.0
  2
SOLID
 70
     1
 71
     0
 91
        1
 92
        7
 72
     0
 73
     1
 93
       10
 10
-203.7846648336894
 20
37.83037551976668
 10
-203.276035546327
 20
37.11750964058143
 10
-203.7979126985825
 20
36.40933674642042
 10
-202.957440883159
 20
36.67098548181599
 10
-202.4453891308196
 20
35.95332287038309
 10
-202.4341850232856
 20
36.83388116910945
 10
-201.5722767280301
 20
37.10220333213988
 10
-202.4271906694949
 20
37.38358459313864
 10
-202.4157220528676
 20
38.28493131044343
 10
-202.9525336187572
 20
37.55649282910324
 97
        0
 75
     1
 76
     1
 47
0.0102647567851707
 98
        1
 10
-211.2661374401505
 20
45.68451048543707
450
        0
451
        0
460
0.0
461
0.0
452
        0
462
1.0
453
        2
463
0.0
 63
     5
421
      255
463
1.0
 63
     2
421
 16776960
470
LINEAR
1001
GradientColor1ACI
1070
     5
1001
GradientColor2ACI
1070
     2
1001
ACAD
1010
0.0
1020
0.0
1030
0.0
1001
AcDbBlockRepETag
1070
     1
1071
       19
1005
E381
  0
LWPOLYLINE
  5
E382
330
C31F
100
AcDbEntity
  8
Bestellung_Symbole
100
AcDbPolyline
 90
       11
 70
     0
 43
0.0
 10
-203.7979126985825
 20
36.40933674642042
 10
-202.957440883159
 20
36.67098548181599
 10
-202.4453891308196
 20
35.95332287038309
 10
-202.4341850232856
 20
36.83388116910945
 10
-201.5722767280301
 20
37.10220333213988
 10
-202.4271906694949
 20
37.38358459313864
 10
-202.4157220528676
 20
38.28493131044343
 10
-202.9525336187572
 20
37.55649282910324
 10
-203.7846648336894
 20
37.83037551976668
 10
-203.276035546327
 20
37.11750964058143
 10
-203.7979126985825
 20
36.40933674642042
1001
AcDbBlockRepETag
1070
     1
1071
       20
1005
E382
  0
LINE
  5
E383
330
C31F
100
AcDbEntity
  8
Bestellung_Symbole
 62
     7
100
AcDbLine
 10
-203.1557058637651
 20
28.25250682165695
 30
0.0
 11
-203.1557058637651
 21
27.91065444565977
 31
0.0
1001
AcDbBlockRepETag
1070
     1
1071
       21
1005
E383
  0
LINE
  5
E384
330
C31F
100
AcDbEntity
  8
Bestellung_Symbole
 62
     7
100
AcDbLine
 10
-203.1557058637651
 20
27.91065444565977
 30
0.0
 11
-202.3964839831671
 21
27.91065444565977
 31
0.0
1001
AcDbBlockRepETag
1070
     1
1071
       22
1005
E384
  0
LINE
  5
E385
330
C31F
100
AcDbEntity
  8
Bestellung_Symbole
 62
     7
100
AcDbLine
 10
-202.3964839831671
 20
27.91065444565977
 30
0.0
 11
-202.3964839831671
 21
28.67773667544266
 31
0.0
1001
AcDbBlockRepETag
1070
     1
1071
       23
1005
E385
  0
LINE
  5
E386
330
C31F
100
AcDbEntity
  8
Bestellung_Symbole
 62
     7
100
AcDbLine
 10
-202.3964839831671
 20
28.67773667544266
 30
0.0
 11
-203.172392928531
 21
28.67773667544266
 31
0.0
1001
AcDbBlockRepETag
1070
     1
1071
       24
1005
E386
  0
LINE
  5
E387
330
C31F
100
AcDbEntity
  8
Bestellung_Symbole
 62
     7
100
AcDbLine
 10
-203.172392928531
 20
28.67773667544266
 30
0.0
 11
-203.172392928531
 21
29.19468422563888
 31
0.0
1001
AcDbBlockRepETag
1070
     1
1071
       25
1005
E387
  0
LINE
  5
E388
330
C31F
100
AcDbEntity
  8
Bestellung_Symbole
 62
     7
100
AcDbLine
 10
-203.172392928531
 20
29.19468422563888
 30
0.0
 11
-202.3964839831671
 21
29.19468422563888
 31
0.0
1001
AcDbBlockRepETag
1070
     1
1071
       26
1005
E388
  0
LWPOLYLINE
  5
E389
330
C31F
100
AcDbEntity
  8
Bestellung_Eingabe
100
AcDbPolyline
 90
        4
 70
     1
 43
0.0
 10
-198.4704761447482
 20
35.58541717949549
 10
-192.4574493739312
 20
35.58541717949549
 10
-192.4574493739312
 20
38.67155742597804
 10
-198.4704761447482
 20
38.67155742597804
1001
AcDbBlockRepETag
1070
     1
1071
       30
1005
E389
  0
LWPOLYLINE
  5
E38A
330
C31F
100
AcDbEntity
  8
Bestellung_Eingabe
100
AcDbPolyline
 90
        4
 70
     1
 43
0.0
 10
-198.441528703599
 20
32.08541717949549
 10
-192.4574493739312
 20
32.08541717949549
 10
-192.4574493739312
 20
35.17155742597804
 10
-198.441528703599
 20
35.17155742597804
1001
AcDbBlockRepETag
1070
     1
1071
       31
1005
E38A
  0
MTEXT
  5
E38B
330
C31F
100
AcDbEntity
  8
Bestellung Angaben D
100
AcDbMText
 10
-190.8900653399021
 20
34.73395550061562
 30
0.0
 40
1.7
 41
61.82327442795304
 46
0.0
 71
     1
 72
     5
  1
OHNE
 73
     1
 44
1.0
1001
AcDbBlockRepETag
1070
     1
1071
       32
1005
E38B
1001
ACAD
1000
ACAD_MTEXT_COLUMN_INFO_BEGIN
1070
    75
1070
     2
1070
    79
1070
     0
1070
    76
1070
     1
1070
    78
1070
     0
1070
    48
1040
61.82327442795304
1070
    49
1040
12.5
1070
    50
1070
     1
1040
0.0
1000
ACAD_MTEXT_COLUMN_INFO_END
  0
MTEXT
  5
E38C
330
C31F
100
AcDbEntity
  8
Bestellung Angaben D
100
AcDbMText
 10
-190.9190127810513
 20
38.48668051637033
 30
0.0
 40
1.7
 41
61.82327442795304
 46
0.0
 71
     1
 72
     5
  1
MIT
 73
     1
 44
1.0
1001
AcDbBlockRepETag
1070
     1
1071
       33
1005
E38C
1001
ACAD
1000
ACAD_MTEXT_COLUMN_INFO_BEGIN
1070
    75
1070
     2
1070
    79
1070
     0
1070
    76
1070
     1
1070
    78
1070
     0
1070
    48
1040
61.82327442795304
1070
    49
1040
12.5
1070
    50
1070
     1
1040
0.0
1000
ACAD_MTEXT_COLUMN_INFO_END
  0
MTEXT
  5
E38D
330
C31F
100
AcDbEntity
  8
Bestellung Angaben D
 62
     7
100
AcDbMText
 10
-199.2675143603675
 20
17.4819563482379
 30
0.0
 40
1.7
 41
39.05808297608564
 46
0.0
 71
     1
 72
     5
  1
Top Aufsatzbecken, Aufsatzschale
 73
     1
 44
1.0
1001
AcDbBlockRepETag
1070
     1
1071
       34
1005
E38D
1001
ACAD
1000
ACAD_MTEXT_COLUMN_INFO_BEGIN
1070
    75
1070
     2
1070
    79
1070
     0
1070
    76
1070
     1
1070
    78
1070
     0
1070
    48
1040
39.05808297608564
1070
    49
1040
12.5
1070
    50
1070
     1
1040
0.0
1000
ACAD_MTEXT_COLUMN_INFO_END
  0
MTEXT
  5
E38E
330
C31F
100
AcDbEntity
  8
Bestellung Angaben D
 62
     7
100
AcDbMText
 10
-199.2675143603675
 20
20.9819563482379
 30
0.0
 40
1.7
 41
39.05808297608564
 46
0.0
 71
     1
 72
     5
  1
Unterbau
 73
     1
 44
1.0
1001
AcDbBlockRepETag
1070
     1
1071
       35
1005
E38E
1001
ACAD
1000
ACAD_MTEXT_COLUMN_INFO_BEGIN
1070
    75
1070
     2
1070
    79
1070
     0
1070
    76
1070
     1
1070
    78
1070
     0
1070
    48
1040
39.05808297608564
1070
    49
1040
12.5
1070
    50
1070
     1
1040
0.0
1000
ACAD_MTEXT_COLUMN_INFO_END
  0
MTEXT
  5
E38F
330
C31F
100
AcDbEntity
  8
Bestellung Angaben D
 62
     7
100
AcDbMText
 10
-190.8900653399021
 20
26.15706982054077
 30
0.0
 40
1.7
 41
39.05808297608564
 46
0.0
 71
     1
 72
     5
  1
Integriert (Option)
 73
     1
 44
1.0
1001
AcDbBlockRepETag
1070
     1
1071
       36
1005
E38F
1001
ACAD
1000
ACAD_MTEXT_COLUMN_INFO_BEGIN
1070
    75
1070
     2
1070
    79
1070
     0
1070
    76
1070
     1
1070
    78
1070
     0
1070
    48
1040
39.05808297608564
1070
    49
1040
12.5
1070
    50
1070
     1
1040
0.0
1000
ACAD_MTEXT_COLUMN_INFO_END
  0
MTEXT
  5
E390
330
C31F
100
AcDbEntity
  8
Bestellung Angaben D
 62
     7
100
AcDbMText
 10
-190.8900653399021
 20
29.65706982054077
 30
0.0
 40
1.7
 41
39.05808297608564
 46
0.0
 71
     1
 72
     5
  1
Standard
 73
     1
 44
1.0
1001
AcDbBlockRepETag
1070
     1
1071
       37
1005
E390
1001
ACAD
1000
ACAD_MTEXT_COLUMN_INFO_BEGIN
1070
    75
1070
     2
1070
    79
1070
     0
1070
    76
1070
     1
1070
    78
1070
     0
1070
    48
1040
39.05808297608564
1070
    49
1040
12.5
1070
    50
1070
     1
1040
0.0
1000
ACAD_MTEXT_COLUMN_INFO_END
  0
MTEXT
  5
E391
330
C31F
100
AcDbEntity
  8
Bestellung Angaben D
 62
     7
100
AcDbMText
 10
-199.2675143603675
 20
12.42695280595214
 30
0.0
 40
1.7
 41
39.05808297608564
 46
0.0
 71
     1
 72
     5
  1
Eingeschränkte Farbe lieferbar
 73
     1
 44
1.0
1001
AcDbBlockRepETag
1070
     1
1071
       38
1005
E391
1001
ACAD
1000
ACAD_MTEXT_COLUMN_INFO_BEGIN
1070
    75
1070
     2
1070
    79
1070
     0
1070
    76
1070
     1
1070
    78
1070
     0
1070
    48
1040
39.05808297608564
1070
    49
1040
12.5
1070
    50
1070
     1
1040
0.0
1000
ACAD_MTEXT_COLUMN_INFO_END
  0
MTEXT
  5
E393
330
C31F
100
AcDbEntity
  8
Bestellung Angaben D
100
AcDbMText
 10
-281.5221708216398
 20
18.87348710634419
 30
0.0
 40
2.5
 41
39.09569939019121
 46
0.0
 71
     1
 72
     5
  1
Farbe / Code:
 73
     1
 44
1.0
1001
AcDbBlockRepETag
1070
     1
1071
       40
1005
E393
1001
ACAD
1000
ACAD_MTEXT_COLUMN_INFO_BEGIN
1070
    75
1070
     2
1070
    79
1070
     0
1070
    76
1070
     1
1070
    78
1070
     0
1070
    48
1040
39.09569939019121
1070
    49
1040
12.5
1070
    50
1070
     1
1040
0.0
1000
ACAD_MTEXT_COLUMN_INFO_END
  0
LINE
  5
E394
330
C31F
100
AcDbEntity
  8
Bestellung_Eingabe
100
AcDbLine
 10
-259.5448287445003
 20
16.28822107633055
 30
0.0
 11
-226.2190906184021
 21
16.28822107633055
 31
0.0
1001
AcDbBlockRepETag
1070
     1
1071
       41
1005
E394
  0
LWPOLYLINE
  5
E395
330
C31F
100
AcDbEntity
  8
Bestellung_Symbole
 62
     7
100
AcDbPolyline
 90
        4
 70
     1
 43
0.0
 10
-221.3630295459457
 20
30.75195449901488
 10
-157.9279299824344
 20
30.75195449901489
 10
-157.9279299824344
 20
23.19695095672912
 10
-221.3630295459457
 20
23.19695095672912
1001
AcDbBlockRepETag
1070
     1
1071
       42
1005
E395
  0
MTEXT
  5
E396
330
C31F
100
AcDbEntity
  8
Bestellung Angaben D
100
AcDbMText
 10
-220.5068622150195
 20
28.34159795716912
 30
0.0
 40
1.7
 41
61.82327442795304
 46
0.0
 71
     1
 72
     5
  1
Ablauf:
 73
     1
 44
1.0
1001
AcDbBlockRepETag
1070
     1
1071
       43
1005
E396
1001
ACAD
1000
ACAD_MTEXT_COLUMN_INFO_BEGIN
1070
    75
1070
     2
1070
    79
1070
     0
1070
    76
1070
     1
1070
    78
1070
     0
1070
    48
1040
61.82327442795304
1070
    49
1040
12.5
1070
    50
1070
     1
1040
0.0
1000
ACAD_MTEXT_COLUMN_INFO_END
  0
LWPOLYLINE
  5
E397
330
C31F
100
AcDbEntity
  8
Bestellung_Symbole
 62
     7
100
AcDbPolyline
 90
        4
 70
     1
 43
0.0
 10
-221.3630295459457
 20
22.19695095672913
 10
-157.9279299824344
 20
22.19695095672913
 10
-157.9279299824344
 20
14.64194741444337
 10
-221.3630295459457
 20
14.64194741444337
1001
AcDbBlockRepETag
1070
     1
1071
       44
1005
E397
  0
MTEXT
  5
E398
330
C31F
100
AcDbEntity
  8
Bestellung Angaben D
100
AcDbMText
 10
-220.4324306353021
 20
19.78659441488336
 30
0.0
 40
1.7
 41
61.82327442795304
 46
0.0
 71
     1
 72
     5
  1
Einbau:
 73
     1
 44
1.0
1001
AcDbBlockRepETag
1070
     1
1071
       45
1005
E398
1001
ACAD
1000
ACAD_MTEXT_COLUMN_INFO_BEGIN
1070
    75
1070
     2
1070
    79
1070
     0
1070
    76
1070
     1
1070
    78
1070
     0
1070
    48
1040
61.82327442795304
1070
    49
1040
12.5
1070
    50
1070
     1
1040
0.0
1000
ACAD_MTEXT_COLUMN_INFO_END
  0
LWPOLYLINE
  5
E399
330
C31F
100
AcDbEntity
  8
Bestellung_Symbole
 62
     7
100
AcDbPolyline
 90
        4
 70
     1
 43
0.0
 10
-221.3630295459457
 20
13.64194741444337
 10
-157.9279299824344
 20
13.64194741444337
 10
-157.9279299824344
 20
6.086943872157608
 10
-221.3630295459457
 20
6.086943872157608
1001
AcDbBlockRepETag
1070
     1
1071
       46
1005
E399
  0
MTEXT
  5
E39A
330
C31F
100
AcDbEntity
  8
Bestellung Angaben D
100
AcDbMText
 10
-220.4324306353021
 20
11.23159087259759
 30
0.0
 40
1.7
 41
61.82327442795304
 46
0.0
 71
     1
 72
     5
  1
Farben:
 73
     1
 44
1.0
1001
AcDbBlockRepETag
1070
     1
1071
       47
1005
E39A
1001
ACAD
1000
ACAD_MTEXT_COLUMN_INFO_BEGIN
1070
    75
1070
     2
1070
    79
1070
     0
1070
    76
1070
     1
1070
    78
1070
     0
1070
    48
1040
61.82327442795304
1070
    49
1040
12.5
1070
    50
1070
     1
1040
0.0
1000
ACAD_MTEXT_COLUMN_INFO_END
  0
LWPOLYLINE
  5
E39B
330
C31F
100
AcDbEntity
  8
Bestellung_Symbole
 62
     7
100
AcDbPolyline
 90
        4
 70
     1
 43
0.0
 10
-221.3630295459457
 20
39.30695804130065
 10
-157.9279299824344
 20
39.30695804130065
 10
-157.9279299824344
 20
31.75195449901488
 10
-221.3630295459457
 20
31.75195449901488
1001
AcDbBlockRepETag
1070
     1
1071
       48
1005
E39B
  0
MTEXT
  5
E39C
330
C31F
100
AcDbEntity
  8
Bestellung Angaben D
100
AcDbMText
 10
-220.4324306353021
 20
36.89660149945487
 30
0.0
 40
1.7
 41
61.82327442795304
 46
0.0
 71
     1
 72
     5
  1
Überlauf:
 73
     1
 44
1.0
1001
AcDbBlockRepETag
1070
     1
1071
       49
1005
E39C
1001
ACAD
1000
ACAD_MTEXT_COLUMN_INFO_BEGIN
1070
    75
1070
     2
1070
    79
1070
     0
1070
    76
1070
     1
1070
    78
1070
     0
1070
    48
1040
61.82327442795304
1070
    49
1040
12.5
1070
    50
1070
     1
1040
0.0
1000
ACAD_MTEXT_COLUMN_INFO_END
  0
MTEXT
  5
E39D
102
{ACAD_XDICTIONARY
360
E39E
102
}
330
C31F
100
AcDbEntity
  8
Bestellung Angaben D
100
AcDbMText
 10
-281.5221708216397
 20
13.00414277615152
 30
0.0
 40
1.5
 41
34.75629395314513
 46
0.0
 71
     1
 72
     5
  1
\A1;\pt6;INFO:\PBatterie und Ablaufventil 1 {\H0.7x;\S1#4;}" sind nicht im Lieferumfang enthalten.
 73
     1
 44
1.0
1001
AcDbBlockRepETag
1070
     1
1071
       50
1005
E39D
1001
ACAD
1000
ACAD_MTEXT_COLUMN_INFO_BEGIN
1070
    75
1070
     2
1070
    79
1070
     0
1070
    76
1070
     1
1070
    78
1070
     0
1070
    48
1040
34.75629395314513
1070
    49
1040
12.5
1070
    50
1070
     1
1040
0.0
1000
ACAD_MTEXT_COLUMN_INFO_END
  0
MTEXT
  5
E39F
330
C31F
100
AcDbEntity
  8
Bestellung Angaben D
100
AcDbMText
 10
-281.5221708216397
 20
28.77182952962476
 30
0.0
 40
2.5
 41
39.09569939019121
 46
0.0
 71
     1
 72
     5
  1
Material:
 73
     1
 44
1.0
1001
AcDbBlockRepETag
1070
     1
1071
       51
1005
E39F
1001
ACAD
1000
ACAD_MTEXT_COLUMN_INFO_BEGIN
1070
    75
1070
     2
1070
    79
1070
     0
1070
    76
1070
     1
1070
    78
1070
     0
1070
    48
1040
39.09569939019121
1070
    49
1040
12.5
1070
    50
1070
     1
1040
0.0
1000
ACAD_MTEXT_COLUMN_INFO_END
  0
LINE
  5
E3A0
330
C31F
100
AcDbEntity
  8
Bestellung_Eingabe
100
AcDbLine
 10
-267.8959940882249
 20
26.18656349961111
 30
0.0
 11
-226.2190906184021
 21
26.18656349961111
 31
0.0
1001
AcDbBlockRepETag
1070
     1
1071
       52
1005
E3A0
  0
MTEXT
  5
E3A1
330
C31F
100
AcDbEntity
  8
Bestellung Angaben D
100
AcDbMText
 10
-281.5221708216397
 20
39.11115651772765
 30
0.0
 40
2.5
 41
60.15914127569402
 46
0.0
 71
     1
 72
     5
  1
{\C5;Bestellung Angaben }/ Eigenschaften:
 73
     1
 44
1.0
1001
AcDbBlockRepETag
1070
     1
1071
       53
1005
E3A1
1001
ACAD
1000
ACAD_MTEXT_COLUMN_INFO_BEGIN
1070
    75
1070
     2
1070
    79
1070
     0
1070
    76
1070
     1
1070
    78
1070
     0
1070
    48
1040
60.15914127569402
1070
    49
1040
12.5
1070
    50
1070
     1
1040
0.0
1000
ACAD_MTEXT_COLUMN_INFO_END
  0
LWPOLYLINE
  5
E3A2
330
C31F
100
AcDbEntity
  8
Bestellung_Eingabe
100
AcDbPolyline
 90
        4
 70
     1
 43
0.0
 10
-198.4704761447482
 20
27.22837194348182
 10
-192.4574493739312
 20
27.22837194348182
 10
-192.4574493739312
 20
30.31451218996438
 10
-198.4704761447482
 20
30.31451218996437
1001
AcDbBlockRepETag
1070
     1
1071
       54
1005
E3A2
  0
LWPOLYLINE
  5
E3A3
330
C31F
100
AcDbEntity
  8
Bestellung_Eingabe
100
AcDbPolyline
 90
        4
 70
     1
 43
0.0
 10
-198.441528703599
 20
23.72837194348182
 10
-192.4574493739312
 20
23.72837194348182
 10
-192.4574493739312
 20
26.81451218996438
 10
-198.441528703599
 20
26.81451218996438
1001
AcDbBlockRepETag
1070
     1
1071
       55
1005
E3A3
  0
MTEXT
  5
E3A4
330
C31F
100
AcDbEntity
  8
Bestellung Angaben F
 60
     1
100
AcDbMText
 10
-190.8900653399021
 20
34.73395550061562
 30
0.0
 40
1.7
 41
61.82327442795304
 46
0.0
 71
     1
 72
     5
  1
sans
 73
     1
 44
1.0
1001
AcDbBlockRepETag
1070
     1
1071
       56
1005
E3A4
1001
ACAD
1000
ACAD_MTEXT_COLUMN_INFO_BEGIN
1070
    75
1070
     2
1070
    79
1070
     0
1070
    76
1070
     1
1070
    78
1070
     0
1070
    48
1040
61.82327442795304
1070
    49
1040
12.5
1070
    50
1070
     1
1040
0.0
1000
ACAD_MTEXT_COLUMN_INFO_END
  0
MTEXT
  5
E3A5
330
C31F
100
AcDbEntity
  8
Bestellung Angaben F
 60
     1
100
AcDbMText
 10
-190.9190127810513
 20
38.48668051637033
 30
0.0
 40
1.7
 41
61.82327442795304
 46
0.0
 71
     1
 72
     5
  1
avec
 73
     1
 44
1.0
1001
AcDbBlockRepETag
1070
     1
1071
       57
1005
E3A5
1001
ACAD
1000
ACAD_MTEXT_COLUMN_INFO_BEGIN
1070
    75
1070
     2
1070
    79
1070
     0
1070
    76
1070
     1
1070
    78
1070
     0
1070
    48
1040
61.82327442795304
1070
    49
1040
12.5
1070
    50
1070
     1
1040
0.0
1000
ACAD_MTEXT_COLUMN_INFO_END
  0
MTEXT
  5
E3A6
330
C31F
100
AcDbEntity
  8
Bestellung Angaben F
 62
     7
 60
     1
100
AcDbMText
 10
-199.2675143603675
 20
17.4819563482379
 30
0.0
 40
1.5
 41
39.05808297608564
 46
0.0
 71
     1
 72
     5
  1
{\C256;lavabo Top en applique, vasque à poser}
 73
     1
 44
1.0
1001
AcDbBlockRepETag
1070
     1
1071
       58
1005
E3A6
1001
ACAD
1000
ACAD_MTEXT_COLUMN_INFO_BEGIN
1070
    75
1070
     2
1070
    79
1070
     0
1070
    76
1070
     1
1070
    78
1070
     0
1070
    48
1040
39.05808297608564
1070
    49
1040
12.5
1070
    50
1070
     1
1040
0.0
1000
ACAD_MTEXT_COLUMN_INFO_END
  0
MTEXT
  5
E3A7
330
C31F
100
AcDbEntity
  8
Bestellung Angaben F
 62
     7
 60
     1
100
AcDbMText
 10
-199.2675143603675
 20
20.9819563482379
 30
0.0
 40
1.7
 41
39.05808297608564
 46
0.0
 71
     1
 72
     5
  1
{\C256;par dessous}
 73
     1
 44
1.0
1001
AcDbBlockRepETag
1070
     1
1071
       59
1005
E3A7
1001
ACAD
1000
ACAD_MTEXT_COLUMN_INFO_BEGIN
1070
    75
1070
     2
1070
    79
1070
     0
1070
    76
1070
     1
1070
    78
1070
     0
1070
    48
1040
39.05808297608564
1070
    49
1040
12.5
1070
    50
1070
     1
1040
0.0
1000
ACAD_MTEXT_COLUMN_INFO_END
  0
MTEXT
  5
E3A8
330
C31F
100
AcDbEntity
  8
Bestellung Angaben F
 62
     7
 60
     1
100
AcDbMText
 10
-190.8900653399021
 20
26.15706982054077
 30
0.0
 40
1.7
 41
39.05808297608564
 46
0.0
 71
     1
 72
     5
  1
{\C256;intégré} (option)
 73
     1
 44
1.0
1001
AcDbBlockRepETag
1070
     1
1071
       60
1005
E3A8
1001
ACAD
1000
ACAD_MTEXT_COLUMN_INFO_BEGIN
1070
    75
1070
     2
1070
    79
1070
     0
1070
    76
1070
     1
1070
    78
1070
     0
1070
    48
1040
39.05808297608564
1070
    49
1040
12.5
1070
    50
1070
     1
1040
0.0
1000
ACAD_MTEXT_COLUMN_INFO_END
  0
MTEXT
  5
E3A9
330
C31F
100
AcDbEntity
  8
Bestellung Angaben F
 62
     7
 60
     1
100
AcDbMText
 10
-190.8900653399021
 20
29.65706982054077
 30
0.0
 40
1.7
 41
39.05808297608564
 46
0.0
 71
     1
 72
     5
  1
Standard
 73
     1
 44
1.0
1001
AcDbBlockRepETag
1070
     1
1071
       61
1005
E3A9
1001
ACAD
1000
ACAD_MTEXT_COLUMN_INFO_BEGIN
1070
    75
1070
     2
1070
    79
1070
     0
1070
    76
1070
     1
1070
    78
1070
     0
1070
    48
1040
39.05808297608564
1070
    49
1040
12.5
1070
    50
1070
     1
1040
0.0
1000
ACAD_MTEXT_COLUMN_INFO_END
  0
MTEXT
  5
E3AA
330
C31F
100
AcDbEntity
  8
Bestellung Angaben F
 62
     7
 60
     1
100
AcDbMText
 10
-199.2675143603675
 20
12.42695280595214
 30
0.0
 40
1.7
 41
39.05808297608564
 46
0.0
 71
     1
 72
     5
  1
{\C256;choix limité de coloris}
 73
     1
 44
1.0
1001
AcDbBlockRepETag
1070
     1
1071
       62
1005
E3AA
1001
ACAD
1000
ACAD_MTEXT_COLUMN_INFO_BEGIN
1070
    75
1070
     2
1070
    79
1070
     0
1070
    76
1070
     1
1070
    78
1070
     0
1070
    48
1040
39.05808297608564
1070
    49
1040
12.5
1070
    50
1070
     1
1040
0.0
1000
ACAD_MTEXT_COLUMN_INFO_END
  0
MTEXT
  5
E3AC
330
C31F
100
AcDbEntity
  8
Bestellung Angaben F
 60
     1
100
AcDbMText
 10
-281.5221708216398
 20
18.8734871063442
 30
0.0
 40
2.5
 41
39.09569939019121
 46
0.0
 71
     1
 72
     5
  1
Coloris / Code:
 73
     1
 44
1.0
1001
AcDbBlockRepETag
1070
     1
1071
       64
1005
E3AC
1001
ACAD
1000
ACAD_MTEXT_COLUMN_INFO_BEGIN
1070
    75
1070
     2
1070
    79
1070
     0
1070
    76
1070
     1
1070
    78
1070
     0
1070
    48
1040
39.09569939019121
1070
    49
1040
12.5
1070
    50
1070
     1
1040
0.0
1000
ACAD_MTEXT_COLUMN_INFO_END
  0
MTEXT
  5
E3AD
330
C31F
100
AcDbEntity
  8
Bestellung Angaben F
 60
     1
100
AcDbMText
 10
-220.5068622150195
 20
28.34159795716912
 30
0.0
 40
1.7
 41
61.82327442795304
 46
0.0
 71
     1
 72
     5
  1
Écoulement:
 73
     1
 44
1.0
1001
AcDbBlockRepETag
1070
     1
1071
       65
1005
E3AD
1001
ACAD
1000
ACAD_MTEXT_COLUMN_INFO_BEGIN
1070
    75
1070
     2
1070
    79
1070
     0
1070
    76
1070
     1
1070
    78
1070
     0
1070
    48
1040
61.82327442795304
1070
    49
1040
12.5
1070
    50
1070
     1
1040
0.0
1000
ACAD_MTEXT_COLUMN_INFO_END
  0
MTEXT
  5
E3AE
330
C31F
100
AcDbEntity
  8
Bestellung Angaben F
 60
     1
100
AcDbMText
 10
-220.4324306353021
 20
19.78659441488335
 30
0.0
 40
1.7
 41
61.82327442795304
 46
0.0
 71
     1
 72
     5
  1
Encastrement:
 73
     1
 44
1.0
1001
AcDbBlockRepETag
1070
     1
1071
       66
1005
E3AE
1001
ACAD
1000
ACAD_MTEXT_COLUMN_INFO_BEGIN
1070
    75
1070
     2
1070
    79
1070
     0
1070
    76
1070
     1
1070
    78
1070
     0
1070
    48
1040
61.82327442795304
1070
    49
1040
12.5
1070
    50
1070
     1
1040
0.0
1000
ACAD_MTEXT_COLUMN_INFO_END
  0
MTEXT
  5
E3AF
330
C31F
100
AcDbEntity
  8
Bestellung Angaben F
 60
     1
100
AcDbMText
 10
-220.4324306353021
 20
11.23159087259759
 30
0.0
 40
1.7
 41
61.82327442795304
 46
0.0
 71
     1
 72
     5
  1
Coloris:
 73
     1
 44
1.0
1001
AcDbBlockRepETag
1070
     1
1071
       67
1005
E3AF
1001
ACAD
1000
ACAD_MTEXT_COLUMN_INFO_BEGIN
1070
    75
1070
     2
1070
    79
1070
     0
1070
    76
1070
     1
1070
    78
1070
     0
1070
    48
1040
61.82327442795304
1070
    49
1040
12.5
1070
    50
1070
     1
1040
0.0
1000
ACAD_MTEXT_COLUMN_INFO_END
  0
MTEXT
  5
E3B0
330
C31F
100
AcDbEntity
  8
Bestellung Angaben F
 60
     1
100
AcDbMText
 10
-220.4324306353021
 20
36.89660149945487
 30
0.0
 40
1.7
 41
61.82327442795304
 46
0.0
 71
     1
 72
     5
  1
Trop-plein:
 73
     1
 44
1.0
1001
AcDbBlockRepETag
1070
     1
1071
       68
1005
E3B0
1001
ACAD
1000
ACAD_MTEXT_COLUMN_INFO_BEGIN
1070
    75
1070
     2
1070
    79
1070
     0
1070
    76
1070
     1
1070
    78
1070
     0
1070
    48
1040
61.82327442795304
1070
    49
1040
12.5
1070
    50
1070
     1
1040
0.0
1000
ACAD_MTEXT_COLUMN_INFO_END
  0
MTEXT
  5
E3B1
102
{ACAD_XDICTIONARY
360
E3B2
102
}
330
C31F
100
AcDbEntity
  8
Bestellung Angaben F
 60
     1
100
AcDbMText
 10
-281.5221708216397
 20
13.00414277615152
 30
0.0
 40
1.5
 41
34.75629395314513
 46
0.0
 71
     1
 72
     5
  1
\A1;\pt6;INFO:\P\ptz;{\A0;Batterie et bonde de vidage 1 ¼“ ne sont pas compris dans la livraison}
 73
     1
 44
1.0
1001
AcDbBlockRepETag
1070
     1
1071
       69
1005
E3B1
1001
ACAD
1000
ACAD_MTEXT_COLUMN_INFO_BEGIN
1070
    75
1070
     2
1070
    79
1070
     0
1070
    76
1070
     1
1070
    78
1070
     0
1070
    48
1040
34.75629395314513
1070
    49
1040
12.5
1070
    50
1070
     1
1040
0.0
1000
ACAD_MTEXT_COLUMN_INFO_END
  0
MTEXT
  5
E3B3
330
C31F
100
AcDbEntity
  8
Bestellung Angaben F
 60
     1
100
AcDbMText
 10
-281.5221708216397
 20
28.77182952962476
 30
0.0
 40
2.5
 41
39.09569939019121
 46
0.0
 71
     1
 72
     5
  1
Matériau:
 73
     1
 44
1.0
1001
AcDbBlockRepETag
1070
     1
1071
       70
1005
E3B3
1001
ACAD
1000
ACAD_MTEXT_COLUMN_INFO_BEGIN
1070
    75
1070
     2
1070
    79
1070
     0
1070
    76
1070
     1
1070
    78
1070
     0
1070
    48
1040
39.09569939019121
1070
    49
1040
12.5
1070
    50
1070
     1
1040
0.0
1000
ACAD_MTEXT_COLUMN_INFO_END
  0
MTEXT
  5
E3B4
330
C31F
100
AcDbEntity
  8
Bestellung Angaben F
 60
     1
100
AcDbMText
 10
-281.5221708216397
 20
39.11115651772765
 30
0.0
 40
2.5
 41
60.15914127569402
 46
0.0
 71
     1
 72
     5
  1
{\C5;Commande détails\C251;\c5526612;/caractéristiques:}
 73
     1
 44
1.0
1001
AcDbBlockRepETag
1070
     1
1071
       71
1005
E3B4
1001
ACAD
1000
ACAD_MTEXT_COLUMN_INFO_BEGIN
1070
    75
1070
     2
1070
    79
1070
     0
1070
    76
1070
     1
1070
    78
1070
     0
1070
    48
1040
60.15914127569402
1070
    49
1040
12.5
1070
    50
1070
     1
1040
0.0
1000
ACAD_MTEXT_COLUMN_INFO_END
  0
ENDBLK
  5
C321
330
C31F
100
AcDbEntity
  8
0
 62
     7
100
AcDbBlockEnd
  0
BLOCK
  5
DABC
330
DABB
100
AcDbEntity
  8
0
 62
     7
100
AcDbBlockBegin
  2
*U3
 70
     3
 10
0.0
 20
0.0
 30
0.0
  3
*U3
  1

  0
TEXT
  5
DABE
330
DABB
100
AcDbEntity
  8
Plankopf_Variablen
100
AcDbText
 10
-34.18332480369922
 20
20.6389974660471
 30
0.0
 40
1.8
  1
Ech.
  7
Plankopf_cad-support
 72
     2
 11
-29.15167405335816
 21
20.6389974660471
 31
0.0
100
AcDbText
1001
AcDbBlockRepETag
1070
     1
1071
        3
1005
DABE
  0
TEXT
  5
DABF
330
DABB
100
AcDbEntity
  8
Plankopf_Variablen
100
AcDbText
 10
-79.54207546896475
 20
20.72346510224173
 30
0.0
 40
1.8
  1
Date:
  7
Plankopf_cad-support
100
AcDbText
1001
AcDbBlockRepETag
1070
     1
1071
        5
1005
DABF
  0
ATTDEF
  5
DAC0
330
DABB
100
AcDbEntity
  8
Plankopf_Variablen
100
AcDbText
 10
-26.37590902967417
 20
20.72346510224173
 30
0.0
 40
2.0
  1
1:15
  7
robert_koch
100
AcDbAttributeDefinition
280
     0
  3
Massstab:
  2
MASSSTAB
 70
     4
280
     0
1001
AcDbBlockRepETag
1070
     1
1071
        4
1005
0
  0
ATTDEF
  5
DAC1
330
DABB
100
AcDbEntity
  8
Plankopf_Variablen
100
AcDbText
 10
-64.04207546896476
 20
20.72346510224173
 30
0.0
 40
2.0
  1
dd.mm.jjjj
  7
robert_koch
100
AcDbAttributeDefinition
280
     0
  3
Datum Erstellt:
  2
DATUM-ERST
 70
     4
280
     0
1001
AcDbBlockRepETag
1070
     1
1071
        6
1005
0
  0
LINE
  5
DAC2
330
DABB
100
AcDbEntity
  8
0
100
AcDbLine
 10
-155.1096586774657
 20
19.31430228908696
 30
0.0
 11
0.0
 21
19.31430228908695
 31
0.0
1001
AcDbBlockRepETag
1070
     1
1071
       11
1005
DAC2
  0
LWPOLYLINE
  5
DAC3
330
DABB
100
AcDbEntity
  8
0
100
AcDbPolyline
 90
        4
 70
     1
 43
0.0
 10
0.0
 20
0.0
 10
-155.1096586774657
 20
-0.2645942145166771
 10
-155.1096586774657
 20
34.99354328505923
 10
0.0000000000000142
 20
35.25813749957591
1001
AcDbBlockRepETag
1070
     1
1071
       13
1005
DAC3
  0
LWPOLYLINE
  5
DAC4
330
DABB
100
AcDbEntity
  8
0
100
AcDbPolyline
 90
        3
 70
     0
 43
0.0
 10
-81.47309283979494
 20
35.12584039231757
 10
-81.47309283979494
 20
35.12584039231757
 10
-81.47309283979495
 20
0.3974901491781679
1001
AcDbBlockRepETag
1070
     1
1071
       19
1005
DAC4
  0
MTEXT
  5
DAC5
330
DABB
100
AcDbEntity
  8
Plankopf_Text
100
AcDbMText
 10
-79.57945067512731
 20
16.00489694425158
 30
0.0
 40
1.8
 41
77.95493821702439
 46
0.0
 71
     1
 72
     5
  1
Alle Abmessungen in mm. Farbe und Abmessungen können aufgrund des Produktionsprozesses geringfügig abweichen. Weitergabe sowie Verfielfältigung dieser Unterlage und Mitteilung ihres Inhalts ist nicht gestattet., soweit nicht ausdrücklich zugestanden.
  7
robert_koch
 73
     1
 44
1.0
1001
AcDbBlockRepETag
1070
     1
1071
       25
1005
DAC5
1001
ACAD
1000
ACAD_MTEXT_COLUMN_INFO_BEGIN
1070
    75
1070
     2
1070
    79
1070
     0
1070
    76
1070
     1
1070
    78
1070
     0
1070
    48
1040
77.95493821702439
1070
    49
1040
12.5
1070
    50
1070
     1
1040
0.0
1000
ACAD_MTEXT_COLUMN_INFO_END
  0
MTEXT
  5
DAC6
330
DABB
100
AcDbEntity
  8
Plankopf_Anschrift
100
AcDbMText
 10
-152.9465280856904
 20
6.45380978811579
 30
0.0
 40
2.0
 41
56.00456736621527
 46
0.0
 71
     7
 72
     5
  1
{\C0;Studer Handels AG\PHarbirbenweg 1\fCalibri|b0|i0|c0|p34;^J\fArial|b0|i0|c0|p34;8181 Höri}
 73
     1
 44
1.0
1001
AcDbBlockRepETag
1070
     1
1071
       27
1005
DAC6
1001
ACAD
1000
ACAD_MTEXT_COLUMN_INFO_BEGIN
1070
    75
1070
     2
1070
    79
1070
     0
1070
    76
1070
     1
1070
    78
1070
     0
1070
    48
1040
56.00456736621527
1070
    49
1040
12.5
1070
    50
1070
     1
1040
0.0
1000
ACAD_MTEXT_COLUMN_INFO_END
  0
MTEXT
  5
DAC7
330
DABB
100
AcDbEntity
  8
Plankopf_Anschrift
100
AcDbMText
 10
-113.3494038308032
 20
6.45380978811579
 30
0.0
 40
2.0
 41
56.00456736621527
 46
0.0
 71
     7
 72
     5
  1
{\C0;Telefon: 044 823 18 80\fCalibri|b0|i0|c0|p34;^J\fArial|b0|i0|c0|p34;www.studerhandels.ch \Pinfo@studerhandels.ch}
 73
     1
 44
1.0
1001
AcDbBlockRepETag
1070
     1
1071
       28
1005
DAC7
1001
ACAD
1000
ACAD_MTEXT_COLUMN_INFO_BEGIN
1070
    75
1070
     2
1070
    79
1070
     0
1070
    76
1070
     1
1070
    78
1070
     0
1070
    48
1040
56.00456736621527
1070
    49
1040
12.5
1070
    50
1070
     1
1040
0.0
1000
ACAD_MTEXT_COLUMN_INFO_END
  0
ATTDEF
  5
DAC8
330
DABB
100
AcDbEntity
  8
Plankopf_Variablen
100
AcDbText
 10
-64.42938305725771
 20
27.53059164123852
 30
0.0
 40
3.5
  1

  7
Plankopf_cad-support
100
AcDbAttributeDefinition
280
     0
  3
Typ/Type
  2
TYP/TYPE:
 70
     4
280
     0
1001
AcDbBlockRepETag
1070
     1
1071
       30
1005
0
  0
TEXT
  5
DAC9
330
DABB
100
AcDbEntity
  8
Plankopf_Variablen
100
AcDbText
 10
-79.92938305725771
 20
27.53059164123852
 30
0.0
 40
3.5
  1
Typ:
  7
Plankopf_cad-support
100
AcDbText
1001
AcDbBlockRepETag
1070
     1
1071
       31
1005
DAC9
  0
MTEXT
  5
DACA
330
DABB
100
AcDbEntity
  8
0
 60
     1
100
AcDbMText
 10
-79.57945067512731
 20
16.00489694425158
 30
0.0
 40
1.8
 41
77.95493821702439
 46
0.0
 71
     1
 72
     5
  3
Toutes les dimensions en mm. En raison du processus de\Pproduction les coloris et dimensions peuvent légèrement différer du\Pfichier. La transmission et la reproduction de ce document ainsi que\Pla communication de son contenu sont interdites, sauf a
  1
ccord formel.
  7
robert_koch
 73
     1
 44
1.0
1001
AcDbBlockRepETag
1070
     1
1071
       32
1005
DACA
1001
ACAD
1000
ACAD_MTEXT_COLUMN_INFO_BEGIN
1070
    75
1070
     2
1070
    79
1070
     0
1070
    76
1070
     1
1070
    78
1070
     0
1070
    48
1040
77.95493821702439
1070
    49
1040
12.5
1070
    50
1070
     1
1040
0.0
1000
ACAD_MTEXT_COLUMN_INFO_END
  0
IMAGE
  5
DACB
330
DABB
100
AcDbEntity
  8
0
 62
     7
160
               140
310
8C00000001000000840000000600000005000000BC4143890E4863C0C593FD3366F135400000000000000000BC4143890E4863C0601AE4EB3014404000000000000000005A4739A7969D54C0601AE4EB3014404000000000000000005A4739A7969D54C0C593FD3366F135400000000000000000BC4143890E4863C0C593FD
310
3366F135400000000000000000
100
AcDbRasterImage
 90
        0
 10
-154.2517744363412
 20
21.94296574536181
 30
0.0
 11
0.0408591088751599
 21
0.0
 31
0.0
 12
0.0
 22
0.0408591088751599
 32
0.0
 13
1757.0
 23
250.0
340
D790
 70
     7
280
     0
281
    50
282
    50
283
     0
290
     0
360
DACC
 71
     1
 91
        2
 14
-0.5
 24
-0.5
 14
1756.5
 24
249.5
1001
AcDbBlockRepETag
1070
     1
1071
       35
1005
DACB
  0
ENDBLK
  5
DABD
330
DABB
100
AcDbEntity
  8
0
 62
     7
100
AcDbBlockEnd
  0
BLOCK
  5
E323
330
E322
100
AcDbEntity
  8
0
 62
     7
100
AcDbBlockBegin
  2
*D4
 70
     1
 10
0.0
 20
0.0
 30
0.0
  3
*D4
  1

  0
LINE
  5
E6A6
330
E322
100
AcDbEntity
  8
AUßENKONTUR
 62
     5
440
 16777216
370
    -2
100
AcDbLine
 10
10630.82291689167
 20
195.1381281363951
 30
0.0
 11
10752.6531846134
 21
195.1381281363951
 31
0.0
  0
LINE
  5
E6A7
330
E322
100
AcDbEntity
  8
AUßENKONTUR
 62
     5
440
 16777216
370
    -2
100
AcDbLine
 10
10732.6486279963
 20
310.7342066240071
 30
0.0
 11
10752.6531846134
 21
310.7342066240071
 31
0.0
  0
LINE
  5
E6A8
330
E322
100
AcDbEntity
  8
AUßENKONTUR
 62
     5
440
 16777216
370
    -2
100
AcDbLine
 10
10742.65318492484
 20
185.1381284478355
 30
0.0
 11
10742.65318492484
 21
320.7342063125668
 31
0.0
  0
INSERT
  5
E6A9
330
E322
100
AcDbEntity
  8
AUßENKONTUR
 62
     5
440
 16777216
370
    -2
100
AcDbBlockReference
  2
_OBLIQUE
 10
10742.65318492484
 20
195.1381281363951
 30
0.0
 41
14.9999995328395
 42
14.9999995328395
 43
14.9999995328395
 50
270.0
  0
INSERT
  5
E6AA
330
E322
100
AcDbEntity
  8
AUßENKONTUR
 62
     5
440
 16777216
370
    -2
100
AcDbBlockReference
  2
_OBLIQUE
 10
10742.65318492484
 20
310.7342066240071
 30
0.0
 41
14.9999995328395
 42
14.9999995328395
 43
14.9999995328395
 50
90.0
  0
MTEXT
  5
E6AB
330
E322
100
AcDbEntity
  8
AUßENKONTUR
 62
     5
440
 16777216
100
AcDbMText
 10
10728.7181580737
 20
252.9361673802029
 30
0.0
 40
17.49999945497941
 41
0.0
 46
0.0
 71
     5
 72
     1
  1
\A1;116
 11
0.0000000000000001
 21
1.0
 31
0.0
 73
     1
 44
1.0
  0
POINT
  5
E6AC
330
E322
100
AcDbEntity
  8
DEFPOINTS
 62
     0
440
 16777216
100
AcDbPoint
 10
10615.82291735883
 20
195.1381281363951
 30
0.0
  0
POINT
  5
E6AD
330
E322
100
AcDbEntity
  8
DEFPOINTS
 62
     0
440
 16777216
100
AcDbPoint
 10
10717.64862846346
 20
310.7342066240071
 30
0.0
  0
POINT
  5
E6AE
330
E322
100
AcDbEntity
  8
DEFPOINTS
 62
     0
440
 16777216
100
AcDbPoint
 10
10742.65318492484
 20
310.7342066240071
 30
0.0
  0
ENDBLK
  5
E324
330
E322
100
AcDbEntity
  8
0
 62
     7
100
AcDbBlockEnd
  0
BLOCK
  5
E32F
330
E32E
100
AcDbEntity
  8
0
 62
     7
100
AcDbBlockBegin
  2
*D5
 70
     1
 10
0.0
 20
0.0
 30
0.0
  3
*D5
  1

  0
LINE
  5
E605
330
E32E
100
AcDbEntity
  8
AUßENKONTUR
 62
     5
440
 16777216
370
    -2
100
AcDbLine
 10
10192.31835886107
 20
154.9092551979946
 30
0.0
 11
10192.31835886107
 21
12.74487493773111
 31
0.0
  0
LINE
  5
E606
330
E32E
100
AcDbEntity
  8
AUßENKONTUR
 62
     5
440
 16777216
370
    -2
100
AcDbLine
 10
9943.318358861072
 20
154.9092551979946
 30
0.0
 11
9943.318358861072
 21
12.74487493773111
 31
0.0
  0
LINE
  5
E607
330
E32E
100
AcDbEntity
  8
AUßENKONTUR
 62
     5
440
 16777216
370
    -2
100
AcDbLine
 10
10202.31835854963
 20
22.74487462629076
 30
0.0
 11
9933.318359172512
 21
22.74487462629076
 31
0.0
  0
INSERT
  5
E608
330
E32E
100
AcDbEntity
  8
AUßENKONTUR
 62
     5
440
 16777216
370
    -2
100
AcDbBlockReference
  2
_OBLIQUE
 10
10192.31835886107
 20
22.74487462629076
 30
0.0
 41
14.9999995328395
 42
14.9999995328395
 43
14.9999995328395
  0
INSERT
  5
E609
330
E32E
100
AcDbEntity
  8
AUßENKONTUR
 62
     5
440
 16777216
370
    -2
100
AcDbBlockReference
  2
_OBLIQUE
 10
9943.318358861072
 20
22.74487462629076
 30
0.0
 41
14.9999995328395
 42
14.9999995328395
 43
14.9999995328395
 50
180.0
  0
MTEXT
  5
E60A
330
E32E
100
AcDbEntity
  8
AUßENKONTUR
 62
     5
440
 16777216
100
AcDbMText
 10
10067.81835886107
 20
36.67990147742742
 30
0.0
 40
17.49999945497941
 41
0.0
 46
0.0
 71
     5
 72
     1
  1
\A1;249
 73
     1
 44
1.0
  0
POINT
  5
E60B
330
E32E
100
AcDbEntity
  8
DEFPOINTS
 62
     0
440
 16777216
100
AcDbPoint
 10
10192.31835886107
 20
204.9092536407929
 30
0.0
  0
POINT
  5
E60C
330
E32E
100
AcDbEntity
  8
DEFPOINTS
 62
     0
440
 16777216
100
AcDbPoint
 10
9943.318358861072
 20
204.9092536407929
 30
0.0
  0
POINT
  5
E60D
330
E32E
100
AcDbEntity
  8
DEFPOINTS
 62
     0
440
 16777216
100
AcDbPoint
 10
9943.318358861072
 20
22.74487462629076
 30
0.0
  0
ENDBLK
  5
E330
330
E32E
100
AcDbEntity
  8
0
 62
     7
100
AcDbBlockEnd
  0
BLOCK
  5
E33B
330
E33A
100
AcDbEntity
  8
0
 62
     7
100
AcDbBlockBegin
  2
*D6
 70
     1
 10
0.0
 20
0.0
 30
0.0
  3
*D6
  1

  0
LINE
  5
E60E
330
E33A
100
AcDbEntity
  8
AUßENKONTUR
 62
     5
440
 16777216
370
    -2
100
AcDbLine
 10
10117.81835730387
 20
66.40925364079293
 30
0.0
 11
10268.47773379529
 21
66.40925364079288
 31
0.0
  0
LINE
  5
E60F
330
E33A
100
AcDbEntity
  8
AUßENKONTUR
 62
     5
440
 16777216
370
    -2
100
AcDbLine
 10
10117.81835730387
 20
343.4092536407929
 30
0.0
 11
10268.47773379529
 21
343.4092536407929
 31
0.0
  0
LINE
  5
E610
330
E33A
100
AcDbEntity
  8
AUßENKONTUR
 62
     5
440
 16777216
370
    -2
100
AcDbLine
 10
10258.47773410673
 20
56.4092539522332
 30
0.0
 11
10258.47773410673
 21
353.4092533293526
 31
0.0
  0
INSERT
  5
E611
330
E33A
100
AcDbEntity
  8
AUßENKONTUR
 62
     5
440
 16777216
370
    -2
100
AcDbBlockReference
  2
_OBLIQUE
 10
10258.47773410673
 20
66.40925364079288
 30
0.0
 41
14.9999995328395
 42
14.9999995328395
 43
14.9999995328395
 50
270.0
  0
INSERT
  5
E612
330
E33A
100
AcDbEntity
  8
AUßENKONTUR
 62
     5
440
 16777216
370
    -2
100
AcDbBlockReference
  2
_OBLIQUE
 10
10258.47773410673
 20
343.4092536407929
 30
0.0
 41
14.9999995328395
 42
14.9999995328395
 43
14.9999995328395
 50
90.0
  0
MTEXT
  5
E613
330
E33A
100
AcDbEntity
  8
AUßENKONTUR
 62
     5
440
 16777216
100
AcDbMText
 10
10244.69192280347
 20
204.9092536407945
 30
0.0
 40
17.49999945497941
 41
0.0
 46
0.0
 71
     5
 72
     1
  1
\A1;277
 11
0.0000000000000001
 21
1.0
 31
0.0
 73
     1
 44
1.0
  0
POINT
  5
E614
330
E33A
100
AcDbEntity
  8
DEFPOINTS
 62
     0
440
 16777216
100
AcDbPoint
 10
10067.81835886107
 20
66.40925364079294
 30
0.0
  0
POINT
  5
E615
330
E33A
100
AcDbEntity
  8
DEFPOINTS
 62
     0
440
 16777216
100
AcDbPoint
 10
10067.81835886107
 20
343.4092536407929
 30
0.0
  0
POINT
  5
E616
330
E33A
100
AcDbEntity
  8
DEFPOINTS
 62
     0
440
 16777216
100
AcDbPoint
 10
10258.47773410673
 20
343.4092536407929
 30
0.0
  0
ENDBLK
  5
E33C
330
E33A
100
AcDbEntity
  8
0
 62
     7
100
AcDbBlockEnd
  0
BLOCK
  5
E3C4
330
E3C3
100
AcDbEntity
  8
0
 62
     7
100
AcDbBlockBegin
  2
*U7
 70
     1
 10
0.0
 20
0.0
 30
0.0
  3
*U7
  1

  0
CIRCLE
  5
E3C6
330
E3C3
100
AcDbEntity
  8
Bestellung_Symbole
100
AcDbCircle
 10
-202.8184196596068
 20
16.51848021816525
 30
0.0
 40
1.445345169475509
1001
AcDbBlockRepETag
1070
     1
1071
        0
1005
E3C6
  0
LINE
  5
E3C7
330
E3C3
100
AcDbEntity
  8
Bestellung_Symbole
100
AcDbLine
 10
-203.4077514933053
 20
15.84998238243017
 30
0.0
 11
-202.085734366442
 21
15.84998238243017
 31
0.0
1001
AcDbBlockRepETag
1070
     1
1071
        1
1005
E3C7
  0
LINE
  5
E3C8
330
E3C3
100
AcDbEntity
  8
Bestellung_Symbole
100
AcDbLine
 10
-202.085734366442
 20
15.84998238243017
 30
0.0
 11
-202.085734366442
 21
15.84998238243017
 31
0.0
1001
AcDbBlockRepETag
1070
     1
1071
        2
1005
E3C8
  0
LINE
  5
E3C9
330
E3C3
100
AcDbEntity
  8
Bestellung_Symbole
100
AcDbLine
 10
-202.085734366442
 20
15.84998238243017
 30
0.0
 11
-202.085734366442
 21
17.17106245491132
 31
0.0
1001
AcDbBlockRepETag
1070
     1
1071
        3
1005
E3C9
  0
CIRCLE
  5
E3CA
330
E3C3
100
AcDbEntity
  8
Bestellung_Symbole
100
AcDbCircle
 10
-202.8184196596068
 20
20.01848021816526
 30
0.0
 40
1.445345169475509
1001
AcDbBlockRepETag
1070
     1
1071
        4
1005
E3CA
  0
LINE
  5
E3CB
330
E3C3
100
AcDbEntity
  8
Bestellung_Symbole
100
AcDbLine
 10
-203.3997608151413
 20
20.6939384533469
 30
0.0
 11
-202.0778371532448
 21
20.6782185348281
 31
0.0
1001
AcDbBlockRepETag
1070
     1
1071
        5
1005
E3CB
  0
LINE
  5
E3CC
330
E3C3
100
AcDbEntity
  8
Bestellung_Symbole
100
AcDbLine
 10
-202.0778371532448
 20
20.6782185348281
 30
0.0
 11
-202.0778371532448
 21
20.6782185348281
 31
0.0
1001
AcDbBlockRepETag
1070
     1
1071
        6
1005
E3CC
  0
LINE
  5
E3CD
330
E3C3
100
AcDbEntity
  8
Bestellung_Symbole
100
AcDbLine
 10
-202.0778371532448
 20
20.6782185348281
 30
0.0
 11
-202.0935459293827
 21
19.35723186106526
 31
0.0
1001
AcDbBlockRepETag
1070
     1
1071
        7
1005
E3CD
  0
CIRCLE
  5
E3CE
330
E3C3
100
AcDbEntity
  8
Bestellung_Symbole
100
AcDbCircle
 10
-202.8184196596068
 20
25.19359369046812
 30
0.0
 40
1.445345169475509
1001
AcDbBlockRepETag
1070
     1
1071
        8
1005
E3CE
  0
CIRCLE
  5
E3CF
330
E3C3
100
AcDbEntity
  8
Bestellung_Symbole
100
AcDbCircle
 10
-202.8191454233125
 20
28.69359387268516
 30
0.0
 40
1.445345169475509
1001
AcDbBlockRepETag
1070
     1
1071
        9
1005
E3CF
  0
CIRCLE
  5
E3D0
330
E3C3
100
AcDbEntity
  8
Bestellung_Symbole
100
AcDbCircle
 10
-202.8184196596068
 20
33.62848730273679
 30
0.0
 40
1.445345169475509
1001
AcDbBlockRepETag
1070
     1
1071
       10
1005
E3D0
  0
CIRCLE
  5
E3D1
330
E3C3
100
AcDbEntity
  8
Bestellung_Symbole
100
AcDbCircle
 10
-202.8184196596068
 20
37.12848730273677
 30
0.0
 40
1.445345169475509
1001
AcDbBlockRepETag
1070
     1
1071
       11
1005
E3D1
  0
LINE
  5
E3D2
330
E3C3
100
AcDbEntity
  8
Bestellung_Symbole
100
AcDbLine
 10
-203.6894587970163
 20
32.47509514044895
 30
0.0
 11
-201.9473805221973
 21
34.7818794650246
 31
0.0
1001
AcDbBlockRepETag
1070
     1
1071
       13
1005
E3D2
  0
LINE
  5
E3D3
330
E3C3
100
AcDbEntity
  8
Bestellung_Symbole
370
    70
100
AcDbLine
 10
-202.8928512393241
 20
25.84161160611542
 30
0.0
 11
-202.8928512393241
 21
24.30535591478661
 31
0.0
1001
AcDbBlockRepETag
1070
     1
1071
       14
1005
E3D3
  0
LINE
  5
E3D4
330
E3C3
100
AcDbEntity
  8
Bestellung_Symbole
100
AcDbLine
 10
-202.8928512393241
 20
24.30535591478661
 30
0.0
 11
-202.8928512393241
 21
24.30535591478661
 31
0.0
1001
AcDbBlockRepETag
1070
     1
1071
       15
1005
E3D4
  0
HATCH
  5
E3D5
330
E3C3
100
AcDbEntity
  8
0
 62
     7
100
AcDbHatch
 10
0.0
 20
0.0
 30
0.0
210
0.0
220
0.0
230
1.0
  2
SOLID
 70
     1
 71
     0
 91
        1
 92
        7
 72
     0
 73
     1
 93
       10
 10
-203.7846648336894
 20
37.83037551976668
 10
-203.276035546327
 20
37.11750964058143
 10
-203.7979126985825
 20
36.40933674642042
 10
-202.957440883159
 20
36.67098548181599
 10
-202.4453891308196
 20
35.95332287038309
 10
-202.4341850232856
 20
36.83388116910945
 10
-201.5722767280301
 20
37.10220333213988
 10
-202.4271906694949
 20
37.38358459313864
 10
-202.4157220528676
 20
38.28493131044343
 10
-202.9525336187572
 20
37.55649282910324
 97
        0
 75
     1
 76
     1
 47
0.0102647567851707
 98
        1
 10
-211.2661374401505
 20
45.68451048543707
450
        0
451
        0
460
0.0
461
0.0
452
        0
462
1.0
453
        2
463
0.0
 63
     5
421
      255
463
1.0
 63
     2
421
 16776960
470
LINEAR
1001
GradientColor1ACI
1070
     5
1001
GradientColor2ACI
1070
     2
1001
ACAD
1010
0.0
1020
0.0
1030
0.0
1001
AcDbBlockRepETag
1070
     1
1071
       19
1005
E3D5
  0
LWPOLYLINE
  5
E3D6
330
E3C3
100
AcDbEntity
  8
Bestellung_Symbole
100
AcDbPolyline
 90
       11
 70
     0
 43
0.0
 10
-203.7979126985825
 20
36.40933674642042
 10
-202.957440883159
 20
36.67098548181599
 10
-202.4453891308196
 20
35.95332287038309
 10
-202.4341850232856
 20
36.83388116910945
 10
-201.5722767280301
 20
37.10220333213988
 10
-202.4271906694949
 20
37.38358459313864
 10
-202.4157220528676
 20
38.28493131044343
 10
-202.9525336187572
 20
37.55649282910324
 10
-203.7846648336894
 20
37.83037551976668
 10
-203.276035546327
 20
37.11750964058143
 10
-203.7979126985825
 20
36.40933674642042
1001
AcDbBlockRepETag
1070
     1
1071
       20
1005
E3D6
  0
LINE
  5
E3D7
330
E3C3
100
AcDbEntity
  8
Bestellung_Symbole
 62
     7
100
AcDbLine
 10
-203.1557058637651
 20
28.25250682165695
 30
0.0
 11
-203.1557058637651
 21
27.91065444565977
 31
0.0
1001
AcDbBlockRepETag
1070
     1
1071
       21
1005
E3D7
  0
LINE
  5
E3D8
330
E3C3
100
AcDbEntity
  8
Bestellung_Symbole
 62
     7
100
AcDbLine
 10
-203.1557058637651
 20
27.91065444565977
 30
0.0
 11
-202.3964839831671
 21
27.91065444565977
 31
0.0
1001
AcDbBlockRepETag
1070
     1
1071
       22
1005
E3D8
  0
LINE
  5
E3D9
330
E3C3
100
AcDbEntity
  8
Bestellung_Symbole
 62
     7
100
AcDbLine
 10
-202.3964839831671
 20
27.91065444565977
 30
0.0
 11
-202.3964839831671
 21
28.67773667544266
 31
0.0
1001
AcDbBlockRepETag
1070
     1
1071
       23
1005
E3D9
  0
LINE
  5
E3DA
330
E3C3
100
AcDbEntity
  8
Bestellung_Symbole
 62
     7
100
AcDbLine
 10
-202.3964839831671
 20
28.67773667544266
 30
0.0
 11
-203.172392928531
 21
28.67773667544266
 31
0.0
1001
AcDbBlockRepETag
1070
     1
1071
       24
1005
E3DA
  0
LINE
  5
E3DB
330
E3C3
100
AcDbEntity
  8
Bestellung_Symbole
 62
     7
100
AcDbLine
 10
-203.172392928531
 20
28.67773667544266
 30
0.0
 11
-203.172392928531
 21
29.19468422563888
 31
0.0
1001
AcDbBlockRepETag
1070
     1
1071
       25
1005
E3DB
  0
LINE
  5
E3DC
330
E3C3
100
AcDbEntity
  8
Bestellung_Symbole
 62
     7
100
AcDbLine
 10
-203.172392928531
 20
29.19468422563888
 30
0.0
 11
-202.3964839831671
 21
29.19468422563888
 31
0.0
1001
AcDbBlockRepETag
1070
     1
1071
       26
1005
E3DC
  0
LWPOLYLINE
  5
E3DD
330
E3C3
100
AcDbEntity
  8
Bestellung_Eingabe
100
AcDbPolyline
 90
        4
 70
     1
 43
0.0
 10
-198.4704761447482
 20
35.58541717949549
 10
-192.4574493739312
 20
35.58541717949549
 10
-192.4574493739312
 20
38.67155742597804
 10
-198.4704761447482
 20
38.67155742597804
1001
AcDbBlockRepETag
1070
     1
1071
       30
1005
E3DD
  0
LWPOLYLINE
  5
E3DE
330
E3C3
100
AcDbEntity
  8
Bestellung_Eingabe
100
AcDbPolyline
 90
        4
 70
     1
 43
0.0
 10
-198.441528703599
 20
32.08541717949549
 10
-192.4574493739312
 20
32.08541717949549
 10
-192.4574493739312
 20
35.17155742597804
 10
-198.441528703599
 20
35.17155742597804
1001
AcDbBlockRepETag
1070
     1
1071
       31
1005
E3DE
  0
MTEXT
  5
E3DF
330
E3C3
100
AcDbEntity
  8
Bestellung Angaben D
 60
     1
100
AcDbMText
 10
-190.8900653399021
 20
34.73395550061562
 30
0.0
 40
1.7
 41
61.82327442795304
 46
0.0
 71
     1
 72
     5
  1
OHNE
 73
     1
 44
1.0
1001
AcDbBlockRepETag
1070
     1
1071
       32
1005
E3DF
1001
ACAD
1000
ACAD_MTEXT_COLUMN_INFO_BEGIN
1070
    75
1070
     2
1070
    79
1070
     0
1070
    76
1070
     1
1070
    78
1070
     0
1070
    48
1040
61.82327442795304
1070
    49
1040
12.5
1070
    50
1070
     1
1040
0.0
1000
ACAD_MTEXT_COLUMN_INFO_END
  0
MTEXT
  5
E3E0
330
E3C3
100
AcDbEntity
  8
Bestellung Angaben D
 60
     1
100
AcDbMText
 10
-190.9190127810513
 20
38.48668051637033
 30
0.0
 40
1.7
 41
61.82327442795304
 46
0.0
 71
     1
 72
     5
  1
MIT
 73
     1
 44
1.0
1001
AcDbBlockRepETag
1070
     1
1071
       33
1005
E3E0
1001
ACAD
1000
ACAD_MTEXT_COLUMN_INFO_BEGIN
1070
    75
1070
     2
1070
    79
1070
     0
1070
    76
1070
     1
1070
    78
1070
     0
1070
    48
1040
61.82327442795304
1070
    49
1040
12.5
1070
    50
1070
     1
1040
0.0
1000
ACAD_MTEXT_COLUMN_INFO_END
  0
MTEXT
  5
E3E1
330
E3C3
100
AcDbEntity
  8
Bestellung Angaben D
 62
     7
 60
     1
100
AcDbMText
 10
-199.2675143603675
 20
17.4819563482379
 30
0.0
 40
1.7
 41
39.05808297608564
 46
0.0
 71
     1
 72
     5
  1
Top Aufsatzbecken, Aufsatzschale
 73
     1
 44
1.0
1001
AcDbBlockRepETag
1070
     1
1071
       34
1005
E3E1
1001
ACAD
1000
ACAD_MTEXT_COLUMN_INFO_BEGIN
1070
    75
1070
     2
1070
    79
1070
     0
1070
    76
1070
     1
1070
    78
1070
     0
1070
    48
1040
39.05808297608564
1070
    49
1040
12.5
1070
    50
1070
     1
1040
0.0
1000
ACAD_MTEXT_COLUMN_INFO_END
  0
MTEXT
  5
E3E2
330
E3C3
100
AcDbEntity
  8
Bestellung Angaben D
 62
     7
 60
     1
100
AcDbMText
 10
-199.2675143603675
 20
20.9819563482379
 30
0.0
 40
1.7
 41
39.05808297608564
 46
0.0
 71
     1
 72
     5
  1
Unterbau
 73
     1
 44
1.0
1001
AcDbBlockRepETag
1070
     1
1071
       35
1005
E3E2
1001
ACAD
1000
ACAD_MTEXT_COLUMN_INFO_BEGIN
1070
    75
1070
     2
1070
    79
1070
     0
1070
    76
1070
     1
1070
    78
1070
     0
1070
    48
1040
39.05808297608564
1070
    49
1040
12.5
1070
    50
1070
     1
1040
0.0
1000
ACAD_MTEXT_COLUMN_INFO_END
  0
MTEXT
  5
E3E3
330
E3C3
100
AcDbEntity
  8
Bestellung Angaben D
 62
     7
 60
     1
100
AcDbMText
 10
-190.8900653399021
 20
26.15706982054077
 30
0.0
 40
1.7
 41
39.05808297608564
 46
0.0
 71
     1
 72
     5
  1
Integriert (Option)
 73
     1
 44
1.0
1001
AcDbBlockRepETag
1070
     1
1071
       36
1005
E3E3
1001
ACAD
1000
ACAD_MTEXT_COLUMN_INFO_BEGIN
1070
    75
1070
     2
1070
    79
1070
     0
1070
    76
1070
     1
1070
    78
1070
     0
1070
    48
1040
39.05808297608564
1070
    49
1040
12.5
1070
    50
1070
     1
1040
0.0
1000
ACAD_MTEXT_COLUMN_INFO_END
  0
MTEXT
  5
E3E4
330
E3C3
100
AcDbEntity
  8
Bestellung Angaben D
 62
     7
 60
     1
100
AcDbMText
 10
-190.8900653399021
 20
29.65706982054077
 30
0.0
 40
1.7
 41
39.05808297608564
 46
0.0
 71
     1
 72
     5
  1
Standard
 73
     1
 44
1.0
1001
AcDbBlockRepETag
1070
     1
1071
       37
1005
E3E4
1001
ACAD
1000
ACAD_MTEXT_COLUMN_INFO_BEGIN
1070
    75
1070
     2
1070
    79
1070
     0
1070
    76
1070
     1
1070
    78
1070
     0
1070
    48
1040
39.05808297608564
1070
    49
1040
12.5
1070
    50
1070
     1
1040
0.0
1000
ACAD_MTEXT_COLUMN_INFO_END
  0
MTEXT
  5
E3E5
330
E3C3
100
AcDbEntity
  8
Bestellung Angaben D
 62
     7
 60
     1
100
AcDbMText
 10
-199.2675143603675
 20
12.42695280595214
 30
0.0
 40
1.7
 41
39.05808297608564
 46
0.0
 71
     1
 72
     5
  1
Eingeschränkte Farbe lieferbar
 73
     1
 44
1.0
1001
AcDbBlockRepETag
1070
     1
1071
       38
1005
E3E5
1001
ACAD
1000
ACAD_MTEXT_COLUMN_INFO_BEGIN
1070
    75
1070
     2
1070
    79
1070
     0
1070
    76
1070
     1
1070
    78
1070
     0
1070
    48
1040
39.05808297608564
1070
    49
1040
12.5
1070
    50
1070
     1
1040
0.0
1000
ACAD_MTEXT_COLUMN_INFO_END
  0
MTEXT
  5
E3E6
330
E3C3
100
AcDbEntity
  8
Bestellung Angaben D
 60
     1
100
AcDbMText
 10
-281.5221708216398
 20
18.87348710634419
 30
0.0
 40
2.5
 41
39.09569939019121
 46
0.0
 71
     1
 72
     5
  1
Farbe / Code:
 73
     1
 44
1.0
1001
AcDbBlockRepETag
1070
     1
1071
       40
1005
E3E6
1001
ACAD
1000
ACAD_MTEXT_COLUMN_INFO_BEGIN
1070
    75
1070
     2
1070
    79
1070
     0
1070
    76
1070
     1
1070
    78
1070
     0
1070
    48
1040
39.09569939019121
1070
    49
1040
12.5
1070
    50
1070
     1
1040
0.0
1000
ACAD_MTEXT_COLUMN_INFO_END
  0
LINE
  5
E3E7
330
E3C3
100
AcDbEntity
  8
Bestellung_Eingabe
100
AcDbLine
 10
-259.5448287445003
 20
16.28822107633055
 30
0.0
 11
-226.2190906184021
 21
16.28822107633055
 31
0.0
1001
AcDbBlockRepETag
1070
     1
1071
       41
1005
E3E7
  0
LWPOLYLINE
  5
E3E8
330
E3C3
100
AcDbEntity
  8
Bestellung_Symbole
 62
     7
100
AcDbPolyline
 90
        4
 70
     1
 43
0.0
 10
-221.3630295459457
 20
30.75195449901488
 10
-157.9279299824344
 20
30.75195449901489
 10
-157.9279299824344
 20
23.19695095672912
 10
-221.3630295459457
 20
23.19695095672912
1001
AcDbBlockRepETag
1070
     1
1071
       42
1005
E3E8
  0
MTEXT
  5
E3E9
330
E3C3
100
AcDbEntity
  8
Bestellung Angaben D
 60
     1
100
AcDbMText
 10
-220.5068622150195
 20
28.34159795716912
 30
0.0
 40
1.7
 41
61.82327442795304
 46
0.0
 71
     1
 72
     5
  1
Ablauf:
 73
     1
 44
1.0
1001
AcDbBlockRepETag
1070
     1
1071
       43
1005
E3E9
1001
ACAD
1000
ACAD_MTEXT_COLUMN_INFO_BEGIN
1070
    75
1070
     2
1070
    79
1070
     0
1070
    76
1070
     1
1070
    78
1070
     0
1070
    48
1040
61.82327442795304
1070
    49
1040
12.5
1070
    50
1070
     1
1040
0.0
1000
ACAD_MTEXT_COLUMN_INFO_END
  0
LWPOLYLINE
  5
E3EA
330
E3C3
100
AcDbEntity
  8
Bestellung_Symbole
 62
     7
100
AcDbPolyline
 90
        4
 70
     1
 43
0.0
 10
-221.3630295459457
 20
22.19695095672913
 10
-157.9279299824344
 20
22.19695095672913
 10
-157.9279299824344
 20
14.64194741444337
 10
-221.3630295459457
 20
14.64194741444337
1001
AcDbBlockRepETag
1070
     1
1071
       44
1005
E3EA
  0
MTEXT
  5
E3EB
330
E3C3
100
AcDbEntity
  8
Bestellung Angaben D
 60
     1
100
AcDbMText
 10
-220.4324306353021
 20
19.78659441488336
 30
0.0
 40
1.7
 41
61.82327442795304
 46
0.0
 71
     1
 72
     5
  1
Einbau:
 73
     1
 44
1.0
1001
AcDbBlockRepETag
1070
     1
1071
       45
1005
E3EB
1001
ACAD
1000
ACAD_MTEXT_COLUMN_INFO_BEGIN
1070
    75
1070
     2
1070
    79
1070
     0
1070
    76
1070
     1
1070
    78
1070
     0
1070
    48
1040
61.82327442795304
1070
    49
1040
12.5
1070
    50
1070
     1
1040
0.0
1000
ACAD_MTEXT_COLUMN_INFO_END
  0
LWPOLYLINE
  5
E3EC
330
E3C3
100
AcDbEntity
  8
Bestellung_Symbole
 62
     7
100
AcDbPolyline
 90
        4
 70
     1
 43
0.0
 10
-221.3630295459457
 20
13.64194741444337
 10
-157.9279299824344
 20
13.64194741444337
 10
-157.9279299824344
 20
6.086943872157608
 10
-221.3630295459457
 20
6.086943872157608
1001
AcDbBlockRepETag
1070
     1
1071
       46
1005
E3EC
  0
MTEXT
  5
E3ED
330
E3C3
100
AcDbEntity
  8
Bestellung Angaben D
 60
     1
100
AcDbMText
 10
-220.4324306353021
 20
11.23159087259759
 30
0.0
 40
1.7
 41
61.82327442795304
 46
0.0
 71
     1
 72
     5
  1
Farben:
 73
     1
 44
1.0
1001
AcDbBlockRepETag
1070
     1
1071
       47
1005
E3ED
1001
ACAD
1000
ACAD_MTEXT_COLUMN_INFO_BEGIN
1070
    75
1070
     2
1070
    79
1070
     0
1070
    76
1070
     1
1070
    78
1070
     0
1070
    48
1040
61.82327442795304
1070
    49
1040
12.5
1070
    50
1070
     1
1040
0.0
1000
ACAD_MTEXT_COLUMN_INFO_END
  0
LWPOLYLINE
  5
E3EE
330
E3C3
100
AcDbEntity
  8
Bestellung_Symbole
 62
     7
100
AcDbPolyline
 90
        4
 70
     1
 43
0.0
 10
-221.3630295459457
 20
39.30695804130065
 10
-157.9279299824344
 20
39.30695804130065
 10
-157.9279299824344
 20
31.75195449901488
 10
-221.3630295459457
 20
31.75195449901488
1001
AcDbBlockRepETag
1070
     1
1071
       48
1005
E3EE
  0
MTEXT
  5
E3EF
330
E3C3
100
AcDbEntity
  8
Bestellung Angaben D
 60
     1
100
AcDbMText
 10
-220.4324306353021
 20
36.89660149945487
 30
0.0
 40
1.7
 41
61.82327442795304
 46
0.0
 71
     1
 72
     5
  1
Überlauf:
 73
     1
 44
1.0
1001
AcDbBlockRepETag
1070
     1
1071
       49
1005
E3EF
1001
ACAD
1000
ACAD_MTEXT_COLUMN_INFO_BEGIN
1070
    75
1070
     2
1070
    79
1070
     0
1070
    76
1070
     1
1070
    78
1070
     0
1070
    48
1040
61.82327442795304
1070
    49
1040
12.5
1070
    50
1070
     1
1040
0.0
1000
ACAD_MTEXT_COLUMN_INFO_END
  0
MTEXT
  5
E3F0
102
{ACAD_XDICTIONARY
360
E3F1
102
}
330
E3C3
100
AcDbEntity
  8
Bestellung Angaben D
 60
     1
100
AcDbMText
 10
-281.5221708216397
 20
13.00414277615152
 30
0.0
 40
1.5
 41
34.75629395314513
 46
0.0
 71
     1
 72
     5
  1
\A1;\pt6;INFO:\PBatterie und Ablaufventil 1 {\H0.7x;\S1#4;}" sind nicht im Lieferumfang enthalten.
 73
     1
 44
1.0
1001
AcDbBlockRepETag
1070
     1
1071
       50
1005
E3F0
1001
ACAD
1000
ACAD_MTEXT_COLUMN_INFO_BEGIN
1070
    75
1070
     2
1070
    79
1070
     0
1070
    76
1070
     1
1070
    78
1070
     0
1070
    48
1040
34.75629395314513
1070
    49
1040
12.5
1070
    50
1070
     1
1040
0.0
1000
ACAD_MTEXT_COLUMN_INFO_END
  0
MTEXT
  5
E3F2
330
E3C3
100
AcDbEntity
  8
Bestellung Angaben D
 60
     1
100
AcDbMText
 10
-281.5221708216397
 20
28.77182952962476
 30
0.0
 40
2.5
 41
39.09569939019121
 46
0.0
 71
     1
 72
     5
  1
Material:
 73
     1
 44
1.0
1001
AcDbBlockRepETag
1070
     1
1071
       51
1005
E3F2
1001
ACAD
1000
ACAD_MTEXT_COLUMN_INFO_BEGIN
1070
    75
1070
     2
1070
    79
1070
     0
1070
    76
1070
     1
1070
    78
1070
     0
1070
    48
1040
39.09569939019121
1070
    49
1040
12.5
1070
    50
1070
     1
1040
0.0
1000
ACAD_MTEXT_COLUMN_INFO_END
  0
LINE
  5
E3F3
330
E3C3
100
AcDbEntity
  8
Bestellung_Eingabe
100
AcDbLine
 10
-267.8959940882249
 20
26.18656349961111
 30
0.0
 11
-226.2190906184021
 21
26.18656349961111
 31
0.0
1001
AcDbBlockRepETag
1070
     1
1071
       52
1005
E3F3
  0
MTEXT
  5
E3F4
330
E3C3
100
AcDbEntity
  8
Bestellung Angaben D
 60
     1
100
AcDbMText
 10
-281.5221708216397
 20
39.11115651772765
 30
0.0
 40
2.5
 41
60.15914127569402
 46
0.0
 71
     1
 72
     5
  1
{\C5;Bestellung Angaben }/ Eigenschaften:
 73
     1
 44
1.0
1001
AcDbBlockRepETag
1070
     1
1071
       53
1005
E3F4
1001
ACAD
1000
ACAD_MTEXT_COLUMN_INFO_BEGIN
1070
    75
1070
     2
1070
    79
1070
     0
1070
    76
1070
     1
1070
    78
1070
     0
1070
    48
1040
60.15914127569402
1070
    49
1040
12.5
1070
    50
1070
     1
1040
0.0
1000
ACAD_MTEXT_COLUMN_INFO_END
  0
LWPOLYLINE
  5
E3F5
330
E3C3
100
AcDbEntity
  8
Bestellung_Eingabe
100
AcDbPolyline
 90
        4
 70
     1
 43
0.0
 10
-198.4704761447482
 20
27.22837194348182
 10
-192.4574493739312
 20
27.22837194348182
 10
-192.4574493739312
 20
30.31451218996438
 10
-198.4704761447482
 20
30.31451218996437
1001
AcDbBlockRepETag
1070
     1
1071
       54
1005
E3F5
  0
LWPOLYLINE
  5
E3F6
330
E3C3
100
AcDbEntity
  8
Bestellung_Eingabe
100
AcDbPolyline
 90
        4
 70
     1
 43
0.0
 10
-198.441528703599
 20
23.72837194348182
 10
-192.4574493739312
 20
23.72837194348182
 10
-192.4574493739312
 20
26.81451218996438
 10
-198.441528703599
 20
26.81451218996438
1001
AcDbBlockRepETag
1070
     1
1071
       55
1005
E3F6
  0
MTEXT
  5
E3F7
330
E3C3
100
AcDbEntity
  8
Bestellung Angaben F
100
AcDbMText
 10
-190.8900653399021
 20
34.73395550061562
 30
0.0
 40
1.7
 41
61.82327442795304
 46
0.0
 71
     1
 72
     5
  1
sans
 73
     1
 44
1.0
1001
AcDbBlockRepETag
1070
     1
1071
       56
1005
E3F7
1001
ACAD
1000
ACAD_MTEXT_COLUMN_INFO_BEGIN
1070
    75
1070
     2
1070
    79
1070
     0
1070
    76
1070
     1
1070
    78
1070
     0
1070
    48
1040
61.82327442795304
1070
    49
1040
12.5
1070
    50
1070
     1
1040
0.0
1000
ACAD_MTEXT_COLUMN_INFO_END
  0
MTEXT
  5
E3F8
330
E3C3
100
AcDbEntity
  8
Bestellung Angaben F
100
AcDbMText
 10
-190.9190127810513
 20
38.48668051637033
 30
0.0
 40
1.7
 41
61.82327442795304
 46
0.0
 71
     1
 72
     5
  1
avec
 73
     1
 44
1.0
1001
AcDbBlockRepETag
1070
     1
1071
       57
1005
E3F8
1001
ACAD
1000
ACAD_MTEXT_COLUMN_INFO_BEGIN
1070
    75
1070
     2
1070
    79
1070
     0
1070
    76
1070
     1
1070
    78
1070
     0
1070
    48
1040
61.82327442795304
1070
    49
1040
12.5
1070
    50
1070
     1
1040
0.0
1000
ACAD_MTEXT_COLUMN_INFO_END
  0
MTEXT
  5
E3F9
330
E3C3
100
AcDbEntity
  8
Bestellung Angaben F
 62
     7
100
AcDbMText
 10
-199.2675143603675
 20
17.4819563482379
 30
0.0
 40
1.5
 41
39.05808297608564
 46
0.0
 71
     1
 72
     5
  1
{\C256;lavabo Top en applique, vasque à poser}
 73
     1
 44
1.0
1001
AcDbBlockRepETag
1070
     1
1071
       58
1005
E3F9
1001
ACAD
1000
ACAD_MTEXT_COLUMN_INFO_BEGIN
1070
    75
1070
     2
1070
    79
1070
     0
1070
    76
1070
     1
1070
    78
1070
     0
1070
    48
1040
39.05808297608564
1070
    49
1040
12.5
1070
    50
1070
     1
1040
0.0
1000
ACAD_MTEXT_COLUMN_INFO_END
  0
MTEXT
  5
E3FA
330
E3C3
100
AcDbEntity
  8
Bestellung Angaben F
 62
     7
100
AcDbMText
 10
-199.2675143603675
 20
20.9819563482379
 30
0.0
 40
1.7
 41
39.05808297608564
 46
0.0
 71
     1
 72
     5
  1
{\C256;par dessous}
 73
     1
 44
1.0
1001
AcDbBlockRepETag
1070
     1
1071
       59
1005
E3FA
1001
ACAD
1000
ACAD_MTEXT_COLUMN_INFO_BEGIN
1070
    75
1070
     2
1070
    79
1070
     0
1070
    76
1070
     1
1070
    78
1070
     0
1070
    48
1040
39.05808297608564
1070
    49
1040
12.5
1070
    50
1070
     1
1040
0.0
1000
ACAD_MTEXT_COLUMN_INFO_END
  0
MTEXT
  5
E3FB
330
E3C3
100
AcDbEntity
  8
Bestellung Angaben F
 62
     7
100
AcDbMText
 10
-190.8900653399021
 20
26.15706982054077
 30
0.0
 40
1.7
 41
39.05808297608564
 46
0.0
 71
     1
 72
     5
  1
{\C256;intégré} (option)
 73
     1
 44
1.0
1001
AcDbBlockRepETag
1070
     1
1071
       60
1005
E3FB
1001
ACAD
1000
ACAD_MTEXT_COLUMN_INFO_BEGIN
1070
    75
1070
     2
1070
    79
1070
     0
1070
    76
1070
     1
1070
    78
1070
     0
1070
    48
1040
39.05808297608564
1070
    49
1040
12.5
1070
    50
1070
     1
1040
0.0
1000
ACAD_MTEXT_COLUMN_INFO_END
  0
MTEXT
  5
E3FC
330
E3C3
100
AcDbEntity
  8
Bestellung Angaben F
 62
     7
100
AcDbMText
 10
-190.8900653399021
 20
29.65706982054077
 30
0.0
 40
1.7
 41
39.05808297608564
 46
0.0
 71
     1
 72
     5
  1
Standard
 73
     1
 44
1.0
1001
AcDbBlockRepETag
1070
     1
1071
       61
1005
E3FC
1001
ACAD
1000
ACAD_MTEXT_COLUMN_INFO_BEGIN
1070
    75
1070
     2
1070
    79
1070
     0
1070
    76
1070
     1
1070
    78
1070
     0
1070
    48
1040
39.05808297608564
1070
    49
1040
12.5
1070
    50
1070
     1
1040
0.0
1000
ACAD_MTEXT_COLUMN_INFO_END
  0
MTEXT
  5
E3FD
330
E3C3
100
AcDbEntity
  8
Bestellung Angaben F
 62
     7
100
AcDbMText
 10
-199.2675143603675
 20
12.42695280595214
 30
0.0
 40
1.7
 41
39.05808297608564
 46
0.0
 71
     1
 72
     5
  1
{\C256;choix limité de coloris}
 73
     1
 44
1.0
1001
AcDbBlockRepETag
1070
     1
1071
       62
1005
E3FD
1001
ACAD
1000
ACAD_MTEXT_COLUMN_INFO_BEGIN
1070
    75
1070
     2
1070
    79
1070
     0
1070
    76
1070
     1
1070
    78
1070
     0
1070
    48
1040
39.05808297608564
1070
    49
1040
12.5
1070
    50
1070
     1
1040
0.0
1000
ACAD_MTEXT_COLUMN_INFO_END
  0
MTEXT
  5
E3FE
330
E3C3
100
AcDbEntity
  8
Bestellung Angaben F
100
AcDbMText
 10
-281.5221708216398
 20
18.8734871063442
 30
0.0
 40
2.5
 41
39.09569939019121
 46
0.0
 71
     1
 72
     5
  1
Coloris / Code:
 73
     1
 44
1.0
1001
AcDbBlockRepETag
1070
     1
1071
       64
1005
E3FE
1001
ACAD
1000
ACAD_MTEXT_COLUMN_INFO_BEGIN
1070
    75
1070
     2
1070
    79
1070
     0
1070
    76
1070
     1
1070
    78
1070
     0
1070
    48
1040
39.09569939019121
1070
    49
1040
12.5
1070
    50
1070
     1
1040
0.0
1000
ACAD_MTEXT_COLUMN_INFO_END
  0
MTEXT
  5
E3FF
330
E3C3
100
AcDbEntity
  8
Bestellung Angaben F
100
AcDbMText
 10
-220.5068622150195
 20
28.34159795716912
 30
0.0
 40
1.7
 41
61.82327442795304
 46
0.0
 71
     1
 72
     5
  1
Écoulement:
 73
     1
 44
1.0
1001
AcDbBlockRepETag
1070
     1
1071
       65
1005
E3FF
1001
ACAD
1000
ACAD_MTEXT_COLUMN_INFO_BEGIN
1070
    75
1070
     2
1070
    79
1070
     0
1070
    76
1070
     1
1070
    78
1070
     0
1070
    48
1040
61.82327442795304
1070
    49
1040
12.5
1070
    50
1070
     1
1040
0.0
1000
ACAD_MTEXT_COLUMN_INFO_END
  0
MTEXT
  5
E400
330
E3C3
100
AcDbEntity
  8
Bestellung Angaben F
100
AcDbMText
 10
-220.4324306353021
 20
19.78659441488335
 30
0.0
 40
1.7
 41
61.82327442795304
 46
0.0
 71
     1
 72
     5
  1
Encastrement:
 73
     1
 44
1.0
1001
AcDbBlockRepETag
1070
     1
1071
       66
1005
E400
1001
ACAD
1000
ACAD_MTEXT_COLUMN_INFO_BEGIN
1070
    75
1070
     2
1070
    79
1070
     0
1070
    76
1070
     1
1070
    78
1070
     0
1070
    48
1040
61.82327442795304
1070
    49
1040
12.5
1070
    50
1070
     1
1040
0.0
1000
ACAD_MTEXT_COLUMN_INFO_END
  0
MTEXT
  5
E401
330
E3C3
100
AcDbEntity
  8
Bestellung Angaben F
100
AcDbMText
 10
-220.4324306353021
 20
11.23159087259759
 30
0.0
 40
1.7
 41
61.82327442795304
 46
0.0
 71
     1
 72
     5
  1
Coloris:
 73
     1
 44
1.0
1001
AcDbBlockRepETag
1070
     1
1071
       67
1005
E401
1001
ACAD
1000
ACAD_MTEXT_COLUMN_INFO_BEGIN
1070
    75
1070
     2
1070
    79
1070
     0
1070
    76
1070
     1
1070
    78
1070
     0
1070
    48
1040
61.82327442795304
1070
    49
1040
12.5
1070
    50
1070
     1
1040
0.0
1000
ACAD_MTEXT_COLUMN_INFO_END
  0
MTEXT
  5
E402
330
E3C3
100
AcDbEntity
  8
Bestellung Angaben F
100
AcDbMText
 10
-220.4324306353021
 20
36.89660149945487
 30
0.0
 40
1.7
 41
61.82327442795304
 46
0.0
 71
     1
 72
     5
  1
Trop-plein:
 73
     1
 44
1.0
1001
AcDbBlockRepETag
1070
     1
1071
       68
1005
E402
1001
ACAD
1000
ACAD_MTEXT_COLUMN_INFO_BEGIN
1070
    75
1070
     2
1070
    79
1070
     0
1070
    76
1070
     1
1070
    78
1070
     0
1070
    48
1040
61.82327442795304
1070
    49
1040
12.5
1070
    50
1070
     1
1040
0.0
1000
ACAD_MTEXT_COLUMN_INFO_END
  0
MTEXT
  5
E403
102
{ACAD_XDICTIONARY
360
E404
102
}
330
E3C3
100
AcDbEntity
  8
Bestellung Angaben F
100
AcDbMText
 10
-281.5221708216397
 20
13.00414277615152
 30
0.0
 40
1.5
 41
34.75629395314513
 46
0.0
 71
     1
 72
     5
  1
\A1;\pt6;INFO:\P\ptz;{\A0;Batterie et bonde de vidage 1 ¼“ ne sont pas compris dans la livraison}
 73
     1
 44
1.0
1001
AcDbBlockRepETag
1070
     1
1071
       69
1005
E403
1001
ACAD
1000
ACAD_MTEXT_COLUMN_INFO_BEGIN
1070
    75
1070
     2
1070
    79
1070
     0
1070
    76
1070
     1
1070
    78
1070
     0
1070
    48
1040
34.75629395314513
1070
    49
1040
12.5
1070
    50
1070
     1
1040
0.0
1000
ACAD_MTEXT_COLUMN_INFO_END
  0
MTEXT
  5
E405
330
E3C3
100
AcDbEntity
  8
Bestellung Angaben F
100
AcDbMText
 10
-281.5221708216397
 20
28.77182952962476
 30
0.0
 40
2.5
 41
39.09569939019121
 46
0.0
 71
     1
 72
     5
  1
Matériau:
 73
     1
 44
1.0
1001
AcDbBlockRepETag
1070
     1
1071
       70
1005
E405
1001
ACAD
1000
ACAD_MTEXT_COLUMN_INFO_BEGIN
1070
    75
1070
     2
1070
    79
1070
     0
1070
    76
1070
     1
1070
    78
1070
     0
1070
    48
1040
39.09569939019121
1070
    49
1040
12.5
1070
    50
1070
     1
1040
0.0
1000
ACAD_MTEXT_COLUMN_INFO_END
  0
MTEXT
  5
E406
330
E3C3
100
AcDbEntity
  8
Bestellung Angaben F
100
AcDbMText
 10
-281.5221708216397
 20
39.11115651772765
 30
0.0
 40
2.5
 41
60.15914127569402
 46
0.0
 71
     1
 72
     5
  1
{\C5;Commande détails\C251;\c5526612;/caractéristiques:}
 73
     1
 44
1.0
1001
AcDbBlockRepETag
1070
     1
1071
       71
1005
E406
1001
ACAD
1000
ACAD_MTEXT_COLUMN_INFO_BEGIN
1070
    75
1070
     2
1070
    79
1070
     0
1070
    76
1070
     1
1070
    78
1070
     0
1070
    48
1040
60.15914127569402
1070
    49
1040
12.5
1070
    50
1070
     1
1040
0.0
1000
ACAD_MTEXT_COLUMN_INFO_END
  0
ENDBLK
  5
E3C5
330
E3C3
100
AcDbEntity
  8
0
 62
     7
100
AcDbBlockEnd
  0
BLOCK
  5
E622
330
E621
100
AcDbEntity
  8
0
 62
     7
100
AcDbBlockBegin
  2
*D8
 70
     1
 10
0.0
 20
0.0
 30
0.0
  3
*D8
  1

  0
LINE
  5
E66E
330
E621
100
AcDbEntity
  8
0
 62
     5
440
 16777216
370
    -2
100
AcDbLine
 10
10017.81836041827
 20
329.409253640792
 30
0.0
 11
9877.134707071897
 21
329.409253640792
 31
0.0
  0
LINE
  5
E66F
330
E621
100
AcDbEntity
  8
0
 62
     5
440
 16777216
370
    -2
100
AcDbLine
 10
10017.81836041827
 20
80.40925364079205
 30
0.0
 11
9877.134707071897
 21
80.4092536407921
 31
0.0
  0
LINE
  5
E670
330
E621
100
AcDbEntity
  8
0
 62
     5
440
 16777216
370
    -2
100
AcDbLine
 10
9887.134706760457
 20
339.4092533293517
 30
0.0
 11
9887.134706760457
 21
70.40925395223244
 31
0.0
  0
INSERT
  5
E671
330
E621
100
AcDbEntity
  8
0
 62
     5
440
 16777216
370
    -2
100
AcDbBlockReference
  2
_OBLIQUE
 10
9887.134706760457
 20
329.409253640792
 30
0.0
 41
14.9999995328395
 42
14.9999995328395
 43
14.9999995328395
 50
90.0
  0
INSERT
  5
E672
330
E621
100
AcDbEntity
  8
0
 62
     5
440
 16777216
370
    -2
100
AcDbBlockReference
  2
_OBLIQUE
 10
9887.134706760457
 20
80.4092536407921
 30
0.0
 41
14.9999995328395
 42
14.9999995328395
 43
14.9999995328395
 50
270.0
  0
MTEXT
  5
E673
330
E621
100
AcDbEntity
  8
0
 62
     5
440
 16777216
100
AcDbMText
 10
9873.199679909319
 20
204.9092536407937
 30
0.0
 40
17.49999945497941
 41
0.0
 46
0.0
 71
     5
 72
     1
  1
\A1;249
 11
0.0000000000000001
 21
1.0
 31
0.0
 73
     1
 44
1.0
  0
POINT
  5
E674
330
E621
100
AcDbEntity
  8
DEFPOINTS
 62
     0
440
 16777216
100
AcDbPoint
 10
10067.81835886107
 20
329.409253640792
 30
0.0
  0
POINT
  5
E675
330
E621
100
AcDbEntity
  8
DEFPOINTS
 62
     0
440
 16777216
100
AcDbPoint
 10
10067.81835886107
 20
80.40925364079205
 30
0.0
  0
POINT
  5
E676
330
E621
100
AcDbEntity
  8
DEFPOINTS
 62
     0
440
 16777216
100
AcDbPoint
 10
9887.134706760457
 20
80.4092536407921
 30
0.0
  0
ENDBLK
  5
E623
330
E621
100
AcDbEntity
  8
0
 62
     7
100
AcDbBlockEnd
  0
BLOCK
  5
E6E2
330
E6E1
100
AcDbEntity
  8
0
 62
     7
100
AcDbBlockBegin
  2
*U11
 70
     3
 10
0.0
 20
0.0
 30
0.0
  3
*U11
  1

  0
TEXT
  5
E6E4
330
E6E1
100
AcDbEntity
  8
Plankopf_Variablen
100
AcDbText
 10
-34.18332480369922
 20
20.6389974660471
 30
0.0
 40
1.8
  1
Ech.
  7
Plankopf_cad-support
 72
     2
 11
-29.15167405335816
 21
20.6389974660471
 31
0.0
100
AcDbText
1001
AcDbBlockRepETag
1070
     1
1071
        3
1005
E6E4
  0
TEXT
  5
E6E5
330
E6E1
100
AcDbEntity
  8
Plankopf_Variablen
100
AcDbText
 10
-79.54207546896475
 20
20.72346510224173
 30
0.0
 40
1.8
  1
Date:
  7
Plankopf_cad-support
100
AcDbText
1001
AcDbBlockRepETag
1070
     1
1071
        5
1005
E6E5
  0
ATTDEF
  5
E6E6
330
E6E1
100
AcDbEntity
  8
Plankopf_Variablen
100
AcDbText
 10
-26.37590902967417
 20
20.72346510224173
 30
0.0
 40
2.0
  1
1:15
  7
robert_koch
100
AcDbAttributeDefinition
280
     0
  3
Massstab:
  2
MASSSTAB
 70
     4
280
     0
1001
AcDbBlockRepETag
1070
     1
1071
        4
1005
0
  0
ATTDEF
  5
E6E7
330
E6E1
100
AcDbEntity
  8
Plankopf_Variablen
100
AcDbText
 10
-64.04207546896476
 20
20.72346510224173
 30
0.0
 40
2.0
  1
dd.mm.jjjj
  7
robert_koch
100
AcDbAttributeDefinition
280
     0
  3
Datum Erstellt:
  2
DATUM-ERST
 70
     4
280
     0
1001
AcDbBlockRepETag
1070
     1
1071
        6
1005
0
  0
LINE
  5
E6E8
330
E6E1
100
AcDbEntity
  8
0
100
AcDbLine
 10
-155.1096586774657
 20
19.31430228908696
 30
0.0
 11
0.0
 21
19.31430228908695
 31
0.0
1001
AcDbBlockRepETag
1070
     1
1071
       11
1005
E6E8
  0
LWPOLYLINE
  5
E6E9
330
E6E1
100
AcDbEntity
  8
0
100
AcDbPolyline
 90
        4
 70
     1
 43
0.0
 10
0.0
 20
0.0
 10
-155.1096586774657
 20
-0.2645942145166771
 10
-155.1096586774657
 20
34.99354328505923
 10
0.0000000000000142
 20
35.25813749957591
1001
AcDbBlockRepETag
1070
     1
1071
       13
1005
E6E9
  0
LWPOLYLINE
  5
E6EA
330
E6E1
100
AcDbEntity
  8
0
100
AcDbPolyline
 90
        3
 70
     0
 43
0.0
 10
-81.47309283979494
 20
35.12584039231757
 10
-81.47309283979494
 20
35.12584039231757
 10
-81.47309283979495
 20
0.3974901491781679
1001
AcDbBlockRepETag
1070
     1
1071
       19
1005
E6EA
  0
MTEXT
  5
E6EB
330
E6E1
100
AcDbEntity
  8
Plankopf_Text
 60
     1
100
AcDbMText
 10
-79.57945067512731
 20
16.00489694425158
 30
0.0
 40
1.8
 41
77.95493821702439
 46
0.0
 71
     1
 72
     5
  1
Alle Abmessungen in mm. Farbe und Abmessungen können aufgrund des Produktionsprozesses geringfügig abweichen. Weitergabe sowie Verfielfältigung dieser Unterlage und Mitteilung ihres Inhalts ist nicht gestattet., soweit nicht ausdrücklich zugestanden.
  7
robert_koch
 73
     1
 44
1.0
1001
AcDbBlockRepETag
1070
     1
1071
       25
1005
E6EB
1001
ACAD
1000
ACAD_MTEXT_COLUMN_INFO_BEGIN
1070
    75
1070
     2
1070
    79
1070
     0
1070
    76
1070
     1
1070
    78
1070
     0
1070
    48
1040
77.95493821702439
1070
    49
1040
12.5
1070
    50
1070
     1
1040
0.0
1000
ACAD_MTEXT_COLUMN_INFO_END
  0
MTEXT
  5
E6EC
330
E6E1
100
AcDbEntity
  8
Plankopf_Anschrift
100
AcDbMText
 10
-152.9465280856904
 20
6.45380978811579
 30
0.0
 40
2.0
 41
56.00456736621527
 46
0.0
 71
     7
 72
     5
  1
{\C0;Studer Handels AG\PHarbirbenweg 1\fCalibri|b0|i0|c0|p34;^J\fArial|b0|i0|c0|p34;8181 Höri}
 73
     1
 44
1.0
1001
AcDbBlockRepETag
1070
     1
1071
       27
1005
E6EC
1001
ACAD
1000
ACAD_MTEXT_COLUMN_INFO_BEGIN
1070
    75
1070
     2
1070
    79
1070
     0
1070
    76
1070
     1
1070
    78
1070
     0
1070
    48
1040
56.00456736621527
1070
    49
1040
12.5
1070
    50
1070
     1
1040
0.0
1000
ACAD_MTEXT_COLUMN_INFO_END
  0
MTEXT
  5
E6ED
330
E6E1
100
AcDbEntity
  8
Plankopf_Anschrift
100
AcDbMText
 10
-113.3494038308032
 20
6.45380978811579
 30
0.0
 40
2.0
 41
56.00456736621527
 46
0.0
 71
     7
 72
     5
  1
{\C0;Telefon: 044 823 18 80\fCalibri|b0|i0|c0|p34;^J\fArial|b0|i0|c0|p34;www.studerhandels.ch \Pinfo@studerhandels.ch}
 73
     1
 44
1.0
1001
AcDbBlockRepETag
1070
     1
1071
       28
1005
E6ED
1001
ACAD
1000
ACAD_MTEXT_COLUMN_INFO_BEGIN
1070
    75
1070
     2
1070
    79
1070
     0
1070
    76
1070
     1
1070
    78
1070
     0
1070
    48
1040
56.00456736621527
1070
    49
1040
12.5
1070
    50
1070
     1
1040
0.0
1000
ACAD_MTEXT_COLUMN_INFO_END
  0
ATTDEF
  5
E6EE
330
E6E1
100
AcDbEntity
  8
Plankopf_Variablen
100
AcDbText
 10
-64.42938305725771
 20
27.53059164123852
 30
0.0
 40
3.5
  1

  7
Plankopf_cad-support
100
AcDbAttributeDefinition
280
     0
  3
Typ/Type
  2
TYP/TYPE:
 70
     4
280
     0
1001
AcDbBlockRepETag
1070
     1
1071
       30
1005
0
  0
TEXT
  5
E6EF
330
E6E1
100
AcDbEntity
  8
Plankopf_Variablen
100
AcDbText
 10
-79.92938305725771
 20
27.53059164123852
 30
0.0
 40
3.5
  1
Typ:
  7
Plankopf_cad-support
100
AcDbText
1001
AcDbBlockRepETag
1070
     1
1071
       31
1005
E6EF
  0
MTEXT
  5
E6F0
330
E6E1
100
AcDbEntity
  8
0
100
AcDbMText
 10
-79.57945067512731
 20
16.00489694425158
 30
0.0
 40
1.8
 41
77.95493821702439
 46
0.0
 71
     1
 72
     5
  3
Toutes les dimensions en mm. En raison du processus de\Pproduction les coloris et dimensions peuvent légèrement différer du\Pfichier. La transmission et la reproduction de ce document ainsi que\Pla communication de son contenu sont interdites, sauf a
  1
ccord formel.
  7
robert_koch
 73
     1
 44
1.0
1001
AcDbBlockRepETag
1070
     1
1071
       32
1005
E6F0
1001
ACAD
1000
ACAD_MTEXT_COLUMN_INFO_BEGIN
1070
    75
1070
     2
1070
    79
1070
     0
1070
    76
1070
     1
1070
    78
1070
     0
1070
    48
1040
77.95493821702439
1070
    49
1040
12.5
1070
    50
1070
     1
1040
0.0
1000
ACAD_MTEXT_COLUMN_INFO_END
  0
IMAGE
  5
E6F1
330
E6E1
100
AcDbEntity
  8
0
 62
     7
160
               140
310
8C00000001000000840000000600000005000000BC4143890E4863C0C593FD3366F135400000000000000000BC4143890E4863C0601AE4EB3014404000000000000000005A4739A7969D54C0601AE4EB3014404000000000000000005A4739A7969D54C0C593FD3366F135400000000000000000BC4143890E4863C0C593FD
310
3366F135400000000000000000
100
AcDbRasterImage
 90
        0
 10
-154.2517744363412
 20
21.94296574536181
 30
0.0
 11
0.0408591088751599
 21
0.0
 31
0.0
 12
0.0
 22
0.0408591088751599
 32
0.0
 13
1757.0
 23
250.0
340
D790
 70
     7
280
     0
281
    50
282
    50
283
     0
290
     0
360
E6F2
 71
     1
 91
        2
 14
-0.5
 24
-0.5
 14
1756.5
 24
249.5
1001
AcDbBlockRepETag
1070
     1
1071
       35
1005
E6F1
  0
TEXT
  5
E6F3
330
E6E1
100
AcDbEntity
  8
Plankopf_Variablen
 60
     1
100
AcDbText
 10
-79.54207546896475
 20
20.72346510224173
 30
0.0
 40
1.8
  1
Date:
  7
Plankopf_cad-support
100
AcDbText
1001
AcDbBlockRepETag
1070
     1
1071
       36
1005
E6F3
  0
TEXT
  5
E6F4
330
E6E1
100
AcDbEntity
  8
Plankopf_Variablen
 60
     1
100
AcDbText
 10
-33.22233865670785
 20
20.72346510224173
 30
0.0
 40
1.8
  1
Mst.
  7
Plankopf_cad-support
100
AcDbText
1001
AcDbBlockRepETag
1070
     1
1071
       37
1005
E6F4
  0
ENDBLK
  5
E6E3
330
E6E1
100
AcDbEntity
  8
0
 62
     7
100
AcDbBlockEnd
  0
ENDSEC
  0
SECTION
  2
ENTITIES
  0
CIRCLE
  5
E2CA
330
19
100
AcDbEntity
  8
AUßENKONTUR
  6
Continuous
 62
     7
100
AcDbCircle
 10
10067.81835886107
 20
204.909253640792
 30
0.0
 40
138.5
  0
CIRCLE
  5
E2CB
330
19
100
AcDbEntity
  8
AUßENKONTUR
  6
Continuous
 62
     7
100
AcDbCircle
 10
10067.81835886107
 20
204.909253640792
 30
0.0
 40
124.5
  0
DIMENSION
  5
E2CC
330
19
100
AcDbEntity
  8
AUßENKONTUR
100
AcDbDimension
280
     0
  2
*D6
 10
10258.47773410673
 20
343.4092536407929
 30
0.0
 11
10244.69192280347
 21
204.9092536407945
 31
0.0
 70
    32
 71
     5
 42
277.0
 73
     0
 74
     0
 75
     0
  3
Studer Standard M1_5 ab10
100
AcDbAlignedDimension
 13
10067.81835886107
 23
66.40925364079294
 33
0.0
 14
10067.81835886107
 24
343.4092536407929
 34
0.0
 50
90.0
100
AcDbRotatedDimension
1001
ACAD
1000
DSTYLE
1002
{
1070
    40
1040
4.999999844279832
1002
}
  0
CIRCLE
  5
E2CD
330
19
100
AcDbEntity
  8
AUßENKONTUR
100
AcDbCircle
 10
10067.81835886107
 20
204.909253640792
 30
0.0
 40
26.71164095543331
  0
CIRCLE
  5
E2CE
330
19
100
AcDbEntity
  8
AUßENKONTUR
100
AcDbCircle
 10
10067.81835886107
 20
204.909253640792
 30
0.0
 40
35.0
  0
LINE
  5
E2CF
330
19
100
AcDbEntity
  8
AUßENKONTUR
100
AcDbLine
 10
10067.81835886107
 20
313.4092536407929
 30
0.0
 11
10078.42496057887
 21
324.0158553585907
 31
0.0
  0
LINE
  5
E2D0
330
19
100
AcDbEntity
  8
AUßENKONTUR
100
AcDbLine
 10
10067.81835886107
 20
313.4092536407929
 30
0.0
 11
10078.42496057887
 21
313.4092536407929
 31
0.0
  0
LINE
  5
E2D1
330
19
100
AcDbEntity
  8
AUßENKONTUR
100
AcDbLine
 10
10067.81835886107
 20
313.4092536407929
 30
0.0
 11
10067.81835886107
 21
324.0158553585907
 31
0.0
  0
LINE
  5
E2D2
330
19
100
AcDbEntity
  8
AUßENKONTUR
100
AcDbLine
 10
10067.81835886107
 20
313.4092536407929
 30
0.0
 11
10067.81835886107
 21
302.8026519229943
 31
0.0
  0
LINE
  5
E2D3
330
19
100
AcDbEntity
  8
AUßENKONTUR
100
AcDbLine
 10
10057.21175714327
 20
324.0158553585907
 30
0.0
 11
10078.42496057887
 21
302.8026519229943
 31
0.0
  0
LINE
  5
E2D4
330
19
100
AcDbEntity
  8
AUßENKONTUR
100
AcDbLine
 10
10067.81835886107
 20
313.4092536407929
 30
0.0
 11
10057.21175714327
 21
302.8026519229943
 31
0.0
  0
LINE
  5
E2D5
330
19
100
AcDbEntity
  8
AUßENKONTUR
100
AcDbLine
 10
10067.81835886107
 20
313.4092536407929
 30
0.0
 11
10057.21175714327
 21
313.4092536407929
 31
0.0
  0
LINE
  5
E2D6
330
19
100
AcDbEntity
  8
AUßENKONTUR
100
AcDbLine
 10
10439.51164893138
 20
280.1401094340258
 30
0.0000000000000104
 11
10449.1101424056
 21
225.704347897959
 31
0.0000000000000104
  0
LINE
  5
E2D7
330
19
100
AcDbEntity
  8
AUßENKONTUR
100
AcDbLine
 10
10433.35321835741
 20
222.925977055288
 30
0.000000000000072
 11
10426.13648178986
 21
279.7422762239949
 31
0.0000000000000742
  0
ARC
  5
E2D8
330
19
100
AcDbEntity
  8
AUßENKONTUR
100
AcDbCircle
 10
10579.14009984519
 20
315.3185816240061
 30
0.0
 40
138.5843749999998
100
AcDbArc
 50
181.8956918344909
 51
252.1897195092846
  0
ARC
  5
E2D9
330
19
100
AcDbEntity
  8
AUßENKONTUR
100
AcDbCircle
 10
10579.14009984519
 20
315.3185816240061
 30
0.0
 40
138.5843749999998
100
AcDbArc
 50
287.8102804907154
 51
358.104308165509
  0
ARC
  5
E2DA
330
19
100
AcDbEntity
  8
AUßENKONTUR
100
AcDbCircle
 10
10579.14009984519
 20
315.3185816240061
 30
0.0
 40
124.5843749999998
100
AcDbArc
 50
289.3808089369002
 51
357.8911909929424
  0
ARC
  5
E2DB
330
19
100
AcDbEntity
  8
AUßENKONTUR
100
AcDbCircle
 10
10579.14009984519
 20
315.3185816240061
 30
0.0
 40
124.5843749999998
100
AcDbArc
 50
182.1088090070574
 51
250.6121856912748
  0
LINE
  5
E2DC
330
19
100
AcDbEntity
  8
AUßENKONTUR
100
AcDbLine
 10
10521.80429891084
 20
164.4318142470811
 30
0.0
 11
10538.80429891083
 21
164.4318142470811
 31
0.0
  0
LINE
  5
E2DD
330
19
100
AcDbEntity
  8
AUßENKONTUR
100
AcDbLine
 10
10620.80429891083
 20
161.4318142470811
 30
0.0
 11
10538.80429891083
 21
161.4318142470811
 31
0.0
  0
LINE
  5
E2DE
330
19
100
AcDbEntity
  8
AUßENKONTUR
100
AcDbLine
 10
10521.80429891084
 20
130.4318142470811
 30
0.0
 11
10538.80429891083
 21
130.4318142470811
 31
0.0
  0
LINE
  5
E2DF
330
19
100
AcDbEntity
  8
AUßENKONTUR
100
AcDbLine
 10
10521.80429891084
 20
157.4318142470811
 30
0.0
 11
10521.80429891084
 21
137.4318142470811
 31
0.0
  0
LINE
  5
E2E0
330
19
100
AcDbEntity
  8
AUßENKONTUR
100
AcDbLine
 10
10521.80429891084
 20
137.4318142470811
 30
0.0
 11
10521.80429891084
 21
130.4318142470811
 31
0.0
  0
LINE
  5
E2E1
330
19
100
AcDbEntity
  8
AUßENKONTUR
100
AcDbLine
 10
10521.80429891084
 20
157.4318142470811
 30
0.0
 11
10503.2667684926
 21
157.4318142470811
 31
0.0
  0
LINE
  5
E2E2
330
19
100
AcDbEntity
  8
AUßENKONTUR
100
AcDbLine
 10
10521.80429891084
 20
137.4318142470811
 30
0.0
 11
10503.2667684926
 21
137.4318142470811
 31
0.0
  0
LINE
  5
E2E3
330
19
100
AcDbEntity
  8
AUßENKONTUR
100
AcDbLine
 10
10538.80429891083
 20
157.4318142470811
 30
0.0
 11
10538.80429891083
 21
137.4318142470811
 31
0.0
  0
LINE
  5
E2E4
330
19
100
AcDbEntity
  8
AUßENKONTUR
100
AcDbLine
 10
10538.80429891083
 20
137.4318142470811
 30
0.0
 11
10538.80429891083
 21
130.4318142470811
 31
0.0
  0
LINE
  5
E2E5
330
19
100
AcDbEntity
  8
AUßENKONTUR
100
AcDbLine
 10
10538.80429891083
 20
137.4318142470811
 30
0.0
 11
10538.80429891083
 21
133.4318142470811
 31
0.0
  0
LINE
  5
E2E6
330
19
100
AcDbEntity
  8
AUßENKONTUR
100
AcDbLine
 10
10611.80429891084
 20
157.4318142470811
 30
0.0
 11
10611.80429891084
 21
137.4318142470811
 31
0.0
  0
LINE
  5
E2E7
330
19
100
AcDbEntity
  8
AUßENKONTUR
100
AcDbLine
 10
10620.80429891083
 20
135.4318142470811
 30
0.0
 11
10620.80429891083
 21
133.4318142470811
 31
0.0
  0
LINE
  5
E2E8
330
19
100
AcDbEntity
  8
AUßENKONTUR
100
AcDbLine
 10
10611.80429891084
 20
137.4318142470811
 30
0.0
 11
10538.80429891083
 21
137.4318142470811
 31
0.0
  0
LINE
  5
E2E9
330
19
100
AcDbEntity
  8
AUßENKONTUR
100
AcDbLine
 10
10611.80429891084
 20
157.4318142470811
 30
0.0
 11
10538.80429891083
 21
157.4318142470811
 31
0.0
  0
LINE
  5
E2EA
330
19
100
AcDbEntity
  8
AUßENKONTUR
100
AcDbLine
 10
10620.80429891083
 20
159.4318142470811
 30
0.0
 11
10611.80429891084
 21
157.4318142470811
 31
0.0
  0
LINE
  5
E2EB
330
19
100
AcDbEntity
  8
AUßENKONTUR
100
AcDbLine
 10
10620.80429891083
 20
135.4318142470811
 30
0.0
 11
10611.80429891084
 21
137.4318142470811
 31
0.0
  0
LINE
  5
E2EC
330
19
100
AcDbEntity
  8
AUßENKONTUR
100
AcDbLine
 10
10620.80429891083
 20
133.4318142470811
 30
0.0
 11
10538.80429891083
 21
133.4318142470811
 31
0.0
  0
LINE
  5
E2ED
330
19
100
AcDbEntity
  8
AUßENKONTUR
100
AcDbLine
 10
10521.80429891084
 20
157.4318142470811
 30
0.0
 11
10521.80429891084
 21
164.4318142470811
 31
0.0
  0
LINE
  5
E2EE
330
19
100
AcDbEntity
  8
AUßENKONTUR
100
AcDbLine
 10
10538.80429891083
 20
157.4318142470811
 30
0.0
 11
10538.80429891083
 21
164.4318142470811
 31
0.0
  0
LINE
  5
E2EF
330
19
100
AcDbEntity
  8
AUßENKONTUR
100
AcDbLine
 10
10538.80429891083
 20
161.4318142470811
 30
0.0
 11
10538.80429891083
 21
157.4318142470811
 31
0.0
  0
LINE
  5
E2F0
330
19
100
AcDbEntity
  8
AUßENKONTUR
100
AcDbLine
 10
10620.80429891083
 20
161.4318142470811
 30
0.0
 11
10620.80429891083
 21
159.4318142470811
 31
0.0
  0
LINE
  5
E2F1
330
19
100
AcDbEntity
  8
AUßENKONTUR
100
AcDbLine
 10
10620.14009984519
 20
181.4717792933552
 30
0.0
 11
10620.14009984519
 21
176.7342066240071
 31
0.0
  0
ARC
  5
E2F2
330
19
100
AcDbEntity
  8
AUßENKONTUR
100
AcDbCircle
 10
10625.46050237129
 20
183.6439141516352
 30
0.0
 40
15.0
100
AcDbArc
 50
109.3808089369002
 51
129.9789155781775
  0
ARC
  5
E2F3
330
19
100
AcDbEntity
  8
AUßENKONTUR
100
AcDbCircle
 10
10622.14009984518
 20
181.4717792933552
 30
0.0
 40
2.0
100
AcDbArc
 50
107.8102804907153
 51
180.0
  0
ARC
  5
E2F4
330
19
100
AcDbEntity
  8
AUßENKONTUR
100
AcDbCircle
 10
-10604.14009984519
 20
182.7323956240079
 30
0.0
 40
2.0
210
0.0
220
0.0
230
-1.0
100
AcDbArc
 50
0.0
 51
50.00000000004174
  0
ARC
  5
E2F5
330
19
100
AcDbEntity
  8
AUßENKONTUR
100
AcDbCircle
 10
10603.14009984519
 20
177.7342066240071
 30
0.0
 40
1.0
100
AcDbArc
 50
180.0
 51
270.0
  0
LINE
  5
E2F6
330
19
100
AcDbEntity
  8
AUßENKONTUR
100
AcDbLine
 10
10602.14009984518
 20
182.7323956240079
 30
0.0
 11
10602.14009984518
 21
177.7342066240071
 31
0.0
  0
ARC
  5
E2F7
330
19
100
AcDbEntity
  8
AUßENKONTUR
100
AcDbCircle
 10
-10554.14009984519
 20
182.7323956240079
 30
0.0
 40
2.0
210
0.0
220
0.0
230
-1.0
100
AcDbArc
 50
129.9999999999582
 51
180.0
  0
ARC
  5
E2F8
330
19
100
AcDbEntity
  8
AUßENKONTUR
100
AcDbCircle
 10
10555.14009984519
 20
177.7342066240071
 30
0.0
 40
1.0
100
AcDbArc
 50
270.0
 51
0.0
  0
LINE
  5
E2F9
330
19
100
AcDbEntity
  8
AUßENKONTUR
100
AcDbLine
 10
10556.14009984519
 20
177.7342066240071
 30
0.0
 11
10556.14009984519
 21
182.7323956240079
 31
0.0
  0
LINE
  5
E2FA
330
19
100
AcDbEntity
  8
AUßENKONTUR
100
AcDbLine
 10
10603.14009984519
 20
176.7342066240071
 30
0.0
 11
10555.14009984519
 21
176.7342066240071
 31
0.0
  0
LINE
  5
E2FB
330
19
100
AcDbEntity
  8
AUßENKONTUR
100
AcDbLine
 10
10554.14009984519
 20
190.7342066240071
 30
0.0
 11
10604.14009984519
 21
190.7342066240071
 31
0.0
  0
LINE
  5
E2FC
330
19
100
AcDbEntity
  8
AUßENKONTUR
100
AcDbLine
 10
10538.14009984519
 20
176.7342066240071
 30
0.0
 11
10538.14009984519
 21
181.4717792933552
 31
0.0
  0
ARC
  5
E2FD
330
19
100
AcDbEntity
  8
AUßENKONTUR
100
AcDbCircle
 10
10532.80359822451
 20
183.6495785834367
 30
0.0
 40
15.0
100
AcDbArc
 50
50.04138602650802
 51
70.61218569127477
  0
ARC
  5
E2FE
330
19
100
AcDbEntity
  8
AUßENKONTUR
100
AcDbCircle
 10
10536.14009984519
 20
181.4717792933552
 30
0.0
 40
2.0
100
AcDbArc
 50
0.0
 51
72.18971950928466
  0
LINE
  5
E2FF
330
19
100
AcDbEntity
  8
AUßENKONTUR
100
AcDbLine
 10
10555.14009984519
 20
176.7342066240071
 30
0.0
 11
10538.14009984519
 21
176.7342066240071
 31
0.0
  0
LINE
  5
E300
330
19
100
AcDbEntity
  8
AUßENKONTUR
100
AcDbLine
 10
10555.42567484518
 20
184.2644846240068
 30
0.0
 11
10542.43710988899
 21
195.147206730594
 31
0.0
  0
LINE
  5
E301
330
19
100
AcDbEntity
  8
AUßENKONTUR
100
AcDbLine
 10
10620.14009984519
 20
176.7342066240071
 30
0.0
 11
10603.14009984519
 21
176.7342066240071
 31
0.0
  0
LINE
  5
E302
330
19
100
AcDbEntity
  8
AUßENKONTUR
100
AcDbLine
 10
10602.85452484518
 20
184.2644846240068
 30
0.0
 11
10615.82291735882
 21
195.1381281363906
 31
0.0
  0
LINE
  5
E303
330
19
100
AcDbEntity
  8
AUßENKONTUR
100
AcDbLine
 10
10459.18848460989
 20
167.8265558439889
 30
0.0
 11
10456.78013543357
 21
187.467272607189
 31
0.0
  0
LINE
  5
E304
330
19
100
AcDbEntity
  8
AUßENKONTUR
100
AcDbLine
 10
10456.27629715116
 20
192.2903686521272
 30
0.0
 11
10453.23358081209
 21
217.1045153688692
 31
0.0
  0
ARC
  5
E305
330
19
100
AcDbEntity
  8
AUßENKONTUR
100
AcDbCircle
 10
10463.67838096269
 20
163.5028820589468
 30
0.0
 40
1.0
100
AcDbArc
 50
315.0000000000072
 51
90.0
  0
LINE
  5
E306
330
19
100
AcDbEntity
  8
AUßENKONTUR
100
AcDbLine
 10
10449.0215267132
 20
137.4318142470811
 30
0.0
 11
10475.84835605533
 21
137.4318142470811
 31
0.0
  0
LINE
  5
E307
330
19
100
AcDbEntity
  8
AUßENKONTUR
100
AcDbLine
 10
10459.0215267132
 20
157.4318142470811
 30
0.0
 11
10464.38548774388
 21
162.7957752777602
 31
0.0
  0
LINE
  5
E308
330
19
100
AcDbEntity
  8
AUßENKONTUR
100
AcDbLine
 10
10485.84835605532
 20
137.4318142470811
 30
0.0
 11
10475.84835605533
 21
137.4318142470811
 31
0.0
  0
LINE
  5
E309
330
19
100
AcDbEntity
  8
AUßENKONTUR
100
AcDbLine
 10
10459.0215267132
 20
157.4318142470811
 30
0.0
 11
10485.84835605532
 21
157.4318142470811
 31
0.0
  0
LINE
  5
E30A
330
19
100
AcDbEntity
  8
AUßENKONTUR
100
AcDbLine
 10
10439.02244083058
 20
167.9590588416199
 30
0.0
 11
10436.92881806018
 21
185.033099535935
 31
0.0
  0
LINE
  5
E30B
330
19
100
AcDbEntity
  8
AUßENKONTUR
100
AcDbLine
 10
10436.42497977776
 20
189.856195580875
 30
0.0
 11
10433.38226343869
 21
214.670342297617
 31
0.0
  0
ARC
  5
E30C
330
19
100
AcDbEntity
  8
AUßENKONTUR
100
AcDbCircle
 10
10434.36467246371
 20
163.5028820589468
 30
0.0
 40
1.0
100
AcDbArc
 50
90.0
 51
224.9999999999928
  0
LINE
  5
E30D
330
19
100
AcDbEntity
  8
AUßENKONTUR
100
AcDbLine
 10
10439.0215267132
 20
147.4318142470811
 30
0.0
 11
10439.0215267132
 21
157.4318142470811
 31
0.0
  0
LINE
  5
E30E
330
19
100
AcDbEntity
  8
AUßENKONTUR
100
AcDbLine
 10
10439.0215267132
 20
157.4318142470811
 30
0.0
 11
10433.65756568252
 21
162.7957752777602
 31
0.0
  0
LINE
  5
E30F
330
19
100
AcDbEntity
  8
AUßENKONTUR
100
AcDbLine
 10
10433.38226343869
 20
214.670342297617
 30
0.0
 11
10453.23358081209
 21
217.1045153688692
 31
0.0
  0
ARC
  5
E310
330
19
100
AcDbEntity
  8
AUßENKONTUR
100
AcDbCircle
 10
10449.02665979091
 20
155.8995441624843
 30
0.0
 40
15.66895948371893
100
AcDbArc
 50
33.30315706876002
 51
146.69684293124
  0
LINE
  5
E311
330
19
100
AcDbEntity
  8
AUßENKONTUR
100
AcDbLine
 10
10434.36467246371
 20
164.5028820589468
 30
0.0
 11
10463.67838096269
 21
164.5028820589468
 31
0.0
  0
ARC
  5
E312
330
19
100
AcDbEntity
  8
AUßENKONTUR
100
AcDbCircle
 10
10449.0215267132
 20
147.4318142470811
 30
0.0
 40
10.0
100
AcDbArc
 50
180.0
 51
270.0
  0
LINE
  5
E313
330
19
100
AcDbEntity
  8
AUßENKONTUR
100
AcDbLine
 10
10449.1101424056
 20
225.704347897959
 30
0.0000000000000104
 11
10433.35321835741
 21
222.925977055288
 31
0.0000000000000104
  0
LINE
  5
E314
330
19
100
AcDbEntity
  8
AUßENKONTUR
100
AcDbLine
 10
10503.2667684926
 20
157.4318142470811
 30
0.0
 11
10485.84835605532
 21
157.4318142470811
 31
0.0
  0
LINE
  5
E315
330
19
100
AcDbEntity
  8
AUßENKONTUR
100
AcDbLine
 10
10503.2667684926
 20
137.4318142470811
 30
0.0
 11
10485.84835605532
 21
137.4318142470811
 31
0.0
  0
LINE
  5
E316
330
19
100
AcDbEntity
  8
AUßENKONTUR
100
AcDbLine
 10
10454.64009984519
 20
310.7342066240071
 30
0.0
 11
10703.64009984519
 21
310.7342066240071
 31
0.0
  0
LINE
  5
E317
330
19
100
AcDbEntity
  8
AUßENKONTUR
100
AcDbLine
 10
10441.35928814615
 20
300.4163360987113
 30
-0.0000000000000034
 11
10437.44347723011
 21
299.7258729828591
 31
0.000000000000013
  0
LINE
  5
E318
330
19
100
AcDbEntity
  8
AUßENKONTUR
100
AcDbLine
 10
10445.09494294454
 20
280.1401094340258
 30
0.0000000000000104
 11
10439.51164893138
 21
280.1401094340258
 31
0.0000000000000104
  0
ARC
  5
E319
330
19
100
AcDbEntity
  8
AUßENKONTUR
100
AcDbCircle
 10
10439.17995900678
 20
289.8777954527373
 30
0.0000000000271022
 40
10.0
100
AcDbArc
 50
99.99999999995226
 51
159.8543081617134
  0
LINE
  5
E31A
330
19
100
AcDbEntity
  8
AUßENKONTUR
100
AcDbLine
 10
10428.45148380779
 20
289.6684337395918
 30
0.0000000000000568
 11
10429.79176006503
 21
293.3218803283044
 31
0.0000000000000488
  0
ARC
  5
E31B
330
19
100
AcDbEntity
  8
AUßENKONTUR
100
AcDbCircle
 10
10436.05677612547
 20
281.002339831447
 30
0.0000000000000742
 40
10.0
100
AcDbArc
 50
168.0243456205681
 51
187.2388755477816
  0
ARC
  5
E31C
330
19
100
AcDbEntity
  8
AUßENKONTUR
100
AcDbCircle
 10
10457.20020651774
 20
276.5175541024992
 30
0.0000000000000742
 40
31.61383704460667
100
AcDbArc
 50
155.4186427634866
 51
168.0243456205681
  0
LINE
  5
E31D
330
19
100
AcDbEntity
  8
AUßENKONTUR
100
AcDbLine
 10
10443.75031533395
 20
285.7342066240071
 30
0.0
 11
10458.11931134172
 21
285.7342066240071
 31
0.0
  0
LINE
  5
E31E
330
19
100
AcDbEntity
  8
AUßENKONTUR
100
AcDbLine
 10
10441.94650943368
 20
295.7342066240071
 30
0.0
 11
10456.10466287681
 21
295.7342066240071
 31
0.0
  0
LINE
  5
E31F
330
19
100
AcDbEntity
  8
AUßENKONTUR
100
AcDbLine
 10
10454.64009984519
 20
310.7342066240071
 30
0.0
 11
10440.63157122691
 21
310.7342066240071
 31
0.0
  0
LINE
  5
E320
330
19
100
AcDbEntity
  8
AUßENKONTUR
100
AcDbLine
 10
10703.64009984519
 20
310.7342066240071
 30
0.0
 11
10717.64862846346
 21
310.7342066240071
 31
0.0
  0
DIMENSION
  5
E321
330
19
100
AcDbEntity
  8
AUßENKONTUR
100
AcDbDimension
280
     0
  2
*D4
 10
10742.65318492484
 20
310.7342066240071
 30
0.0
 11
10728.7181580737
 21
252.9361673802029
 31
0.0
 70
    32
 71
     5
 42
115.596078487612
 73
     0
 74
     0
 75
     0
  3
Studer Standard M1_5 ab3
100
AcDbAlignedDimension
 13
10615.82291735883
 23
195.1381281363951
 33
0.0
 14
10717.64862846346
 24
310.7342066240071
 34
0.0
 50
90.0
100
AcDbRotatedDimension
1001
ACAD
1000
DSTYLE
1002
{
1070
    40
1040
4.999999844279832
1002
}
  0
DIMENSION
  5
E620
330
19
100
AcDbEntity
  8
0
 62
     7
100
AcDbDimension
280
     0
  2
*D8
 10
9887.134706760457
 20
80.4092536407921
 30
0.0
 11
9873.199679909319
 21
204.9092536407937
 31
0.0
 70
    32
 71
     5
 42
249.0
 73
     0
 74
     0
 75
     0
  3
Studer Standard M1_5 ab10
100
AcDbAlignedDimension
 13
10067.81835886107
 23
329.409253640792
 33
0.0
 14
10067.81835886107
 24
80.40925364079205
 34
0.0
 50
90.0
100
AcDbRotatedDimension
1001
ACAD
1000
DSTYLE
1002
{
1070
    40
1040
4.999999844279832
1002
}
  0
VIEWPORT
  5
AD4
330
ACD
100
AcDbEntity
 67
     1
  8
0
100
AcDbViewport
 10
-142.4960973086662
 20
98.99925179902622
 30
0.0
 40
509.3947670250896
 41
222.18
 68
     1
 69
     1
 12
-142.4960973086662
 22
98.99925179902622
 13
0.0
 23
0.0
 14
1.0
 24
1.0
 15
10.0
 25
10.0
 16
0.0
 26
0.0
 36
1.0
 17
0.0
 27
0.0
 37
0.0
 42
50.0
 43
0.0
 44
0.0
 45
222.18
 50
0.0
 51
0.0
 72
  1000
 90
    32800
  1

281
     0
 71
     1
 74
     0
110
0.0
120
0.0
130
0.0
111
1.0
121
0.0
131
0.0
112
0.0
122
1.0
132
0.0
 79
     0
146
0.0
170
     0
 61
     5
348
1BDF
292
     1
282
     1
141
0.0
142
0.0
 63
   250
421
  3355443
  0
LWPOLYLINE
  5
ADE
330
ACD
100
AcDbEntity
 67
     1
  8
Verdeckt
100
AcDbPolyline
 90
        4
 70
     1
 43
0.0
 10
1.0
 20
199.0
 10
1.0
 20
-1.0
 10
-286.0
 20
-0.9999999999999982
 10
-286.0
 20
199.0
  0
LWPOLYLINE
  5
ADF
330
ACD
100
AcDbEntity
 67
     1
  8
0
100
AcDbPolyline
 90
        4
 70
     1
 43
0.0
 10
0.0
 20
193.3332543451629
 10
0.0
 20
4.333254345162913
 10
-285.0
 20
4.333254345162915
 10
-285.0
 20
193.3332543451629
  0
VIEWPORT
  5
AE0
102
{ACAD_XDICTIONARY
360
278C
102
}
330
ACD
100
AcDbEntity
 67
     1
  8
Zeichnungsfenster
100
AcDbViewport
 10
-142.5013186771074
 20
116.3263247427561
 30
0.0
 40
282.9973626457852
 41
151.3034855134673
 68
     2
 69
     2
 12
6643.338648489834
 22
-5227.140199286532
 13
0.0
 23
0.0
 14
1.0
 24
1.0
 15
100.0
 25
100.0
 16
0.0
 26
0.0
 36
3968.191447920191
 17
3706.131076739558
 27
5428.081071379222
 37
0.0
 42
50.0
 43
0.0
 44
0.0
 45
756.5174040063324
 50
0.0
 51
0.0
 72
  1000
 90
    49184
  1

281
     0
 71
     1
 74
     0
110
0.0
120
0.0
130
0.0
111
1.0
121
0.0
131
0.0
112
0.0
122
1.0
132
0.0
 79
     0
146
0.0
170
     0
 61
     5
348
1BDF
292
     1
282
     1
141
0.0
142
0.0
 63
   250
421
  3355443
  0
INSERT
  5
6AB7
102
{ACAD_XDICTIONARY
360
6AB8
102
}
330
ACD
100
AcDbEntity
 67
     1
  8
0
100
AcDbBlockReference
 66
     1
  2
*U11
 10
0.0
 20
4.333254345162913
 30
0.0
  0
ATTRIB
  5
6ABF
330
6AB7
100
AcDbEntity
 67
     1
  8
Plankopf_Variablen
100
AcDbText
 10
-26.37590902967417
 20
25.05671944740465
 30
0.0
 40
2.0
  1
1:5
  7
robert_koch
100
AcDbAttribute
280
     0
  2
MASSSTAB
 70
     4
280
     0
1001
AcDbBlockRepETag
1070
     1
1071
        4
1005
0
  0
ATTRIB
  5
6AC0
330
6AB7
100
AcDbEntity
 67
     1
  8
Plankopf_Variablen
100
AcDbText
 10
-64.04207546896476
 20
25.05671944740465
 30
0.0
 40
2.0
  1
19.03.2019
  7
robert_koch
100
AcDbAttribute
280
     0
  2
DATUM-ERST
 70
     4
280
     0
1001
AcDbBlockRepETag
1070
     1
1071
        6
1005
0
  0
ATTRIB
  5
8986
330
6AB7
100
AcDbEntity
 67
     1
  8
Plankopf_Variablen
100
AcDbText
 10
-64.42938305725771
 20
31.86384598640143
 30
0.0
 40
3.5
  1
SR 24
  7
Plankopf_cad-support
100
AcDbAttribute
280
     0
  2
TYP/TYPE:
 70
     0
280
     0
  0
SEQEND
  5
6AC2
330
6AB7
100
AcDbEntity
 67
     1
  8
0
  0
INSERT
  5
E105
102
{ACAD_XDICTIONARY
360
E106
102
}
330
ACD
100
AcDbEntity
 67
     1
  8
Bestellung_Symbole
 62
     7
100
AcDbBlockReference
  2
*U7
 10
0.018271304968664
 20
0.0204443341111578
 30
0.0
  0
ENDSEC
  0
SECTION
  2
OBJECTS
  0
DICTIONARY
  5
C
330
0
100
AcDbDictionary
281
     1
  3
ACAD_ASSOCNETWORK
350
AEF5
  3
ACAD_BACKGROUND
350
2794
  3
ACAD_CIP_PREVIOUS_PRODUCT_INFO
350
2DE3
  3
ACAD_COLOR
350
EC3
  3
ACAD_DETAILVIEWSTYLE
350
41D8
  3
ACAD_FIELDLIST
350
11C2
  3
ACAD_GROUP
350
D
  3
ACAD_IMAGE_DICT
350
7320
  3
ACAD_IMAGE_VARS
350
7322
  3
ACAD_LAYOUT
350
577
  3
ACAD_MATERIAL
350
EC2
  3
ACAD_MLEADERSTYLE
350
1F5C
  3
ACAD_MLINESTYLE
350
E
  3
ACAD_PLOTSETTINGS
350
578
  3
ACAD_PLOTSTYLENAME
350
575
  3
ACAD_RENDER_ACTIVE_RAPIDRT_SETTINGS
350
65A9
  3
ACAD_RENDER_ACTIVE_SETTINGS
350
E7C1
  3
ACAD_SCALELIST
350
1F3A
  3
ACAD_SECTIONVIEWSTYLE
350
41D6
  3
ACAD_TABLESTYLE
350
107E
  3
ACAD_VISUALSTYLE
350
1BD9
  3
AcAec
350
2D3C
  3
ACDB_RECOMPOSE_DATA
350
E780
  3
ACDBVARIABLEDICTIONARY
350
4A3
  3
AcDsDecomposeData
350
E786
  3
AcStPlugin
350
28EC
  3
AEC_CLASSIFICATION_SYSTEM_DEFS
350
FB1
  3
AEC_ISOLATED_OBJECTS
350
DFBE
  3
AEC_PROPERTY_SET_DEFS
350
D05
  3
CONTENTDICTIONARY
350
2E1
  3
DRAWINGVARIABLESDICT
350
4B0
  0
DICTIONARY
  5
11DB
330
2
100
AcDbDictionary
280
     1
281
     1
  3
ACAD_LAYERFILTERS
360
2D39
  3
ACAD_LAYERSTATES
360
11DC
  3
ACLYDICTIONARY
360
2D38
  0
DICTIONARY
  5
2152
330
F
100
AcDbDictionary
280
     1
281
     1
  3
ADSK_XREC_LAYER_RECONCILED
360
DAF9
  0
DICTIONARY
  5
C21B
330
AE76
100
AcDbDictionary
280
     1
281
     1
  3
ADSK_XREC_LAYER_RECONCILED
360
DAFA
  0
DICTIONARY
  5
C21D
330
AEC5
100
AcDbDictionary
280
     1
281
     1
  3
ADSK_XREC_LAYER_RECONCILED
360
DAFB
  0
DICTIONARY
  5
C221
330
B623
100
AcDbDictionary
280
     1
281
     1
  3
ADSK_XREC_LAYER_RECONCILED
360
DAFC
  0
DICTIONARY
  5
C225
330
B625
100
AcDbDictionary
280
     1
281
     1
  3
ADSK_XREC_LAYER_RECONCILED
360
DAFD
  0
DICTIONARY
  5
C229
330
B775
100
AcDbDictionary
280
     1
281
     1
  3
ADSK_XREC_LAYER_RECONCILED
360
DAFF
  0
DICTIONARY
  5
BAF0
330
BAC5
100
AcDbDictionary
280
     1
281
     1
  3
ADSK_XREC_LAYER_LINEWT_OVR
360
BAF1
  3
ADSK_XREC_LAYER_RECONCILED
360
DB00
  0
DICTIONARY
  5
DB03
330
CF41
100
AcDbDictionary
280
     1
281
     1
  3
ADSK_XREC_LAYER_RECONCILED
360
DB04
  0
DICTIONARY
  5
DB05
330
CF49
100
AcDbDictionary
280
     1
281
     1
  3
ADSK_XREC_LAYER_RECONCILED
360
DB06
  0
DICTIONARY
  5
DB07
330
D025
100
AcDbDictionary
280
     1
281
     1
  3
ADSK_XREC_LAYER_RECONCILED
360
DB08
  0
DICTIONARY
  5
DC06
330
DC05
100
AcDbDictionary
280
     1
281
     1
  3
ADSK_XREC_LAYER_RECONCILED
360
DFFF
  0
DICTIONARY
  5
E265
330
E264
100
AcDbDictionary
280
     1
281
     1
  0
DICTIONARY
  5
E267
330
E266
100
AcDbDictionary
280
     1
281
     1
  0
DICTIONARY
  5
2CA0
330
2C9F
100
AcDbDictionary
280
     1
281
     1
  3
ADSK_XREC_VTR_ANNOSCALE_DATA
360
2CA1
  3
ADSK_XREC_VTRANIMATIONINFO
360
2CA3
  3
ADSK_XREC_VTRVIEWINFO
360
2CA2
  0
DICTIONARY
  5
2792
330
19
100
AcDbDictionary
280
     1
281
     1
  3
ACAD_SORTENTS
360
2793
  0
DICTIONARY
  5
BB9F
330
ACD
100
AcDbDictionary
280
     1
281
     1
  3
ACAD_SORTENTS
360
BBA0
  0
DICTIONARY
  5
E6C8
330
2CD1
100
AcDbDictionary
280
     1
281
     1
  3
ACAD_ASSOCNETWORK
360
E6D3
  3
ACAD_ENHANCEDBLOCK
360
E6C9
  3
ACAD_SORTENTS
360
E6D7
  3
AcDbDynamicBlockRoundTripPurgePreventer
360
E6E0
  0
DICTIONARY
  5
E3B7
330
C31F
100
AcDbDictionary
280
     1
281
     1
  3
ACAD_ENHANCEDBLOCK
360
E3B8
  3
AcDbDynamicBlockRoundTripPurgePreventer
360
E3C2
  0
DICTIONARY
  5
DAD0
330
DABB
100
AcDbDictionary
280
     1
281
     1
  3
ACAD_ASSOCNETWORK
360
DAD1
  3
ACAD_SORTENTS
360
DAD5
  0
DICTIONARY
  5
E407
330
E3C3
100
AcDbDictionary
280
     1
281
     1
  0
DICTIONARY
  5
E6F8
330
E6E1
100
AcDbDictionary
280
     1
281
     1
  3
ACAD_ASSOCNETWORK
360
E6F9
  3
ACAD_SORTENTS
360
E6FD
  0
IMAGEDEF_REACTOR
  5
E6C7
330
E6C6
100
AcDbRasterImageDefReactor
 90
        2
330
E6C6
  0
DICTIONARY
  5
E39E
330
E39D
100
AcDbDictionary
280
     1
281
     1
  3
ACAD_MTEXT_2008_RT
360
E77C
  0
DICTIONARY
  5
E3B2
330
E3B1
100
AcDbDictionary
280
     1
281
     1
  3
ACAD_MTEXT_2008_RT
360
E77D
  0
IMAGEDEF_REACTOR
  5
DACC
330
DACB
100
AcDbRasterImageDefReactor
 90
        2
330
DACB
  0
DICTIONARY
  5
E3F1
330
E3F0
100
AcDbDictionary
280
     1
281
     1
  3
ACAD_MTEXT_2008_RT
360
E77E
  0
DICTIONARY
  5
E404
330
E403
100
AcDbDictionary
280
     1
281
     1
  3
ACAD_MTEXT_2008_RT
360
E77F
  0
IMAGEDEF_REACTOR
  5
E6F2
330
E6F1
100
AcDbRasterImageDefReactor
 90
        2
330
E6F1
  0
DICTIONARY
  5
278C
330
AE0
100
AcDbDictionary
280
     1
281
     1
  3
ASDK_XREC_ANNOTATION_SCALE_INFO
360
278D
  0
DICTIONARY
  5
6AB8
330
6AB7
100
AcDbDictionary
280
     1
281
     1
  3
AcDbBlockRepresentation
360
6AB9
  0
DICTIONARY
  5
E106
330
E105
100
AcDbDictionary
280
     1
281
     1
  3
AcDbBlockRepresentation
360
E107
  0
DICTIONARY
  5
AEF5
102
{ACAD_REACTORS
330
C
102
}
330
C
100
AcDbDictionary
281
     1
  3
ACAD_ASSOCNETWORK
350
AEF6
  0
DICTIONARY
  5
2794
102
{ACAD_REACTORS
330
C
102
}
330
C
100
AcDbDictionary
281
     1
  0
XRECORD
  5
2DE3
102
{ACAD_REACTORS
330
C
102
}
330
C
100
AcDbXrecord
280
     1
300
ARCHDESK
300
2016
300
ARCHDESK_F_S
  0
DICTIONARY
  5
EC3
102
{ACAD_REACTORS
330
C
102
}
330
C
100
AcDbDictionary
281
     1
  0
DICTIONARY
  5
41D8
102
{ACAD_REACTORS
330
C
102
}
330
C
100
AcDbDictionary
281
     1
  3
Imperial24
350
4E0F
  3
Metric50
350
41D9
  0
FIELDLIST
  5
11C2
102
{ACAD_REACTORS
330
C
102
}
330
C
100
AcDbIdSet
 90
        0
100
AcDbFieldList
  0
DICTIONARY
  5
D
102
{ACAD_REACTORS
330
C
102
}
330
C
100
AcDbDictionary
281
     1
  0
DICTIONARY
  5
7320
102
{ACAD_REACTORS
330
C
102
}
330
C
100
AcDbDictionary
281
     1
  3
Pfeiffer Logo
350
BF5B
  3
studer_logo_kleinCMYK
350
7323
  3
studer_logo_kleinCMYK_1
350
D790
  0
RASTERVARIABLES
  5
7322
102
{ACAD_REACTORS
330
C
102
}
330
C
100
AcDbRasterVariables
 90
        0
 70
     1
 71
     1
 72
     1
  0
DICTIONARY
  5
577
102
{ACAD_REACTORS
330
C
102
}
330
C
100
AcDbDictionary
281
     1
  3
A4-quer
350
ACE
  3
Model
350
579
  0
DICTIONARY
  5
EC2
102
{ACAD_REACTORS
330
C
102
}
330
C
100
AcDbDictionary
281
     1
  3
ByBlock
350
1BD7
  3
ByLayer
350
1BD6
  3
Global
350
1BD8
  0
DICTIONARY
  5
1F5C
102
{ACAD_REACTORS
330
C
102
}
330
C
100
AcDbDictionary
281
     1
  3
Standard
350
1F5D
  0
DICTIONARY
  5
E
102
{ACAD_REACTORS
330
C
102
}
330
C
100
AcDbDictionary
281
     1
  3
STANDARD
350
1C
  0
DICTIONARY
  5
578
102
{ACAD_REACTORS
330
C
102
}
330
C
100
AcDbDictionary
281
     1
  3
A3 Hoch
350
2129
  3
A3 Quer
350
2118
  3
A4 Hoch
350
20F6
  3
A4 Quer
350
2107
  3
A4 quer Studer PDF
350
A2B5
  3
Modell Grenzen
350
21AF
  3
OPO_JPG_hoch
350
23F8
  3
OPO_JPG_quer
350
23F9
  3
PDF A0-hoch
350
61DB
  3
PDF A0-quer
350
2E8C
  3
PDF A1-hoch
350
62B8
  3
PDF A1-quer
350
2E74
  3
PDF A2-hoch
350
649D
  3
PDF A2-quer
350
2E5C
  3
PDF A3-hoch
350
2E2C
  3
PDF A3-quer
350
2E44
  3
PDF A4-hoch
350
2DF9
  3
PDF A4-quer
350
2E0E
  0
ACDBDICTIONARYWDFLT
  5
575
102
{ACAD_REACTORS
330
C
102
}
330
C
100
AcDbDictionary
281
     1
  3
Normal
350
576
100
AcDbDictionaryWithDefault
340
576
  0
RAPIDRTRENDERSETTINGS
  5
65A9
102
{ACAD_REACTORS
330
C
102
}
330
C
100
AcDbRenderSettings
 90
        2
  1
Mittel
290
     1
290
     0
290
     1
290
     1
  1

  1
Wendet 5 Render-Ebenen an
 90
        0
100
AcDbRapidRTRenderSettings
 90
        3
 70
     0
 90
        5
 90
        1
 70
     1
 70
     2
 40
3.0
 40
3.0
290
     1
  0
MENTALRAYRENDERSETTINGS
  5
E7C1
102
{ACAD_XDICTIONARY
360
E7C2
102
}
102
{ACAD_REACTORS
330
C
102
}
330
C
100
AcDbRenderSettings
 90
        2
  1
Mittel
290
     1
290
     1
290
     1
290
     1
  1

  1

 90
        0
100
AcDbMentalRayRenderSettings
 90
        2
 90
        0
 90
        1
 70
     2
 40
3.0
 40
3.0
 40
0.0500000007450581
 40
0.0500000007450581
 40
0.0500000007450581
 40
0.0500000007450581
 70
     0
290
     0
290
     1
 90
        5
 90
        5
 90
        5
290
     0
 90
      500
290
     0
 40
1.0
 90
    10000
 90
        5
 90
        5
 90
        5
290
     0
 90
      200
290
     0
290
     0
290
     0
 40
1.0
 40
1.0
 40
1500.0
 70
     0
 70
     0
 40
10.0
 70
     0
 70
     0
290
     0
  1

 90
       32
 70
     0
 90
     1048
290
     0
 40
1.0
  0
DICTIONARY
  5
1F3A
102
{ACAD_REACTORS
330
C
102
}
330
C
100
AcDbDictionary
281
     1
  3
A0
350
1F3B
  3
A1
350
BF64
  3
A2
350
BF65
  3
A3
350
BF66
  3
A4
350
BF67
  3
A5
350
BF68
  3
A6
350
BF69
  3
A7
350
BF6A
  3
A8
350
BF6B
  3
A9
350
BF6C
  3
B0
350
2735
  3
B1
350
4F74
  3
B2
350
BF6D
  3
B3
350
BF6E
  3
B4
350
BF6F
  3
B5
350
BF70
  3
B6
350
BF71
  3
B7
350
BF72
  3
B8
350
BF73
  3
B9
350
BF74
  3
C0
350
BF75
  3
C1
350
BF76
  3
C2
350
BF77
  3
C3
350
BF78
  3
C4
350
BF79
  0
DICTIONARY
  5
41D6
102
{ACAD_REACTORS
330
C
102
}
330
C
100
AcDbDictionary
281
     1
  3
Imperial24
350
4E0E
  3
Metric50
350
41D7
  0
DICTIONARY
  5
107E
102
{ACAD_REACTORS
330
C
102
}
330
C
100
AcDbDictionary
281
     1
  3
RK Menü 1
350
3AF4
  3
Standard
350
107F
  0
DICTIONARY
  5
1BD9
102
{ACAD_REACTORS
330
C
102
}
330
C
100
AcDbDictionary
281
     1
  3
2dWireframe
350
1BDF
  3
3D Hidden
350
1BE1
  3
3dWireframe
350
1BE0
  3
Basic
350
1BDE
  3
Brighten
350
1BE5
  3
ColorChange
350
1BE9
  3
Conceptual
350
1BE2
  3
Dim
350
1BE4
  3
EdgeColorOff
350
2595
  3
Facepattern
350
1BE8
  3
Flat
350
1BDA
  3
FlatWithEdges
350
1BDB
  3
Gouraud
350
1BDC
  3
GouraudWithEdges
350
1BDD
  3
Hidden
350
2DD0
  3
JitterOff
350
2593
  3
Linepattern
350
1BE7
  3
OverhangOff
350
2594
  3
Realistic
350
1BE3
  3
Shaded
350
2DD5
  3
Shaded with edges
350
2DD4
  3
Shades of Gray
350
2DD1
  3
Sketchy
350
2DD2
  3
Thicken
350
1BE6
  3
Wireframe
350
2DCF
  3
X-Ray
350
2DD3
  0
DICTIONARY
  5
2D3C
102
{ACAD_REACTORS
330
C
102
}
330
C
100
AcDbDictionary
280
     1
281
     1
  0
XRECORD
  5
E780
102
{ACAD_REACTORS
330
C
102
}
330
C
100
AcDbXrecord
280
     1
 90
        1
330
107F
330
3AF4
330
DAC5
330
DAC6
330
DAC7
330
DACA
330
E38B
330
E38C
330
E38D
330
E38E
330
E38F
330
E390
330
E391
330
E393
330
E396
330
E398
330
E39A
330
E39C
330
E39D
330
E39F
330
E3A1
330
E3A4
330
E3A5
330
E3A6
330
E3A7
330
E3A8
330
E3A9
330
E3AA
330
E3AC
330
E3AD
330
E3AE
330
E3AF
330
E3B0
330
E3B1
330
E3B3
330
E3B4
330
E3DF
330
E3E0
330
E3E1
330
E3E2
330
E3E3
330
E3E4
330
E3E5
330
E3E6
330
E3E9
330
E3EB
330
E3ED
330
E3EF
330
E3F0
330
E3F2
330
E3F4
330
E3F7
330
E3F8
330
E3F9
330
E3FA
330
E3FB
330
E3FC
330
E3FD
330
E3FE
330
E3FF
330
E400
330
E401
330
E402
330
E403
330
E405
330
E406
330
E6C0
330
E6C1
330
E6C2
330
E6C5
330
E6EB
330
E6EC
330
E6ED
330
E6F0
  0
DICTIONARY
  5
4A3
102
{ACAD_REACTORS
330
C
102
}
330
C
100
AcDbDictionary
281
     1
  3
CANNOSCALE
350
203F
  3
CMLEADERSTYLE
350
203D
  3
CTABLESTYLE
350
10F5
  3
CVIEWDETAILSTYLE
350
46C1
  3
CVIEWSECTIONSTYLE
350
46C2
  3
DIMASSOC
350
BD8
  3
LAYEREVAL
350
2072
  3
LAYERNOTIFY
350
2073
  3
LIGHTINGUNITS
350
2040
  3
MIRRHATCH
350
31EB
  3
MSLTSCALE
350
203E
  3
SORTENTS
350
4A4
  0
DICTIONARY
  5
E786
102
{ACAD_REACTORS
330
C
102
}
330
C
100
AcDbDictionary
281
     1
  3
AcDsRecords
350
E788
  3
AcDsSchemas
350
E787
1001
ACAD
1070
     2
  0
DICTIONARY
  5
28EC
102
{ACAD_REACTORS
330
C
102
}
330
C
100
AcDbDictionary
281
     1
  3
AcStDStyle.AcStDimStyle2
350
28ED
  3
AcStLay.AcStLayer2
350
28EE
  3
AcStLtype.AcStLinetype2
350
28EF
  3
AcStTStyle.AcStTextStyle2
350
28F0
  0
DICTIONARY
  5
FB1
102
{ACAD_REACTORS
330
C
102
}
330
C
100
AcDbDictionary
281
     1
  0
DICTIONARY
  5
DFBE
102
{ACAD_REACTORS
330
C
102
}
330
C
100
AcDbDictionary
281
     1
  3
AEC_ISOLATED_OBJECTS_XRECORD
350
DFBF
  0
DICTIONARY
  5
D05
102
{ACAD_REACTORS
330
C
102
}
330
C
100
AcDbDictionary
281
     1
  0
DICTIONARY
  5
2E1
102
{ACAD_REACTORS
330
C
102
}
330
C
100
AcDbDictionary
281
     1
  0
DICTIONARY
  5
4B0
102
{ACAD_REACTORS
330
C
102
}
330
C
100
AcDbDictionary
281
     1
1001
DRAWINGVARIABLESXDATA
1000
POLARMODE
1000
3
  0
DICTIONARY
  5
2D39
102
{ACAD_REACTORS
330
11DB
102
}
330
11DB
100
AcDbDictionary
281
     1
  0
DICTIONARY
  5
11DC
102
{ACAD_REACTORS
330
11DB
102
}
330
11DB
100
AcDbDictionary
281
     1
  3
Alles Schwarz bzw. Weiss
350
25CB
  3
RK_Standard
350
5214
  3
Standard Farben dunkler Hintergrund
350
25FE
  3
Standard Farben heller Hintergrund
350
25C8
  0
DICTIONARY
  5
2D38
102
{ACAD_REACTORS
330
11DB
102
}
330
11DB
100
AcDbDictionary
281
     1
  3
*A1
350
2D3A
  3
*A2
350
2D3B
1001
ACAD
1000
<All
  0
XRECORD
  5
DAF9
102
{ACAD_REACTORS
330
2152
102
}
330
2152
100
AcDbXrecord
280
     1
290
     1
  0
XRECORD
  5
DAFA
102
{ACAD_REACTORS
330
C21B
102
}
330
C21B
100
AcDbXrecord
280
     1
290
     1
  0
XRECORD
  5
DAFB
102
{ACAD_REACTORS
330
C21D
102
}
330
C21D
100
AcDbXrecord
280
     1
290
     1
  0
XRECORD
  5
DAFC
102
{ACAD_REACTORS
330
C221
102
}
330
C221
100
AcDbXrecord
280
     1
290
     1
  0
XRECORD
  5
DAFD
102
{ACAD_REACTORS
330
C225
102
}
330
C225
100
AcDbXrecord
280
     1
290
     1
  0
XRECORD
  5
DAFF
102
{ACAD_REACTORS
330
C229
102
}
330
C229
100
AcDbXrecord
280
     1
290
     1
  0
XRECORD
  5
BAF1
102
{ACAD_REACTORS
330
BAF0
102
}
330
BAF0
100
AcDbXrecord
280
     1
102
{ADSK_LYR_LINEWT_OVERRIDE
335
AD4
 91
       20
102
}
  0
XRECORD
  5
DB00
102
{ACAD_REACTORS
330
BAF0
102
}
330
BAF0
100
AcDbXrecord
280
     1
290
     1
  0
XRECORD
  5
DB04
102
{ACAD_REACTORS
330
DB03
102
}
330
DB03
100
AcDbXrecord
280
     1
290
     1
  0
XRECORD
  5
DB06
102
{ACAD_REACTORS
330
DB05
102
}
330
DB05
100
AcDbXrecord
280
     1
290
     1
  0
XRECORD
  5
DB08
102
{ACAD_REACTORS
330
DB07
102
}
330
DB07
100
AcDbXrecord
280
     1
290
     1
  0
XRECORD
  5
DFFF
102
{ACAD_REACTORS
330
DC06
102
}
330
DC06
100
AcDbXrecord
280
     1
290
     1
  0
XRECORD
  5
2CA1
102
{ACAD_REACTORS
330
2CA0
102
}
330
2CA0
100
AcDbXrecord
280
     1
340
1F3B
  0
XRECORD
  5
2CA3
102
{ACAD_REACTORS
330
2CA0
102
}
330
2CA0
100
AcDbXrecord
280
     1
 96
       -1
 91
        1
 92
        0
 93
        2
 94
        0
 95
        0
 41
0.5
 42
1.0
 43
16885.0
 44
0.0
 45
0.0
 46
0.0
 47
0.0
 48
0.0
 49
0.0
 50
0.0
 51
0.0
 52
0.0
 53
0.0
  0
XRECORD
  5
2CA2
102
{ACAD_REACTORS
330
2CA0
102
}
330
2CA0
100
AcDbXrecord
280
     1
300
<Kein>
292
     0
330
579
294
     0
  0
SORTENTSTABLE
  5
2793
102
{ACAD_REACTORS
330
2792
102
}
330
2792
100
AcDbSortentsTable
330
19
  0
SORTENTSTABLE
  5
BBA0
102
{ACAD_REACTORS
330
BB9F
102
}
330
BB9F
100
AcDbSortentsTable
330
ACD
331
AD4
  5
AD4
331
6AB7
  5
6AB7
331
ADE
  5
ADE
331
ADF
  5
ADF
331
AE0
  5
AE0
  0
DICTIONARY
  5
E6D3
102
{ACAD_REACTORS
330
E6C8
102
}
330
E6C8
100
AcDbDictionary
281
     1
  3
ACAD_ASSOCNETWORK
350
E6D4
  0
ACAD_EVALUATION_GRAPH
  5
E6C9
102
{ACAD_REACTORS
330
E6C8
102
}
330
E6C8
100
AcDbEvalGraph
 96
       18
 97
       18
 91
        0
 93
       32
 95
        5
360
E6CA
 92
       -1
 92
       -1
 92
       -1
 92
       -1
 91
        1
 93
       32
 95
       10
360
E6CB
 92
       -1
 92
       -1
 92
       -1
 92
       -1
 91
        2
 93
       32
 95
       11
360
E6CC
 92
        0
 92
        0
 92
        1
 92
        2
 91
        3
 93
       32
 95
       15
360
E6CD
 92
       -1
 92
       -1
 92
        0
 92
        0
 91
        4
 93
       32
 95
       16
360
E6CE
 92
        1
 92
        1
 92
       -1
 92
       -1
 91
        5
 93
       32
 95
       17
360
E6CF
 92
        2
 92
        2
 92
       -1
 92
       -1
 92
        0
 93
        0
 94
        1
 91
        3
 91
        2
 92
       -1
 92
       -1
 92
       -1
 92
       -1
 92
       -1
 92
        1
 93
        0
 94
        1
 91
        2
 91
        4
 92
       -1
 92
       -1
 92
       -1
 92
        2
 92
       -1
 92
        2
 93
        0
 94
        1
 91
        2
 91
        5
 92
       -1
 92
       -1
 92
        1
 92
       -1
 92
       -1
  0
SORTENTSTABLE
  5
E6D7
102
{ACAD_REACTORS
330
E6C8
102
}
330
E6C8
100
AcDbSortentsTable
330
2CD1
331
E6BE
  5
E6BF
331
E6BF
  5
E6BE
  0
ACDB_DYNAMICBLOCKPURGEPREVENTER_VERSION
  5
E6E0
102
{ACAD_REACTORS
330
E6C8
102
}
330
E6C8
100
AcDbDynamicBlockPurgePreventer
 70
     1
  0
ACAD_EVALUATION_GRAPH
  5
E3B8
102
{ACAD_REACTORS
330
E3B7
102
}
330
E3B7
100
AcDbEvalGraph
 96
       20
 97
       20
 91
        0
 93
       32
 95
        1
360
E3B9
 92
        0
 92
        0
 92
        1
 92
        2
 91
        1
 93
       32
 95
        2
360
E3BA
 92
       -1
 92
       -1
 92
        0
 92
        0
 91
        2
 93
       32
 95
        3
360
E3BB
 92
        1
 92
        1
 92
       -1
 92
       -1
 91
        3
 93
       32
 95
        4
360
E3BC
 92
        2
 92
        2
 92
       -1
 92
       -1
 92
        0
 93
        0
 94
        1
 91
        1
 91
        0
 92
       -1
 92
       -1
 92
       -1
 92
       -1
 92
       -1
 92
        1
 93
        0
 94
        1
 91
        0
 91
        2
 92
       -1
 92
       -1
 92
       -1
 92
        2
 92
       -1
 92
        2
 93
        0
 94
        1
 91
        0
 91
        3
 92
       -1
 92
       -1
 92
        1
 92
       -1
 92
       -1
  0
ACDB_DYNAMICBLOCKPURGEPREVENTER_VERSION
  5
E3C2
102
{ACAD_REACTORS
330
E3B7
102
}
330
E3B7
100
AcDbDynamicBlockPurgePreventer
 70
     1
  0
DICTIONARY
  5
DAD1
102
{ACAD_REACTORS
330
DAD0
102
}
330
DAD0
100
AcDbDictionary
281
     1
  3
ACAD_ASSOCNETWORK
350
DAD2
  0
SORTENTSTABLE
  5
DAD5
102
{ACAD_REACTORS
330
DAD0
102
}
330
DAD0
100
AcDbSortentsTable
330
DABB
331
DAC3
  5
DAC4
331
DAC4
  5
DAC3
  0
DICTIONARY
  5
E6F9
102
{ACAD_REACTORS
330
E6F8
102
}
330
E6F8
100
AcDbDictionary
281
     1
  3
ACAD_ASSOCNETWORK
350
E6FA
  0
SORTENTSTABLE
  5
E6FD
102
{ACAD_REACTORS
330
E6F8
102
}
330
E6F8
100
AcDbSortentsTable
330
E6E1
331
E6E9
  5
E6EA
331
E6EA
  5
E6E9
  0
XRECORD
  5
E77C
102
{ACAD_REACTORS
330
E39E
102
}
330
E39E
100
AcDbXrecord
280
     1
 40
433192.0
  1
\A1;\pxt4;INFO:\PBatterie und Ablaufventil 1 {\H0.7x;\S1#4;}" sind nicht im Lieferumfang enthalten.
  0
XRECORD
  5
E77D
102
{ACAD_REACTORS
330
E3B2
102
}
330
E3B2
100
AcDbXrecord
280
     1
 40
915326.0
  1
\A1;\pxt4;INFO:\P\ptz;{\A0;Batterie et bonde de vidage 1 ¼“ ne sont pas compris dans la livraison}
  0
XRECORD
  5
E77E
102
{ACAD_REACTORS
330
E3F1
102
}
330
E3F1
100
AcDbXrecord
280
     1
 40
433192.0
  1
\A1;\pxt4;INFO:\PBatterie und Ablaufventil 1 {\H0.7x;\S1#4;}" sind nicht im Lieferumfang enthalten.
  0
XRECORD
  5
E77F
102
{ACAD_REACTORS
330
E404
102
}
330
E404
100
AcDbXrecord
280
     1
 40
915326.0
  1
\A1;\pxt4;INFO:\P\ptz;{\A0;Batterie et bonde de vidage 1 ¼“ ne sont pas compris dans la livraison}
  0
XRECORD
  5
278D
102
{ACAD_REACTORS
330
278C
102
}
330
278C
100
AcDbXrecord
280
     1
 90
        1
340
BF66
  0
DICTIONARY
  5
6AB9
102
{ACAD_REACTORS
330
6AB8
102
}
330
6AB8
100
AcDbDictionary
280
     1
281
     1
  3
AcDbRepData
360
6ABA
  3
AppDataCache
360
AFD3
  0
DICTIONARY
  5
E107
102
{ACAD_REACTORS
330
E106
102
}
330
E106
100
AcDbDictionary
280
     1
281
     1
  3
AcDbRepData
360
E108
  3
AppDataCache
360
E109
  0
ACDBASSOCNETWORK
  5
AEF6
102
{ACAD_REACTORS
330
AEF5
102
}
330
AEF5
100
AcDbAssocAction
 90
        1
 90
        0
330
0
360
0
 90
        0
 90
        0
 90
        0
100
AcDbAssocNetwork
 90
        0
 90
       91
 90
        3
330
DAD2
330
E6D4
330
E6FA
 90
        0
  0
ACDBDETAILVIEWSTYLE
  5
4E0F
102
{ACAD_XDICTIONARY
360
5075
102
}
102
{ACAD_REACTORS
330
41D8
102
}
330
41D8
100
AcDbModelDocViewStyle
 70
     0
  3
Imperial24
290
     0
100
AcDbDetailViewStyle
 70
     0
 71
     0
 90
        3
 71
     1
340
10
 62
   256
 40
0.24
340
0
 62
   256
 40
0.24
300

 40
0.36
280
     3
 71
     2
340
15
 90
       25
 62
   256
 71
     3
340
10
 62
   256
 40
0.24
 90
        1
 40
0.75
 90
        1
300
%<\AcVar ViewType \f "%tc1">% %<\AcVar ViewDetailId>%\PVARIA %<\AcVar ViewScale \f "%sn">%
 71
     4
340
15
 90
       25
 62
   256
340
15
 90
       25
 62
   256
280
     0
  0
ACDBDETAILVIEWSTYLE
  5
41D9
102
{ACAD_XDICTIONARY
360
5071
102
}
102
{ACAD_REACTORS
330
41D8
102
}
330
41D8
100
AcDbModelDocViewStyle
 70
     0
  3
Metric50
290
     0
100
AcDbDetailViewStyle
 70
     0
 71
     0
 90
        3
 71
     1
340
10
 62
   256
 40
5.0
340
0
 62
   256
 40
5.0
300

 40
0.0
280
     1
 71
     2
340
15
 90
       25
 62
   256
 71
     3
340
10
 62
   256
 40
5.0
 90
        0
 40
15.0
 90
        1
300
%<\AcVar ViewDetailId>% (%<\AcVar ViewScale \f "%sn">%)
 71
     4
340
15
 90
       25
 62
   256
340
15
 90
       25
 62
   256
280
     0
  0
IMAGEDEF
  5
BF5B
102
{ACAD_REACTORS
330
7320
102
}
330
7320
100
AcDbRasterImageDef
 90
        0
  1
C:\Dokumente und Einstellungen\b.zirkel\Desktop\Pfeiffer Logo.jpg
 10
1181.0
 20
390.0
 11
0.0846666666666667
 21
0.0846666666666667
280
     1
281
     5
  0
IMAGEDEF
  5
7323
102
{ACAD_REACTORS
330
7320
102
}
330
7320
100
AcDbRasterImageDef
 90
        0
  1
J:\Studer\studer_logo_kleinCMYK.jpg
 10
1757.0
 20
250.0
 11
0.0127
 21
0.0127
280
     1
281
     5
  0
IMAGEDEF
  5
D790
102
{ACAD_REACTORS
330
7320
330
DAA4
330
DACC
330
E6C7
330
E6F2
102
}
330
7320
100
AcDbRasterImageDef
 90
        0
  1
N:\Administration\Vorlagen\Logo\studer_logo_kleinCMYK.jpg
 10
1757.0
 20
250.0
 11
0.0127
 21
0.0127
280
     1
281
     5
  0
LAYOUT
  5
ACE
102
{ACAD_XDICTIONARY
360
121F
102
}
102
{ACAD_REACTORS
330
577
102
}
330
577
100
AcDbPlotSettings
  1

  2
DWG To PDF.pc3
  4
ISO_full_bleed_A4_(297.00_x_210.00_MM)
  6

 40
0.7937499880790711
 41
0.7937499880790711
 42
0.79376220703125
 43
0.7937469482421875
 44
297.0
 45
210.0
 46
4.188409756388807
 47
4.199170761393332
 48
-286.0
 49
-0.9999999999999982
140
1.0
141
199.0
142
1.0
143
1.0
 70
   692
 72
     1
 73
     0
 74
     1
  7
_RK Farben 1-15schwarz.ctb
 75
    16
147
1.0
 76
     1
 77
     2
 78
   300
148
286.0139375641984
149
1.007827451501384
100
AcDbLayout
  1
A4-quer
 70
     1
 71
     1
 10
-290.9960973086663
 20
-6.000748200973788
 11
6.003902691333735
 21
203.9992517990262
 12
0.0
 22
0.0
 32
0.0
 14
-286.0139375641984
 24
-1.007827451501384
 34
-0.0015258207003583
 15
1.021730727913677
 25
199.0063340893907
 35
0.0000000349246037
146
0.0
 13
0.0
 23
0.0
 33
0.0
 16
1.0
 26
0.0
 36
0.0
 17
0.0
 27
1.0
 37
0.0
 76
     0
330
ACD
331
AD4
1001
ACAD_PSEXT
1000
DWG To PDF.pc3
1000
DWG To PDF
1000
Datei
1000

1070
     0
  0
LAYOUT
  5
579
102
{ACAD_XDICTIONARY
360
25D9
102
}
102
{ACAD_REACTORS
330
577
102
}
330
577
100
AcDbPlotSettings
  1

  2
DWG To PDF.pc3
  4
UserDefinedMetric (420.00 x 297.00mm)
  6

 40
0.0
 41
0.0
 42
0.0
 43
0.0
 44
420.0
 45
297.0
 46
0.0
 47
13.21090216858189
 48
0.0
 49
0.0
140
0.0
141
0.0
142
1.0
143
13.19470541022789
 70
 11956
 72
     1
 73
     0
 74
     1
  7
_RK Farben 1-15schwarz.ctb
 75
     0
147
0.0757879747148314
 76
     0
 77
     2
 78
   300
148
-1091.159536232193
149
-507.3870993817527
100
AcDbLayout
  1
Model
 70
     1
 71
     0
 10
0.0
 20
0.0
 11
12.0
 21
9.0
 12
0.0
 22
0.0
 32
0.0
 14
0.0
 24
0.0
 34
0.0
 15
0.0
 25
0.0
 35
0.0
146
0.0
 13
0.0
 23
0.0
 33
0.0
 16
1.0
 26
0.0
 36
0.0
 17
0.0
 27
1.0
 37
0.0
 76
     0
330
19
331
1BD4
1001
ACAD_PSEXT
1000
DWG To PDF.pc3
1000
DWG To PDF
1000
Datei
1000
Robert Koch CAD-Support v6
1070
     0
  0
MATERIAL
  5
1BD7
102
{ACAD_REACTORS
330
EC2
102
}
330
EC2
100
AcDbMaterial
  1
ByBlock
 73
     1
 78
     1
172
     1
176
     1
270
     1
274
     1
 94
       63
  0
MATERIAL
  5
1BD6
102
{ACAD_REACTORS
330
EC2
102
}
330
EC2
100
AcDbMaterial
  1
ByLayer
 73
     1
 78
     1
172
     1
176
     1
270
     1
274
     1
 94
       63
  0
MATERIAL
  5
1BD8
102
{ACAD_XDICTIONARY
360
6059
102
}
102
{ACAD_REACTORS
330
EC2
102
}
330
EC2
100
AcDbMaterial
  1
Global
 73
     1
 78
     1
172
     1
176
     1
270
     1
274
     1
 94
       63
  0
MLEADERSTYLE
  5
1F5D
102
{ACAD_REACTORS
330
1F5C
102
}
330
1F5C
100
AcDbMLeaderStyle
179
     2
170
     2
171
     1
172
     0
 90
        2
 40
0.0
 41
0.0
173
     2
 91
-1056964608
340
13
 92
       -2
290
     1
 42
2.0
291
     1
 43
0.36
  3
Standard
 44
4.0
300

342
2836
174
     1
178
     1
175
     1
176
     0
 93
-1056964608
 45
2.5
292
     0
297
     0
 46
4.0
 94
-1056964608
 47
1.0
 49
1.0
140
1.0
293
     1
141
0.0
294
     1
177
     0
142
1.0
295
     0
296
     0
143
0.125
271
     0
272
     9
273
     9
  0
MLINESTYLE
  5
1C
102
{ACAD_REACTORS
330
E
102
}
330
E
100
AcDbMlineStyle
  2
STANDARD
 70
     0
  3

 62
     0
 51
90.0
 52
90.0
 71
     2
 49
0.5
 62
   256
  6
BYLAYER
 49
-0.5
 62
   256
  6
BYLAYER
  0
PLOTSETTINGS
  5
2129
102
{ACAD_REACTORS
330
578
102
}
330
578
100
AcDbPlotSettings
  1
A3 Hoch
  2
none_device
  4
ISO_A3_(420.00_x_297.00_MM)
  6

 40
7.5
 41
20.0
 42
7.5
 43
20.0
 44
420.0
 45
297.0
 46
2.484741222561297
 47
-10.01631163388526
 48
0.0
 49
0.0
140
0.0
141
0.0
142
1.0
143
1.0
 70
  2740
 72
     1
 73
     1
 74
     1
  7
_RK Farben 1-15schwarz.ctb
 75
    16
147
1.0
 76
     1
 77
     2
 78
   300
148
277.0128587043421
149
0.0203035521524271
1001
ACAD_PSEXT
1000
Kein
1000
Kein
1000
Nicht anwendbar
1000
Das Layout wird erst geplottet, wenn ein neuer Plotter-Konfigurationsname ausgewählt wird.
1070
     0
  0
PLOTSETTINGS
  5
2118
102
{ACAD_REACTORS
330
578
102
}
330
578
100
AcDbPlotSettings
  1
A3 Quer
  2
none_device
  4
ISO_A3_(420.00_x_297.00_MM)
  6

 40
7.5
 41
20.0
 42
7.5
 43
20.0
 44
420.0
 45
297.0
 46
2.484741222561297
 47
-10.01631163388526
 48
0.0
 49
0.0
140
0.0
141
0.0
142
1.0
143
1.0
 70
  2740
 72
     1
 73
     0
 74
     1
  7
_RK Farben 1-15schwarz.ctb
 75
    16
147
1.0
 76
     0
 77
     2
 78
   300
148
400.0076257400169
149
0.0163891116184232
1001
ACAD_PSEXT
1000
Kein
1000
Kein
1000
Nicht anwendbar
1000
Das Layout wird erst geplottet, wenn ein neuer Plotter-Konfigurationsname ausgewählt wird.
1070
     0
  0
PLOTSETTINGS
  5
20F6
102
{ACAD_REACTORS
330
578
102
}
330
578
100
AcDbPlotSettings
  1
A4 Hoch
  2
DWG To PDF.pc3
  4
UserDefinedMetric (210.00 x 297.00mm)
  6

 40
0.0
 41
0.0
 42
0.0
 43
0.0
 44
210.0
 45
297.0
 46
4.997790340424927
 47
4.995621796741289
 48
8.0
 49
6.0
140
203.0
141
288.0
142
1.0
143
1.0
 70
  2724
 72
     1
 73
     0
 74
     1
  7
_RK Monochrom.ctb
 75
    16
147
0.9999999999999998
 76
     0
 77
     2
 78
   300
148
199.003495009679
149
1.004376198464456
1001
ACAD_PSEXT
1000
DWG To PDF.pc3
1000
DWG To PDF
1000
Datei
1000
Robert Koch CAD-Support v6
1070
     0
  0
PLOTSETTINGS
  5
2107
102
{ACAD_REACTORS
330
578
102
}
330
578
100
AcDbPlotSettings
  1
A4 Quer
  2
none_device
  4
ISO_A4_(210.00_x_297.00_MM)
  6

 40
7.5
 41
20.0
 42
7.5
 43
20.0
 44
210.0
 45
297.0
 46
-0.5049133219347937
 47
-7.512458786732167
 48
8.0
 49
6.0
140
203.0
141
288.0
142
1.0
143
1.0
 70
  2740
 72
     1
 73
     1
 74
     1
  7
_RK Farben 1-15schwarz.ctb
 75
    16
147
1.0
 76
     1
 77
     2
 78
   300
148
271.0214858822596
149
1.005173594744405
1001
ACAD_PSEXT
1000
Kein
1000
Kein
1000
Nicht anwendbar
1000
Das Layout wird erst geplottet, wenn ein neuer Plotter-Konfigurationsname ausgewählt wird.
1070
     0
  0
PLOTSETTINGS
  5
A2B5
102
{ACAD_REACTORS
330
578
102
}
330
578
100
AcDbPlotSettings
  1
A4 quer Studer PDF
  2
DWG To PDF.pc3
  4
ISO_full_bleed_A4_(210.00_x_297.00_MM)
  6

 40
0.7937499880790711
 41
0.7937499880790711
 42
0.7937469482421875
 43
0.79376220703125
 44
210.0
 45
297.0
 46
4.195304543915767
 47
4.197534471954497
 48
-286.0
 49
-0.9999999999999982
140
1.0
141
199.0
142
1.0
143
1.0
 70
  2740
 72
     1
 73
     1
 74
     1
  7
_RK Farben 1-15schwarz.ctb
 75
    16
147
1.0
 76
     1
 77
     2
 78
   300
148
286.0101864248406
149
1.010953413180118
1001
ACAD_PSEXT
1000
DWG To PDF.pc3
1000
DWG To PDF
1000
Datei
1000

1070
     0
  0
PLOTSETTINGS
  5
21AF
102
{ACAD_REACTORS
330
578
102
}
330
578
100
AcDbPlotSettings
  1
Modell Grenzen
  2
none_device
  4
ISO_A4_(297.00_x_210.00_MM)
  6

 40
7.5
 41
20.0
 42
7.5
 43
20.0
 44
297.0
 45
210.0
 46
0.0
 47
5.593928693561011
 48
0.0
 49
0.0
140
0.0
141
0.0
142
1.0
143
34.40012560355993
 70
 11956
 72
     1
 73
     0
 74
     1
  7
_RK Monochrom.ctb
 75
     0
147
0.0290696613007865
 76
     0
 77
     2
 78
   300
148
29.13007688839935
149
-259.9475238983832
1001
ACAD_PSEXT
1000
Kein
1000
Kein
1000
Nicht anwendbar
1000
Das Layout wird erst geplottet, wenn ein neuer Plotter-Konfigurationsname ausgewählt wird.
1070
     0
  0
PLOTSETTINGS
  5
23F8
102
{ACAD_REACTORS
330
578
102
}
330
578
100
AcDbPlotSettings
  1
OPO_JPG_hoch
  2
OPO_JPG.pc3
  4
UserDefinedRaster (1218.00 x 1576.00Pixels)
  6

 40
0.0
 41
0.0
 42
1.0
 43
1.0
 44
768.0
 45
1024.0
 46
0.0
 47
325.6572487272748
 48
0.0
 49
0.0
140
0.0
141
0.0
142
1.0
143
0.1578896729938277
 70
 28340
 72
     2
 73
     0
 74
     1
  7
OPO_JPG.ctb
 75
     0
147
6.333536456428613
 76
     1
 77
     2
 78
   300
148
107.4371330410208
149
16.70837316977361
1001
ACAD_PSEXT
1000
OPO_JPG.pc3
1000
Independent JPEG Group JFIF (JPEG Compression)
1000
Datei
1000
erstellt JPG Vorschaubilder fuer OPO-2007
1070
     0
  0
PLOTSETTINGS
  5
23F9
102
{ACAD_REACTORS
330
578
102
}
330
578
100
AcDbPlotSettings
  1
OPO_JPG_quer
  2
OPO_JPG.pc3
  4
UserDefinedRaster (1576.00 x 1218.00Pixels)
  6

 40
0.0
 41
0.0
 42
1.0
 43
1.0
 44
1024.0
 45
768.0
 46
0.0
 47
135.6288988891814
 48
0.0
 49
0.0
140
0.0
141
0.0
142
1.0
143
0.118378669781296
 70
 28340
 72
     2
 73
     0
 74
     1
  7
OPO_JPG.ctb
 75
     0
147
8.4474677899954
 76
     1
 77
     2
 78
   300
148
107.4371330410208
149
16.70837316977361
1001
ACAD_PSEXT
1000
OPO_JPG.pc3
1000
Independent JPEG Group JFIF (JPEG Compression)
1000
Datei
1000
erstellt JPG Vorschaubilder fuer OPO-2007
1070
     0
  0
PLOTSETTINGS
  5
61DB
102
{ACAD_REACTORS
330
578
102
}
330
578
100
AcDbPlotSettings
  1
PDF A0-hoch
  2
DWG To PDF.pc3
  4
ISO_A0_(841.00_x_1189.00_MM)
  6

 40
0.0
 41
0.0
 42
0.0
 43
0.0
 44
841.0
 45
1189.0
 46
0.0000000000000568
 47
0.0
 48
-830.9999999999998
 49
-10.0
140
10.0
141
1179.0
142
1.0
143
1.0
 70
  2740
 72
     1
 73
     0
 74
     4
  7
_RK Farben 1-15schwarz.ctb
 75
    16
147
1.0
 76
     0
 77
     2
 78
   300
148
830.9999999999998
149
10.0
1001
ACAD_PSEXT
1000
DWG To PDF.pc3
1000
DWG To PDF
1000
Datei
1000
Robert Koch CAD-Support v6
1070
     0
  0
PLOTSETTINGS
  5
2E8C
102
{ACAD_REACTORS
330
578
102
}
330
578
100
AcDbPlotSettings
  1
PDF A0-quer
  2
DWG To PDF.pc3
  4
ISO_A0_(841.00_x_1189.00_MM)
  6

 40
0.0
 41
0.0
 42
0.0
 43
0.0
 44
841.0
 45
1189.0
 46
-0.0516714487788477
 47
-0.0386240174575505
 48
-1169.0
 49
0.0
140
0.0
141
820.9999999999999
142
1.0
143
1.0
 70
  2740
 72
     1
 73
     1
 74
     1
  7
_RK Farben 1-15schwarz.ctb
 75
    16
147
1.0
 76
     0
 77
     2
 78
   300
148
1179.072568871428
149
10.05200680685607
1001
ACAD_PSEXT
1000
DWG To PDF.pc3
1000
DWG To PDF
1000
Datei
1000

1070
     0
  0
PLOTSETTINGS
  5
62B8
102
{ACAD_REACTORS
330
578
102
}
330
578
100
AcDbPlotSettings
  1
PDF A1-hoch
  2
DWG To PDF.pc3
  4
UserDefinedMetric (841.00 x 594.00mm)
  6

 40
0.0
 41
0.0
 42
0.0
 43
0.0
 44
841.0
 45
594.0
 46
0.0
 47
0.0
 48
-584.0
 49
-10.0
140
10.0
141
831.0
142
1.0
143
1.0
 70
  2740
 72
     1
 73
     1
 74
     4
  7
_RK Farben 1-15schwarz.ctb
 75
    16
147
1.0
 76
     1
 77
     2
 78
   300
148
584.0
149
10.0
1001
ACAD_PSEXT
1000
DWG To PDF.pc3
1000
DWG To PDF
1000
Datei
1000
Robert Koch CAD-Support v6
1070
     0
  0
PLOTSETTINGS
  5
2E74
102
{ACAD_REACTORS
330
578
102
}
330
578
100
AcDbPlotSettings
  1
PDF A1-quer
  2
DWG To PDF.pc3
  4
ISO_A1_(841.00_x_594.00_MM)
  6

 40
0.0
 41
0.0
 42
0.0
 43
0.0
 44
841.0
 45
594.0
 46
-0.0537793386766907
 47
-0.0363285312687367
 48
-821.0
 49
0.0
140
0.0
141
574.0
142
1.0
143
1.0
 70
  2740
 72
     1
 73
     0
 74
     1
  7
_RK Farben 1-15schwarz.ctb
 75
    16
147
1.0
 76
     0
 77
     2
 78
   300
148
831.0562223293457
149
10.03639829830399
1001
ACAD_PSEXT
1000
DWG To PDF.pc3
1000
DWG To PDF
1000
Datei
1000

1070
     0
  0
PLOTSETTINGS
  5
649D
102
{ACAD_REACTORS
330
578
102
}
330
578
100
AcDbPlotSettings
  1
PDF A2-hoch
  2
DWG To PDF.pc3
  4
UserDefinedMetric (594.00 x 420.00mm)
  6

 40
0.0
 41
0.0
 42
0.0
 43
0.0
 44
594.0
 45
420.0
 46
0.0
 47
0.0
 48
-410.0
 49
-10.0
140
10.0
141
584.0
142
1.0
143
1.0
 70
  2740
 72
     1
 73
     1
 74
     4
  7
_RK Farben 1-15schwarz.ctb
 75
    16
147
1.0
 76
     1
 77
     2
 78
   300
148
410.0
149
10.0
1001
ACAD_PSEXT
1000
DWG To PDF.pc3
1000
DWG To PDF
1000
Datei
1000
Robert Koch CAD-Support v6
1070
     0
  0
PLOTSETTINGS
  5
2E5C
102
{ACAD_REACTORS
330
578
102
}
330
578
100
AcDbPlotSettings
  1
PDF A2-quer
  2
DWG To PDF.pc3
  4
ISO_A2_(594.00_x_420.00_MM)
  6

 40
0.0
 41
0.0
 42
0.0
 43
0.0
 44
594.0
 45
420.0
 46
10.0
 47
10.0
 48
-574.0
 49
0.0
140
0.0
141
400.0
142
1.0
143
1.0
 70
  2740
 72
     1
 73
     0
 74
     4
  7
_RK Farben 1-15schwarz.ctb
 75
    16
147
1.0
 76
     0
 77
     2
 78
   300
148
574.0
149
0.0
1001
ACAD_PSEXT
1000
DWG To PDF.pc3
1000
DWG To PDF
1000
Datei
1000

1070
     0
  0
PLOTSETTINGS
  5
2E2C
102
{ACAD_REACTORS
330
578
102
}
330
578
100
AcDbPlotSettings
  1
PDF A3-hoch
  2
DWG To PDF.pc3
  4
UserDefinedMetric (420.00 x 297.00mm)
  6

 40
0.0
 41
0.0
 42
0.0
 43
0.0
 44
420.0
 45
297.0
 46
5.0
 47
5.0
 48
-287.0
 49
0.0
140
0.0
141
410.0
142
1.0
143
1.0
 70
  2740
 72
     1
 73
     1
 74
     4
  7
_RK Farben 1-15schwarz.ctb
 75
    16
147
1.0
 76
     1
 77
     2
 78
   300
148
287.0
149
0.0
1001
ACAD_PSEXT
1000
DWG To PDF.pc3
1000
DWG To PDF
1000
Datei
1000
Robert Koch CAD-Support v6
1070
     0
  0
PLOTSETTINGS
  5
2E44
102
{ACAD_REACTORS
330
578
102
}
330
578
100
AcDbPlotSettings
  1
PDF A3-quer
  2
DWG To PDF.pc3
  4
UserDefinedMetric (420.00 x 297.00mm)
  6

 40
0.0
 41
0.0
 42
0.0
 43
0.0
 44
420.0
 45
297.0
 46
5.0
 47
5.0
 48
-410.0
 49
0.0
140
0.0
141
287.0
142
1.0
143
1.0
 70
  2740
 72
     1
 73
     0
 74
     4
  7
_RK Farben 1-15schwarz.ctb
 75
    16
147
1.0
 76
     0
 77
     2
 78
   300
148
410.0
149
0.0
1001
ACAD_PSEXT
1000
DWG To PDF.pc3
1000
DWG To PDF
1000
Datei
1000
Robert Koch CAD-Support v6
1070
     0
  0
PLOTSETTINGS
  5
2DF9
102
{ACAD_REACTORS
330
578
102
}
330
578
100
AcDbPlotSettings
  1
PDF A4-hoch
  2
DWG To PDF.pc3
  4
UserDefinedMetric (210.00 x 297.00mm)
  6

 40
0.0
 41
0.0
 42
0.0
 43
0.0
 44
210.0
 45
297.0
 46
4.97336977637704
 47
4.98248237555677
 48
-195.0
 49
-1.000000000000007
140
1.0
141
271.0
142
1.0
143
1.0
 70
  2724
 72
     1
 73
     0
 74
     1
  7
_RK Farben 1-15schwarz.ctb
 75
    16
147
0.9999999999999998
 76
     0
 77
     2
 78
   300
148
199.0279160395121
149
1.017516287954549
1001
ACAD_PSEXT
1000
DWG To PDF.pc3
1000
DWG To PDF
1000
Datei
1000
Robert Koch CAD-Support v6
1070
     0
  0
PLOTSETTINGS
  5
2E0E
102
{ACAD_REACTORS
330
578
102
}
330
578
100
AcDbPlotSettings
  1
PDF A4-quer
  2
DWG To PDF.pc3
  4
UserDefinedMetric (210.00 x 297.00mm)
  6

 40
0.0
 41
0.0
 42
0.0
 43
0.0
 44
210.0
 45
297.0
 46
5.000000000000028
 47
5.000000000000028
 48
-286.0
 49
-0.9999999999999982
140
1.0
141
199.0
142
1.0
143
1.0
 70
  2724
 72
     1
 73
     1
 74
     4
  7
_RK Monochrom.ctb
 75
    16
147
0.9999999999999998
 76
     0
 77
     2
 78
   300
148
286.0
149
0.9999999999999982
1001
ACAD_PSEXT
1000
DWG To PDF.pc3
1000
DWG To PDF
1000
Datei
1000
Robert Koch CAD-Support v6
1070
     0
  0
ACDBPLACEHOLDER
  5
576
102
{ACAD_REACTORS
330
575
102
}
330
575
  0
DICTIONARY
  5
E7C2
330
E7C1
100
AcDbDictionary
280
     1
281
     1
  3
ADSK_XREC_MENTALRAYSETTINGSINFO
360
E7C3
  0
SCALE
  5
1F3B
102
{ACAD_REACTORS
330
1F3A
102
}
330
1F3A
100
AcDbScale
 70
     0
300
1:1
140
1.0
141
1.0
290
     1
  0
SCALE
  5
BF64
102
{ACAD_REACTORS
330
1F3A
102
}
330
1F3A
100
AcDbScale
 70
     0
300
1:8
140
1.0
141
8.0
290
     0
  0
SCALE
  5
BF65
102
{ACAD_REACTORS
330
1F3A
102
}
330
1F3A
100
AcDbScale
 70
     0
300
1:2
140
1.0
141
2.0
290
     0
  0
SCALE
  5
BF66
102
{ACAD_REACTORS
330
1F3A
102
}
330
1F3A
100
AcDbScale
 70
     0
300
1:5
140
1.0
141
5.0
290
     0
  0
SCALE
  5
BF67
102
{ACAD_REACTORS
330
1F3A
102
}
330
1F3A
100
AcDbScale
 70
     0
300
1:10
140
1.0
141
10.0
290
     0
  0
SCALE
  5
BF68
102
{ACAD_REACTORS
330
1F3A
102
}
330
1F3A
100
AcDbScale
 70
     0
300
1:10_Ebene1
140
1.0
141
10.001
290
     0
  0
SCALE
  5
BF69
102
{ACAD_REACTORS
330
1F3A
102
}
330
1F3A
100
AcDbScale
 70
     0
300
1:10_Ebene2
140
1.0
141
10.002
290
     0
  0
SCALE
  5
BF6A
102
{ACAD_REACTORS
330
1F3A
102
}
330
1F3A
100
AcDbScale
 70
     0
300
1:10_Ebene3
140
1.0
141
10.003
290
     0
  0
SCALE
  5
BF6B
102
{ACAD_REACTORS
330
1F3A
102
}
330
1F3A
100
AcDbScale
 70
     0
300
1:10_Ebene4
140
1.0
141
10.004
290
     0
  0
SCALE
  5
BF6C
102
{ACAD_REACTORS
330
1F3A
102
}
330
1F3A
100
AcDbScale
 70
     0
300
1:10_Ebene5
140
1.0
141
10.005
290
     0
  0
SCALE
  5
2735
102
{ACAD_REACTORS
330
1F3A
102
}
330
1F3A
100
AcDbScale
 70
     0
300
1:15
140
1.0
141
15.0
290
     0
  0
SCALE
  5
4F74
102
{ACAD_REACTORS
330
1F3A
102
}
330
1F3A
100
AcDbScale
 70
     0
300
1:20
140
1.0
141
20.0
290
     0
  0
SCALE
  5
BF6D
102
{ACAD_REACTORS
330
1F3A
102
}
330
1F3A
100
AcDbScale
 70
     0
300
1:20_Ebene1
140
1.0
141
20.001
290
     0
  0
SCALE
  5
BF6E
102
{ACAD_REACTORS
330
1F3A
102
}
330
1F3A
100
AcDbScale
 70
     0
300
1:20_Ebene2
140
1.0
141
20.002
290
     0
  0
SCALE
  5
BF6F
102
{ACAD_REACTORS
330
1F3A
102
}
330
1F3A
100
AcDbScale
 70
     0
300
1:20_Ebene3
140
1.0
141
20.003
290
     0
  0
SCALE
  5
BF70
102
{ACAD_REACTORS
330
1F3A
102
}
330
1F3A
100
AcDbScale
 70
     0
300
1:20_Ebene4
140
1.0
141
20.004
290
     0
  0
SCALE
  5
BF71
102
{ACAD_REACTORS
330
1F3A
102
}
330
1F3A
100
AcDbScale
 70
     0
300
1:20_Ebene5
140
1.0
141
20.005
290
     0
  0
SCALE
  5
BF72
102
{ACAD_REACTORS
330
1F3A
102
}
330
1F3A
100
AcDbScale
 70
     0
300
1:25
140
1.0
141
25.0
290
     0
  0
SCALE
  5
BF73
102
{ACAD_REACTORS
330
1F3A
102
}
330
1F3A
100
AcDbScale
 70
     0
300
1:30
140
1.0
141
30.0
290
     0
  0
SCALE
  5
BF74
102
{ACAD_REACTORS
330
1F3A
102
}
330
1F3A
100
AcDbScale
 70
     0
300
1:40
140
1.0
141
40.0
290
     0
  0
SCALE
  5
BF75
102
{ACAD_REACTORS
330
1F3A
102
}
330
1F3A
100
AcDbScale
 70
     0
300
1:50
140
1.0
141
50.0
290
     0
  0
SCALE
  5
BF76
102
{ACAD_REACTORS
330
1F3A
102
}
330
1F3A
100
AcDbScale
 70
     0
300
1:100
140
1.0
141
100.0
290
     0
  0
SCALE
  5
BF77
102
{ACAD_REACTORS
330
1F3A
102
}
330
1F3A
100
AcDbScale
 70
     0
300
1:200
140
1.0
141
200.0
290
     0
  0
SCALE
  5
BF78
102
{ACAD_REACTORS
330
1F3A
102
}
330
1F3A
100
AcDbScale
 70
     0
300
2:1
140
2.0
141
1.0
290
     0
  0
SCALE
  5
BF79
102
{ACAD_REACTORS
330
1F3A
102
}
330
1F3A
100
AcDbScale
 70
     0
300
10:1
140
10.0
141
1.0
290
     0
  0
ACDBSECTIONVIEWSTYLE
  5
4E0E
102
{ACAD_XDICTIONARY
360
5073
102
}
102
{ACAD_REACTORS
330
41D6
102
}
330
41D6
100
AcDbModelDocViewStyle
 70
     0
  3
Imperial24
290
     0
100
AcDbSectionViewStyle
 70
     0
 71
     0
 90
       78
 71
     1
340
10
 62
   256
 40
0.24
340
0
340
0
 62
   256
 40
0.24
300
I, O, Q, S, X, Z
 40
0.48
 90
        3
 40
0.18
 90
        1
 71
     2
340
15
 90
       25
 62
   256
340
15
 90
       50
 62
   256
 40
0.24
 40
0.0
 40
0.24
 71
     3
340
10
 62
   256
 40
0.24
 90
        1
 40
0.75
 90
        1
300
%<\AcVar ViewType \f "%tc1">% %<\AcVar ViewSectionStartId>%-%<\AcVar ViewSectionEndId>%\PVARIA %<\AcVar ViewScale \f "%sn">%
 71
     4
 62
   256
 62
   257
300
ANSI31
 40
1.0
 90
        0
290
     0
290
     0
 90
        6
 40
0.0
 40
1.570796326794896
 40
0.2617993877991494
 40
1.308996938995747
 40
-0.2617993877991494
 40
1.832595714594046
  0
ACDBSECTIONVIEWSTYLE
  5
41D7
102
{ACAD_XDICTIONARY
360
506F
102
}
102
{ACAD_REACTORS
330
41D6
102
}
330
41D6
100
AcDbModelDocViewStyle
 70
     0
  3
Metric50
290
     0
100
AcDbSectionViewStyle
 70
     0
 71
     0
 90
      102
 71
     1
340
10
 62
   256
 40
5.0
340
0
340
0
 62
   256
 40
5.0
300
I, O, Q, S, X, Z
 40
10.0
 90
        0
 40
2.5
 90
        0
 71
     2
340
15
 90
       25
 62
   256
340
15
 90
       50
 62
   256
 40
5.0
 40
2.5
 40
5.0
 71
     3
340
10
 62
   256
 40
5.0
 90
        0
 40
15.0
 90
        1
300
%<\AcVar ViewSectionStartId>%-%<\AcVar ViewSectionEndId>% (%<\AcVar ViewScale \f "%sn">%)
 71
     4
 62
   256
 62
   257
300
ANSI31
 40
1.0
 90
        0
290
     0
290
     0
 90
        6
 40
0.0
 40
1.570796326794896
 40
0.2617993877991494
 40
1.308996938995747
 40
-0.2617993877991494
 40
1.832595714594046
  0
TABLESTYLE
  5
3AF4
102
{ACAD_XDICTIONARY
360
3AF5
102
}
102
{ACAD_REACTORS
330
107E
102
}
330
107E
100
AcDbTableStyle
280
     0
  3
Standard
 70
     0
 71
     0
 40
1.5
 41
1.5
280
     0
281
     0
  7
STANDARD
140
2.5
170
     2
 62
   256
 63
     7
283
     0
 90
        4
 91
        0
  1

274
    -2
284
     1
 64
     0
275
    -2
285
     1
 65
     0
276
    -2
286
     1
 66
     0
277
    -2
287
     1
 67
     0
278
    -2
288
     1
 68
     0
279
    -2
289
     1
 69
     0
  7
STANDARD
140
4.0
170
     5
 62
   256
 63
     7
283
     0
 90
        4
 91
        0
  1

274
    -2
284
     1
 64
     0
275
    -2
285
     1
 65
     0
276
    -2
286
     1
 66
     0
277
    -2
287
     1
 67
     0
278
    -2
288
     1
 68
     0
279
    -2
289
     1
 69
     0
  7
STANDARD
140
3.5
170
     5
 62
   256
 63
     7
283
     0
 90
        4
 91
        0
  1

274
    -2
284
     1
 64
     0
275
    -2
285
     1
 65
     0
276
    -2
286
     1
 66
     0
277
    -2
287
     1
 67
     0
278
    -2
288
     1
 68
     0
279
    -2
289
     1
 69
     0
  0
TABLESTYLE
  5
107F
102
{ACAD_XDICTIONARY
360
2036
102
}
102
{ACAD_REACTORS
330
107E
102
}
330
107E
100
AcDbTableStyle
280
     0
  3
Standard
 70
     0
 71
     0
 40
1.25
 41
1.25
280
     0
281
     0
  7
STANDARD
140
2.0
170
     2
 62
     0
 63
     7
283
     0
 90
        4
 91
        0
  1

274
    -2
284
     1
 64
     0
275
    -2
285
     1
 65
     0
276
    -2
286
     1
 66
     0
277
    -2
287
     1
 67
     0
278
    -2
288
     1
 68
     0
279
    -2
289
     1
 69
     0
  7
STANDARD
140
3.0
170
     5
 62
     0
 63
     7
283
     0
 90
        4
 91
        0
  1

274
    -2
284
     1
 64
     0
275
    -2
285
     1
 65
     0
276
    -2
286
     1
 66
     0
277
    -2
287
     1
 67
     0
278
    -2
288
     1
 68
     0
279
    -2
289
     1
 69
     0
  7
STANDARD
140
2.5
170
     5
 62
     0
 63
     7
283
     0
 90
        4
 91
        0
  1

274
    -2
284
     1
 64
     0
275
    -2
285
     1
 65
     0
276
    -2
286
     1
 66
     0
277
    -2
287
     1
 67
     0
278
    -2
288
     1
 68
     0
279
    -2
289
     1
 69
     0
  0
VISUALSTYLE
  5
1BDF
102
{ACAD_XDICTIONARY
360
E793
102
}
102
{ACAD_REACTORS
330
1BD9
102
}
330
1BD9
100
AcDbVisualStyle
  2
2dWireframe
 70
     4
177
     2
291
     0
 71
     0
176
     1
 72
     2
176
     1
 73
     0
176
     1
 90
        0
176
     1
 40
0.6
176
     1
 41
30.0
176
     1
 63
     7
421
 16777215
176
     1
 74
     1
176
     1
 91
        4
176
     1
 64
     7
176
     1
 65
   257
176
     1
 75
     1
176
     1
175
     1
176
     1
 42
1.0
176
     1
 92
        0
176
     1
 66
   257
176
     1
 43
1.0
176
     1
 76
     1
176
     1
 77
     6
176
     1
 78
     2
176
     1
 67
     7
176
     1
 79
     5
176
     1
170
     0
176
     1
171
     0
176
     1
290
     0
176
     1
 93
        1
176
     1
 44
0.0
176
     1
173
     0
176
     1
1001
ACAD
1000
AcDbSavedByObjectVersion
1070
     0
  0
VISUALSTYLE
  5
1BE1
102
{ACAD_XDICTIONARY
360
E797
102
}
102
{ACAD_REACTORS
330
1BD9
102
}
330
1BD9
100
AcDbVisualStyle
  2
3D Hidden
 70
     6
177
     2
291
     0
 71
     1
176
     1
 72
     2
176
     1
 73
     2
176
     1
 90
        0
176
     1
 40
0.6
176
     1
 41
30.0
176
     1
 63
     7
421
 16777215
176
     1
 74
     2
176
     1
 91
        2
176
     1
 64
     7
176
     1
 65
   257
176
     1
 75
     2
176
     1
175
     1
176
     1
 42
40.0
176
     1
 92
        0
176
     1
 66
   257
176
     1
 43
1.0
176
     1
 76
     1
176
     1
 77
     6
176
     1
 78
     2
176
     1
 67
     7
176
     1
 79
     3
176
     1
170
     0
176
     1
171
     0
176
     1
290
     0
176
     1
 93
        1
176
     1
 44
0.0
176
     1
173
     0
176
     1
1001
ACAD
1000
AcDbSavedByObjectVersion
1070
     0
  0
VISUALSTYLE
  5
1BE0
102
{ACAD_XDICTIONARY
360
E795
102
}
102
{ACAD_REACTORS
330
1BD9
102
}
330
1BD9
100
AcDbVisualStyle
  2
3dWireframe
 70
     5
177
     2
291
     0
 71
     0
176
     1
 72
     2
176
     1
 73
     0
176
     1
 90
        0
176
     1
 40
0.6
176
     1
 41
30.0
176
     1
 63
     7
421
 16777215
176
     1
 74
     1
176
     1
 91
        4
176
     1
 64
     7
176
     1
 65
   257
176
     1
 75
     1
176
     1
175
     1
176
     1
 42
1.0
176
     1
 92
        0
176
     1
 66
   257
176
     1
 43
1.0
176
     1
 76
     1
176
     1
 77
     6
176
     1
 78
     2
176
     1
 67
     7
176
     1
 79
     5
176
     1
170
     0
176
     1
171
     0
176
     1
290
     0
176
     1
 93
        1
176
     1
 44
0.0
176
     1
173
     0
176
     1
1001
ACAD
1000
AcDbSavedByObjectVersion
1070
     0
  0
VISUALSTYLE
  5
1BDE
102
{ACAD_XDICTIONARY
360
E791
102
}
102
{ACAD_REACTORS
330
1BD9
102
}
330
1BD9
100
AcDbVisualStyle
  2
Basic
 70
     7
177
     2
291
     1
 71
     1
176
     1
 72
     0
176
     1
 73
     1
176
     1
 90
        0
176
     1
 40
0.6
176
     1
 41
30.0
176
     1
 63
     7
421
 16777215
176
     1
 74
     0
176
     1
 91
        4
176
     1
 64
     7
176
     1
 65
   257
176
     1
 75
     1
176
     1
175
     1
176
     1
 42
1.0
176
     1
 92
        8
176
     1
 66
     7
176
     1
 43
1.0
176
     1
 76
     1
176
     1
 77
     6
176
     1
 78
     2
176
     1
 67
     7
176
     1
 79
     5
176
     1
170
     0
176
     1
171
     0
176
     1
290
     0
176
     1
 93
        1
176
     1
 44
0.0
176
     1
173
     0
176
     1
1001
ACAD
1000
AcDbSavedByObjectVersion
1070
     0
  0
VISUALSTYLE
  5
1BE5
102
{ACAD_XDICTIONARY
360
E79F
102
}
102
{ACAD_REACTORS
330
1BD9
102
}
330
1BD9
100
AcDbVisualStyle
  2
Brighten
 70
    12
177
     2
291
     1
 71
     2
176
     1
 72
     2
176
     1
 73
     0
176
     1
 90
        0
176
     1
 40
0.6
176
     1
 41
30.0
176
     1
 63
     7
421
 16777215
176
     1
 74
     1
176
     1
 91
        4
176
     1
 64
     7
176
     1
 65
   257
176
     1
 75
     1
176
     1
175
     1
176
     1
 42
1.0
176
     1
 92
        8
176
     1
 66
     7
176
     1
 43
1.0
176
     1
 76
     1
176
     1
 77
     6
176
     1
 78
     2
176
     1
 67
     7
176
     1
 79
     5
176
     1
170
     0
176
     1
171
     0
176
     1
290
     0
176
     1
 93
        1
176
     1
 44
50.0
176
     1
173
     0
176
     1
1001
ACAD
1000
AcDbSavedByObjectVersion
1070
     0
  0
VISUALSTYLE
  5
1BE9
102
{ACAD_XDICTIONARY
360
E7A7
102
}
102
{ACAD_REACTORS
330
1BD9
102
}
330
1BD9
100
AcDbVisualStyle
  2
ColorChange
 70
    16
177
     2
291
     1
 71
     2
176
     1
 72
     2
176
     1
 73
     3
176
     1
 90
        0
176
     1
 40
0.6
176
     1
 41
30.0
176
     1
 63
     8
421
  8421504
176
     1
 74
     1
176
     1
 91
        4
176
     1
 64
     7
176
     1
 65
   257
176
     1
 75
     1
176
     1
175
     1
176
     1
 42
1.0
176
     1
 92
        8
176
     1
 66
     8
424
  8421504
176
     1
 43
1.0
176
     1
 76
     1
176
     1
 77
     6
176
     1
 78
     2
176
     1
 67
     7
176
     1
 79
     5
176
     1
170
     0
176
     1
171
     0
176
     1
290
     0
176
     1
 93
        1
176
     1
 44
0.0
176
     1
173
     0
176
     1
1001
ACAD
1000
AcDbSavedByObjectVersion
1070
     0
  0
VISUALSTYLE
  5
1BE2
102
{ACAD_XDICTIONARY
360
E799
102
}
102
{ACAD_REACTORS
330
1BD9
102
}
330
1BD9
100
AcDbVisualStyle
  2
Conceptual
 70
     9
177
     2
291
     0
 71
     3
176
     1
 72
     2
176
     1
 73
     0
176
     1
 90
        0
176
     1
 40
0.6
176
     1
 41
30.0
176
     1
 63
     7
421
 16777215
176
     1
 74
     2
176
     1
 91
        2
176
     1
 64
     7
176
     1
 65
   257
176
     1
 75
     1
176
     1
175
     1
176
     1
 42
40.0
176
     1
 92
        8
176
     1
 66
     7
176
     1
 43
1.0
176
     1
 76
     1
176
     1
 77
     6
176
     1
 78
     2
176
     1
 67
     7
176
     1
 79
     3
176
     1
170
     0
176
     1
171
     0
176
     1
290
     0
176
     1
 93
        1
176
     1
 44
0.0
176
     1
173
     0
176
     1
1001
ACAD
1000
AcDbSavedByObjectVersion
1070
     0
  0
VISUALSTYLE
  5
1BE4
102
{ACAD_XDICTIONARY
360
E79D
102
}
102
{ACAD_REACTORS
330
1BD9
102
}
330
1BD9
100
AcDbVisualStyle
  2
Dim
 70
    11
177
     2
291
     1
 71
     2
176
     1
 72
     2
176
     1
 73
     0
176
     1
 90
        0
176
     1
 40
0.6
176
     1
 41
30.0
176
     1
 63
     7
421
 16777215
176
     1
 74
     1
176
     1
 91
        4
176
     1
 64
     7
176
     1
 65
   257
176
     1
 75
     1
176
     1
175
     1
176
     1
 42
1.0
176
     1
 92
        8
176
     1
 66
     7
176
     1
 43
1.0
176
     1
 76
     1
176
     1
 77
     6
176
     1
 78
     2
176
     1
 67
     7
176
     1
 79
     5
176
     1
170
     0
176
     1
171
     0
176
     1
290
     0
176
     1
 93
        1
176
     1
 44
-50.0
176
     1
173
     0
176
     1
1001
ACAD
1000
AcDbSavedByObjectVersion
1070
     0
  0
VISUALSTYLE
  5
2595
102
{ACAD_XDICTIONARY
360
E7AD
102
}
102
{ACAD_REACTORS
330
1BD9
102
}
330
1BD9
100
AcDbVisualStyle
  2
EdgeColorOff
 70
    22
177
     2
291
     1
 71
     2
176
     0
 72
     2
176
     0
 73
     0
176
     0
 90
        0
176
     0
 40
0.6
176
     0
 41
30.0
176
     0
 63
     7
421
 16777215
176
     0
 74
     1
176
     0
 91
        4
176
     0
 64
     7
176
     0
 65
   257
176
     0
 75
     1
176
     0
175
     1
176
     0
 42
1.0
176
     0
 92
        8
176
     2
 66
     7
176
     0
 43
1.0
176
     0
 76
     1
176
     0
 77
     6
176
     0
 78
     2
176
     0
 67
     7
176
     0
 79
     5
176
     0
170
     0
176
     0
171
     0
176
     0
290
     0
176
     0
 93
        1
176
     0
 44
0.0
176
     0
173
     0
176
     0
1001
ACAD
1000
AcDbSavedByObjectVersion
1070
     0
  0
VISUALSTYLE
  5
1BE8
102
{ACAD_XDICTIONARY
360
E7A5
102
}
102
{ACAD_REACTORS
330
1BD9
102
}
330
1BD9
100
AcDbVisualStyle
  2
Facepattern
 70
    15
177
     2
291
     1
 71
     2
176
     1
 72
     2
176
     1
 73
     0
176
     1
 90
        0
176
     1
 40
0.6
176
     1
 41
30.0
176
     1
 63
     7
421
 16777215
176
     1
 74
     1
176
     1
 91
        4
176
     1
 64
     7
176
     1
 65
   257
176
     1
 75
     1
176
     1
175
     1
176
     1
 42
1.0
176
     1
 92
        8
176
     1
 66
     7
176
     1
 43
1.0
176
     1
 76
     1
176
     1
 77
     6
176
     1
 78
     2
176
     1
 67
     7
176
     1
 79
     5
176
     1
170
     0
176
     1
171
     0
176
     1
290
     0
176
     1
 93
        1
176
     1
 44
0.0
176
     1
173
     0
176
     1
1001
ACAD
1000
AcDbSavedByObjectVersion
1070
     0
  0
VISUALSTYLE
  5
1BDA
102
{ACAD_XDICTIONARY
360
E789
102
}
102
{ACAD_REACTORS
330
1BD9
102
}
330
1BD9
100
AcDbVisualStyle
  2
Flat
 70
     0
177
     2
291
     1
 71
     2
176
     1
 72
     1
176
     1
 73
     1
176
     1
 90
        2
176
     1
 40
0.6
176
     1
 41
30.0
176
     1
 63
     7
421
 16777215
176
     1
 74
     0
176
     1
 91
        4
176
     1
 64
     7
176
     1
 65
   257
176
     1
 75
     1
176
     1
175
     1
176
     1
 42
1.0
176
     1
 92
        8
176
     1
 66
     7
176
     1
 43
1.0
176
     1
 76
     1
176
     1
 77
     6
176
     1
 78
     2
176
     1
 67
     7
176
     1
 79
     5
176
     1
170
     0
176
     1
171
     0
176
     1
290
     0
176
     1
 93
       13
176
     1
 44
0.0
176
     1
173
     0
176
     1
1001
ACAD
1000
AcDbSavedByObjectVersion
1070
     0
  0
VISUALSTYLE
  5
1BDB
102
{ACAD_XDICTIONARY
360
E78B
102
}
102
{ACAD_REACTORS
330
1BD9
102
}
330
1BD9
100
AcDbVisualStyle
  2
FlatWithEdges
 70
     1
177
     2
291
     1
 71
     2
176
     1
 72
     1
176
     1
 73
     1
176
     1
 90
        2
176
     1
 40
0.6
176
     1
 41
30.0
176
     1
 63
     7
421
 16777215
176
     1
 74
     1
176
     1
 91
        4
176
     1
 64
     7
176
     1
 65
   257
176
     1
 75
     1
176
     1
175
     1
176
     1
 42
1.0
176
     1
 92
        0
176
     1
 66
   257
176
     1
 43
1.0
176
     1
 76
     1
176
     1
 77
     6
176
     1
 78
     2
176
     1
 67
     7
176
     1
 79
     5
176
     1
170
     0
176
     1
171
     0
176
     1
290
     0
176
     1
 93
       13
176
     1
 44
0.0
176
     1
173
     0
176
     1
1001
ACAD
1000
AcDbSavedByObjectVersion
1070
     0
  0
VISUALSTYLE
  5
1BDC
102
{ACAD_XDICTIONARY
360
E78D
102
}
102
{ACAD_REACTORS
330
1BD9
102
}
330
1BD9
100
AcDbVisualStyle
  2
Gouraud
 70
     2
177
     2
291
     1
 71
     2
176
     1
 72
     2
176
     1
 73
     1
176
     1
 90
        2
176
     1
 40
0.6
176
     1
 41
30.0
176
     1
 63
     7
421
 16777215
176
     1
 74
     0
176
     1
 91
        4
176
     1
 64
     7
176
     1
 65
   257
176
     1
 75
     1
176
     1
175
     1
176
     1
 42
1.0
176
     1
 92
        0
176
     1
 66
     7
176
     1
 43
1.0
176
     1
 76
     1
176
     1
 77
     6
176
     1
 78
     2
176
     1
 67
     7
176
     1
 79
     5
176
     1
170
     0
176
     1
171
     0
176
     1
290
     0
176
     1
 93
       13
176
     1
 44
0.0
176
     1
173
     0
176
     1
1001
ACAD
1000
AcDbSavedByObjectVersion
1070
     0
  0
VISUALSTYLE
  5
1BDD
102
{ACAD_XDICTIONARY
360
E78F
102
}
102
{ACAD_REACTORS
330
1BD9
102
}
330
1BD9
100
AcDbVisualStyle
  2
GouraudWithEdges
 70
     3
177
     2
291
     1
 71
     2
176
     1
 72
     2
176
     1
 73
     1
176
     1
 90
        2
176
     1
 40
0.6
176
     1
 41
30.0
176
     1
 63
     7
421
 16777215
176
     1
 74
     1
176
     1
 91
        4
176
     1
 64
     7
176
     1
 65
   257
176
     1
 75
     1
176
     1
175
     1
176
     1
 42
1.0
176
     1
 92
        0
176
     1
 66
   257
176
     1
 43
1.0
176
     1
 76
     1
176
     1
 77
     6
176
     1
 78
     2
176
     1
 67
     7
176
     1
 79
     5
176
     1
170
     0
176
     1
171
     0
176
     1
290
     0
176
     1
 93
       13
176
     1
 44
0.0
176
     1
173
     0
176
     1
1001
ACAD
1000
AcDbSavedByObjectVersion
1070
     0
  0
VISUALSTYLE
  5
2DD0
102
{ACAD_XDICTIONARY
360
E7B1
102
}
102
{ACAD_REACTORS
330
1BD9
102
}
330
1BD9
100
AcDbVisualStyle
  2
Hidden
 70
     6
177
     2
291
     0
 71
     1
176
     1
 72
     2
176
     1
 73
     2
176
     1
 90
        0
176
     1
 40
0.6
176
     1
 41
30.0
176
     1
 63
     7
421
 16777215
176
     1
 74
     2
176
     1
 91
        6
176
     1
 64
     7
176
     1
 65
   257
176
     1
 75
     2
176
     1
175
     1
176
     1
 42
40.0
176
     1
 92
        0
176
     1
 66
   257
176
     1
 43
1.0
176
     1
 76
     1
176
     1
 77
     6
176
     1
 78
     2
176
     1
 67
     7
176
     1
 79
     3
176
     1
170
     0
176
     1
171
     0
176
     1
290
     0
176
     1
 93
        1
176
     1
 44
0.0
176
     1
173
     0
176
     1
1001
ACAD
1000
AcDbSavedByObjectVersion
1070
     0
  0
VISUALSTYLE
  5
2593
102
{ACAD_XDICTIONARY
360
E7A9
102
}
102
{ACAD_REACTORS
330
1BD9
102
}
330
1BD9
100
AcDbVisualStyle
  2
JitterOff
 70
    20
177
     2
291
     1
 71
     2
176
     0
 72
     2
176
     0
 73
     0
176
     0
 90
        0
176
     0
 40
0.6
176
     0
 41
30.0
176
     0
 63
     7
421
 16777215
176
     0
 74
     1
176
     0
 91
        4
176
     0
 64
     7
176
     0
 65
   257
176
     0
 75
     1
176
     0
175
     1
176
     0
 42
1.0
176
     0
 92
       10
176
     2
 66
     7
176
     0
 43
1.0
176
     0
 76
     1
176
     0
 77
     6
176
     0
 78
     2
176
     0
 67
     7
176
     0
 79
     5
176
     0
170
     0
176
     0
171
     0
176
     0
290
     0
176
     0
 93
        1
176
     0
 44
0.0
176
     0
173
     0
176
     0
1001
ACAD
1000
AcDbSavedByObjectVersion
1070
     0
  0
VISUALSTYLE
  5
1BE7
102
{ACAD_XDICTIONARY
360
E7A3
102
}
102
{ACAD_REACTORS
330
1BD9
102
}
330
1BD9
100
AcDbVisualStyle
  2
Linepattern
 70
    14
177
     2
291
     1
 71
     2
176
     1
 72
     2
176
     1
 73
     0
176
     1
 90
        0
176
     1
 40
0.6
176
     1
 41
30.0
176
     1
 63
     7
421
 16777215
176
     1
 74
     1
176
     1
 91
        4
176
     1
 64
     7
176
     1
 65
   257
176
     1
 75
     7
176
     1
175
     7
176
     1
 42
1.0
176
     1
 92
        8
176
     1
 66
     7
176
     1
 43
1.0
176
     1
 76
     1
176
     1
 77
     6
176
     1
 78
     2
176
     1
 67
     7
176
     1
 79
     5
176
     1
170
     0
176
     1
171
     0
176
     1
290
     0
176
     1
 93
        1
176
     1
 44
0.0
176
     1
173
     0
176
     1
1001
ACAD
1000
AcDbSavedByObjectVersion
1070
     0
  0
VISUALSTYLE
  5
2594
102
{ACAD_XDICTIONARY
360
E7AB
102
}
102
{ACAD_REACTORS
330
1BD9
102
}
330
1BD9
100
AcDbVisualStyle
  2
OverhangOff
 70
    21
177
     2
291
     1
 71
     2
176
     0
 72
     2
176
     0
 73
     0
176
     0
 90
        0
176
     0
 40
0.6
176
     0
 41
30.0
176
     0
 63
     7
421
 16777215
176
     0
 74
     1
176
     0
 91
        4
176
     0
 64
     7
176
     0
 65
   257
176
     0
 75
     1
176
     0
175
     1
176
     0
 42
1.0
176
     0
 92
        9
176
     2
 66
     7
176
     0
 43
1.0
176
     0
 76
     1
176
     0
 77
     6
176
     0
 78
     2
176
     0
 67
     7
176
     0
 79
     5
176
     0
170
     0
176
     0
171
     0
176
     0
290
     0
176
     0
 93
        1
176
     0
 44
0.0
176
     0
173
     0
176
     0
1001
ACAD
1000
AcDbSavedByObjectVersion
1070
     0
  0
VISUALSTYLE
  5
1BE3
102
{ACAD_XDICTIONARY
360
E79B
102
}
102
{ACAD_REACTORS
330
1BD9
102
}
330
1BD9
100
AcDbVisualStyle
  2
Realistic
 70
     8
177
     2
291
     0
 71
     2
176
     1
 72
     2
176
     1
 73
     0
176
     1
 90
        0
176
     1
 40
0.6
176
     1
 41
30.0
176
     1
 63
     7
421
 16777215
176
     1
 74
     1
176
     1
 91
        0
176
     1
 64
     7
176
     1
 65
   257
176
     1
 75
     1
176
     1
175
     1
176
     1
 42
1.0
176
     1
 92
        8
176
     1
 66
     8
424
  7895160
176
     1
 43
1.0
176
     1
 76
     1
176
     1
 77
     6
176
     1
 78
     2
176
     1
 67
     7
176
     1
 79
     5
176
     1
170
     0
176
     1
171
     0
176
     1
290
     0
176
     1
 93
       13
176
     1
 44
0.0
176
     1
173
     0
176
     1
1001
ACAD
1000
AcDbSavedByObjectVersion
1070
     0
  0
VISUALSTYLE
  5
2DD5
102
{ACAD_XDICTIONARY
360
E7BB
102
}
102
{ACAD_REACTORS
330
1BD9
102
}
330
1BD9
100
AcDbVisualStyle
  2
Shaded
 70
    27
177
     2
291
     0
 71
     2
176
     1
 72
     2
176
     1
 73
     1
176
     1
 90
        2
176
     1
 40
0.6
176
     1
 41
30.0
176
     1
 63
     7
421
 16777215
176
     1
 74
     0
176
     1
 91
        4
176
     1
 64
     7
176
     1
 65
   257
176
     1
 75
     1
176
     1
175
     1
176
     1
 42
1.0
176
     1
 92
        8
176
     1
 66
   257
176
     1
 43
1.0
176
     1
 76
     1
176
     1
 77
     6
176
     1
 78
     2
176
     1
 67
     8
425
  7895160
176
     1
 79
     3
176
     1
170
     0
176
     1
171
     0
176
     1
290
     0
176
     1
 93
        5
176
     1
 44
0.0
176
     1
173
     0
176
     1
1001
ACAD
1000
AcDbSavedByObjectVersion
1070
     0
  0
VISUALSTYLE
  5
2DD4
102
{ACAD_XDICTIONARY
360
E7B9
102
}
102
{ACAD_REACTORS
330
1BD9
102
}
330
1BD9
100
AcDbVisualStyle
  2
Shaded with edges
 70
    26
177
     2
291
     0
 71
     2
176
     1
 72
     2
176
     1
 73
     1
176
     1
 90
        2
176
     1
 40
0.6
176
     1
 41
30.0
176
     1
 63
     7
421
 16777215
176
     1
 74
     1
176
     1
 91
       10
176
     1
 64
     7
176
     1
 65
   257
176
     1
 75
     2
176
     1
175
     1
176
     1
 42
1.0
176
     1
 92
        8
176
     1
 66
   257
176
     1
 43
1.0
176
     1
 76
     1
176
     1
 77
     6
176
     1
 78
     2
176
     1
 67
     7
176
     1
 79
     3
176
     1
170
     0
176
     1
171
     0
176
     1
290
     0
176
     1
 93
        5
176
     1
 44
0.0
176
     1
173
     0
176
     1
1001
ACAD
1000
AcDbSavedByObjectVersion
1070
     0
  0
VISUALSTYLE
  5
2DD1
102
{ACAD_XDICTIONARY
360
E7B3
102
}
102
{ACAD_REACTORS
330
1BD9
102
}
330
1BD9
100
AcDbVisualStyle
  2
Shades of Gray
 70
    23
177
     2
291
     0
 71
     2
176
     1
 72
     2
176
     1
 73
     3
176
     1
 90
        0
176
     1
 40
0.6
176
     1
 41
30.0
176
     1
 63
     7
421
 16777215
176
     1
 74
     2
176
     1
 91
        2
176
     1
 64
     7
176
     1
 65
     7
176
     1
 75
     1
176
     1
175
     1
176
     1
 42
40.0
176
     1
 92
        8
176
     1
 66
     7
176
     1
 43
1.0
176
     1
 76
     1
176
     1
 77
     6
176
     1
 78
     2
176
     1
 67
     7
176
     1
 79
     3
176
     1
170
     0
176
     1
171
     0
176
     1
290
     0
176
     1
 93
        1
176
     1
 44
0.0
176
     1
173
     0
176
     1
1001
ACAD
1000
AcDbSavedByObjectVersion
1070
     0
  0
VISUALSTYLE
  5
2DD2
102
{ACAD_XDICTIONARY
360
E7B5
102
}
102
{ACAD_REACTORS
330
1BD9
102
}
330
1BD9
100
AcDbVisualStyle
  2
Sketchy
 70
    24
177
     2
291
     0
 71
     1
176
     1
 72
     2
176
     1
 73
     2
176
     1
 90
        0
176
     1
 40
0.6
176
     1
 41
30.0
176
     1
 63
     7
421
 16777215
176
     1
 74
     2
176
     1
 91
        2
176
     1
 64
     7
176
     1
 65
     7
176
     1
 75
     1
176
     1
175
     1
176
     1
 42
40.0
176
     1
 92
       11
176
     1
 66
     7
176
     1
 43
1.0
176
     1
 76
     1
176
     1
 77
     6
176
     1
 78
     2
176
     1
 67
     7
176
     1
 79
     6
176
     1
170
     0
176
     1
171
     0
176
     1
290
     0
176
     1
 93
        1
176
     1
 44
0.0
176
     1
173
     0
176
     1
1001
ACAD
1000
AcDbSavedByObjectVersion
1070
     0
  0
VISUALSTYLE
  5
1BE6
102
{ACAD_XDICTIONARY
360
E7A1
102
}
102
{ACAD_REACTORS
330
1BD9
102
}
330
1BD9
100
AcDbVisualStyle
  2
Thicken
 70
    13
177
     2
291
     1
 71
     2
176
     1
 72
     2
176
     1
 73
     0
176
     1
 90
        0
176
     1
 40
0.6
176
     1
 41
30.0
176
     1
 63
     7
421
 16777215
176
     1
 74
     1
176
     1
 91
        4
176
     1
 64
     7
176
     1
 65
   257
176
     1
 75
     1
176
     1
175
     1
176
     1
 42
1.0
176
     1
 92
       12
176
     1
 66
     7
176
     1
 43
1.0
176
     1
 76
     1
176
     1
 77
     6
176
     1
 78
     2
176
     1
 67
     7
176
     1
 79
     5
176
     1
170
     0
176
     1
171
     0
176
     1
290
     0
176
     1
 93
        1
176
     1
 44
0.0
176
     1
173
     0
176
     1
1001
ACAD
1000
AcDbSavedByObjectVersion
1070
     0
  0
VISUALSTYLE
  5
2DCF
102
{ACAD_XDICTIONARY
360
E7AF
102
}
102
{ACAD_REACTORS
330
1BD9
102
}
330
1BD9
100
AcDbVisualStyle
  2
Wireframe
 70
     5
177
     2
291
     0
 71
     0
176
     1
 72
     2
176
     1
 73
     0
176
     1
 90
        0
176
     1
 40
0.6
176
     1
 41
30.0
176
     1
 63
     7
421
 16777215
176
     1
 74
     1
176
     1
 91
        4
176
     1
 64
     7
176
     1
 65
   257
176
     1
 75
     1
176
     1
175
     1
176
     1
 42
1.0
176
     1
 92
        0
176
     1
 66
   257
176
     1
 43
1.0
176
     1
 76
     1
176
     1
 77
     6
176
     1
 78
     2
176
     1
 67
     7
176
     1
 79
     3
176
     1
170
     0
176
     1
171
     0
176
     1
290
     0
176
     1
 93
        1
176
     1
 44
0.0
176
     1
173
     0
176
     1
1001
ACAD
1000
AcDbSavedByObjectVersion
1070
     0
  0
VISUALSTYLE
  5
2DD3
102
{ACAD_XDICTIONARY
360
E7B7
102
}
102
{ACAD_REACTORS
330
1BD9
102
}
330
1BD9
100
AcDbVisualStyle
  2
X-Ray
 70
    25
177
     2
291
     0
 71
     2
176
     1
 72
     2
176
     1
 73
     1
176
     1
 90
        1
176
     1
 40
0.5
176
     1
 41
30.0
176
     1
 63
     7
421
 16777215
176
     1
 74
     1
176
     1
 91
        0
176
     1
 64
     7
176
     1
 65
   257
176
     1
 75
     1
176
     1
175
     1
176
     1
 42
1.0
176
     1
 92
        8
176
     1
 66
     7
176
     1
 43
1.0
176
     1
 76
     1
176
     1
 77
     6
176
     1
 78
     2
176
     1
 67
     7
176
     1
 79
     3
176
     1
170
     0
176
     1
171
     0
176
     1
290
     0
176
     1
 93
       13
176
     1
 44
0.0
176
     1
173
     0
176
     1
1001
ACAD
1000
AcDbSavedByObjectVersion
1070
     0
  0
DICTIONARYVAR
  5
203F
102
{ACAD_REACTORS
330
4A3
102
}
330
4A3
100
DictionaryVariables
280
     0
  1
1:1
  0
DICTIONARYVAR
  5
203D
102
{ACAD_REACTORS
330
4A3
102
}
330
4A3
100
DictionaryVariables
280
     0
  1
STANDARD
  0
DICTIONARYVAR
  5
10F5
102
{ACAD_REACTORS
330
4A3
102
}
330
4A3
100
DictionaryVariables
280
     0
  1
RK Menü 1
  0
DICTIONARYVAR
  5
46C1
102
{ACAD_REACTORS
330
4A3
102
}
330
4A3
100
DictionaryVariables
280
     0
  1
Metric50
  0
DICTIONARYVAR
  5
46C2
102
{ACAD_REACTORS
330
4A3
102
}
330
4A3
100
DictionaryVariables
280
     0
  1
Metric50
  0
DICTIONARYVAR
  5
BD8
102
{ACAD_REACTORS
330
4A3
102
}
330
4A3
100
DictionaryVariables
280
     0
  1
1
  0
DICTIONARYVAR
  5
2072
102
{ACAD_REACTORS
330
4A3
102
}
330
4A3
100
DictionaryVariables
280
     0
  1
1
  0
DICTIONARYVAR
  5
2073
102
{ACAD_REACTORS
330
4A3
102
}
330
4A3
100
DictionaryVariables
280
     0
  1
15
  0
DICTIONARYVAR
  5
2040
102
{ACAD_REACTORS
330
4A3
102
}
330
4A3
100
DictionaryVariables
280
     0
  1
0
  0
DICTIONARYVAR
  5
31EB
102
{ACAD_REACTORS
330
4A3
102
}
330
4A3
100
DictionaryVariables
280
     0
  1
1
  0
DICTIONARYVAR
  5
203E
102
{ACAD_REACTORS
330
4A3
102
}
330
4A3
100
DictionaryVariables
280
     0
  1
0
  0
DICTIONARYVAR
  5
4A4
102
{ACAD_REACTORS
330
4A3
102
}
330
4A3
100
DictionaryVariables
280
     0
  1
97
  0
DICTIONARY
  5
E788
102
{ACAD_REACTORS
330
E786
102
}
330
E786
100
AcDbDictionary
281
     1
  0
DICTIONARY
  5
E787
102
{ACAD_REACTORS
330
E786
102
}
330
E786
100
AcDbDictionary
281
     1
  3
140686313881232
350
E781
  3
140686313881248
350
E782
  3
140686313881264
350
E783
  3
140686313881280
350
E784
  3
140686313881296
350
E785
  0
XRECORD
  5
28ED
102
{ACAD_REACTORS
330
28EC
102
}
330
28EC
100
AcDbXrecord
280
     1
300
Bemaßungsstile
301
2.0
302
Überprüfen, ob Namen und Eigenschaften von Bemaßungsstilen einer Zeichnung mit denen der zugehörigen Standardsdatei übereinstimmen.
303
Autodesk, Inc.
304
http://www.autodesk.com
  0
XRECORD
  5
28EE
102
{ACAD_REACTORS
330
28EC
102
}
330
28EC
100
AcDbXrecord
280
     1
300
Layer
301
2.0
302
Überprüft, ob Namen und Eigenschaften von Layers in einer Zeichnung denen der zugehörigen Standardsdatei entsprechen.
303
Autodesk, Inc.
304
http://www.autodesk.com
  0
XRECORD
  5
28EF
102
{ACAD_REACTORS
330
28EC
102
}
330
28EC
100
AcDbXrecord
280
     1
300
Linientypen
301
2.0
302
Überprüft, ob Namen und Eigenschaften von Linientypen einer Zeichnung mit denen der zugehörigen Standardsdatei übereinstimmen.
303
Autodesk, Inc.
304
http://www.autodesk.com
  0
XRECORD
  5
28F0
102
{ACAD_REACTORS
330
28EC
102
}
330
28EC
100
AcDbXrecord
280
     1
300
Textstile
301
2.0
302
Überprüft, ob Namen und Eigenschaften von Textstilen einer Zeichnung mit denen der zugehörigen Standardsdatei übereinstimmen.
303
Autodesk, Inc.
304
http://www.autodesk.com
  0
XRECORD
  5
DFBF
102
{ACAD_REACTORS
330
DFBE
102
}
330
DFBE
100
AcDbXrecord
280
     1
 70
    -1
  0
XRECORD
  5
25CB
102
{ACAD_XDICTIONARY
360
25CC
102
}
102
{ACAD_REACTORS
330
11DC
102
}
330
11DC
100
AcDbXrecord
280
     1
 91
     1023
301
für Export z.B. in Word
290
     0
302
V1_035
330
0
 90
        8
 62
     7
370
    -3
331
15
  1
Color_10
330
0
 90
        8
 62
     7
370
    50
331
0
  1
Color_7
330
0
 90
        8
 62
     7
370
    50
331
0
  1
Color_7
330
0
 90
        8
 62
     7
370
    50
331
15
  1
Color_7
330
0
 90
        8
 62
     7
370
    -3
331
15
  1
Color_9
330
0
 90
        8
 62
     7
370
    -3
331
15
  1
Color_141
330
0
 90
        8
 62
     7
370
    35
331
15
  1
Color_101
330
0
 90
        8
 62
     7
370
    25
331
15
  1
Color_1
330
0
 90
        8
 62
     7
370
    -3
331
15
  1
Color_5
330
0
 90
        8
 62
     7
370
    -3
331
15
  1
Color_20
330
0
 90
        8
 62
     7
370
    -3
331
15
  1
Color_20
330
0
 90
        8
 62
     7
370
    70
331
15
  1
Color_6
330
0
 90
        8
 62
     7
370
    -3
331
15
  1
Color_10
330
0
 90
        8
 62
     7
370
    35
331
15
  1
Color_7
330
0
 90
        8
 62
     7
370
    -3
331
15
  1
Color_140
330
0
 90
        8
 62
     7
370
    -3
331
15
  1
Color_130
330
0
 90
        8
 62
     7
370
    -3
331
15
  1
Color_253
330
0
 90
        8
 62
     7
370
    -3
331
15
  1
Color_9
330
0
 90
        0
 62
     7
370
    -3
331
15
  1
Color_10
330
0
 90
        8
 62
     7
370
    -3
331
15
  1
Color_152
330
0
 90
        8
 62
     7
370
    -3
331
15
  1
Color_7
330
0
 90
        8
 62
     7
370
    -3
331
15
  1
Color_142
330
0
 90
        8
 62
     7
370
    -3
331
15
  1
Color_10
330
0
 90
        8
 62
     7
370
    -3
331
15
  1
Color_10
330
0
 90
        8
 62
     7
370
    -3
331
15
  1
Color_10
330
0
 90
        8
 62
     7
370
    35
331
0
  1
Color_104
330
0
 90
        8
 62
     7
370
    35
331
0
  1
Color_104
330
0
 90
        8
 62
     7
370
    25
331
0
  1
Color_142
330
0
 90
        8
 62
     7
370
    35
331
0
  1
Color_104
330
0
 90
        8
 62
     7
370
    25
331
0
  1
Color_142
330
0
 90
        8
 62
     7
370
   100
331
15
  1
Color_12
330
0
 90
        8
 62
     7
370
    35
331
15
  1
Color_7
330
0
 90
        8
 62
     7
370
    25
331
15
  1
Color_142
330
0
 90
        0
 62
     7
370
    -3
331
15
  1
Color_9
330
0
 90
        8
 62
     7
370
    35
331
15
  1
Color_104
330
F
 90
        8
 62
     7
370
    -3
331
15
  1
Color_7
330
0
 90
        8
 62
     7
370
    -3
331
15
  1
Color_10
330
0
 90
        8
 62
     7
370
    -3
331
15
  1
Color_10
330
0
 90
        8
 62
     7
370
    -3
331
0
  1
Color_7
330
0
 90
        8
 62
     7
370
    35
331
15
  1
Color_42
440
        0
330
0
 90
        8
 62
     7
370
    35
331
15
  1
Color_62
440
        0
330
0
 90
        8
 62
     7
370
    35
331
15
  1
Color_122
440
        0
330
0
 90
        8
 62
     7
370
    35
331
15
  1
Color_142
440
        0
330
0
 90
        8
 62
     7
370
    35
331
15
  1
Color_242
440
        0
330
0
 90
        8
 62
     7
370
    -3
331
15
  1
Color_253
440
        0
330
0
 90
        8
 62
     7
370
     9
331
15
  1
Color_11
440
        0
330
0
 90
        8
 62
     7
370
    -3
331
15
  1
Color_7
440
        0
330
0
 90
        8
 62
     7
370
     9
331
0
  1
Color_222
440
        0
330
0
 90
        8
 62
     7
370
    13
331
15
  1
Color_21
440
        0
330
0
 90
        8
 62
     7
370
    13
331
15
  1
Color_21
440
        0
330
0
 90
        8
 62
     7
370
    -3
331
15
  1
Color_10
440
        0
330
0
 90
        8
 62
     7
370
    -3
331
15
  1
Color_10
440
        0
330
0
 90
        8
 62
     7
370
    -3
331
15
  1
Color_10
440
        0
330
0
 90
        8
 62
     7
370
    -3
331
15
  1
Color_10
440
        0
330
0
 90
        8
 62
     7
370
    -3
331
15
  1
Color_10
440
        0
330
0
 90
        8
 62
     7
370
    -3
331
15
  1
Color_10
440
        0
330
0
 90
        8
 62
     7
370
    -3
331
15
  1
Color_7
440
        0
330
0
 90
        8
 62
     7
370
    -3
331
15
  1
Color_253
440
        0
330
0
 90
        8
 62
     7
370
    30
331
0
  1
Color_220
440
        0
330
0
 90
        8
 62
     7
370
    -3
331
15
  1
Color_7
440
        0
330
0
 90
        8
 62
     7
370
    25
331
15
  1
Color_9
440
        0
330
0
 90
        8
 62
     7
370
    35
331
15
  1
Color_101
440
        0
330
0
 90
        8
 62
     7
370
    -3
331
15
  1
Color_141
440
        0
330
0
 90
        8
 62
     7
370
    -3
331
15
  1
Color_9
440
        0
330
0
 90
        8
 62
     7
370
    13
331
15
  1
Color_21
440
        0
330
0
 90
        8
 62
     7
370
    13
331
15
  1
Color_21
440
        0
330
0
 90
        8
 62
     7
370
    -3
331
15
  1
Color_9
440
        0
330
0
 90
        8
 62
     7
370
    -3
331
15
  1
Color_9
440
        0
330
0
 90
        8
 62
     7
370
    25
331
0
  1
Color_4
440
        0
330
0
 90
        8
 62
     7
370
    35
331
0
  1
Color_3
440
        0
330
0
 90
        8
 62
     7
370
    50
331
0
  1
Color_14
440
        0
330
0
 90
        8
 62
     7
370
    35
331
0
  1
Color_3
440
        0
330
0
 90
        8
 62
     7
370
    25
331
0
  1
Color_4
440
        0
330
0
 90
        8
 62
     7
370
    35
331
0
  1
Color_3
440
        0
330
0
 90
        8
 62
     7
370
    -3
331
15
  1
Color_2
440
        0
330
0
 90
        8
 62
     7
370
    -3
331
15
  1
Color_2
440
        0
330
0
 90
        8
 62
     7
370
     9
331
15
  1
Color_11
440
        0
330
0
 90
        8
 62
     7
370
    25
331
15
  1
Color_4
440
        0
330
0
 90
        8
 62
     7
370
    70
331
15
  1
Color_6
440
        0
330
0
 90
        8
 62
     7
370
    35
331
15
  1
Color_7
440
        0
330
0
 90
        8
 62
     7
370
    25
331
15
  1
Color_122
440
        0
330
0
 90
        8
 62
     7
370
    25
331
15
  1
Color_133
440
        0
330
0
 90
        8
 62
     7
370
    25
331
15
  1
Color_101
440
        0
330
0
 90
        8
 62
     7
370
    -3
331
0
  1
Color_7
440
        0
330
0
 90
        8
 62
     7
370
    35
331
15
  1
Color_42
440
        0
330
0
 90
        8
 62
     7
370
    35
331
15
  1
Color_62
440
        0
330
0
 90
        8
 62
     7
370
    35
331
15
  1
Color_122
440
        0
330
0
 90
        8
 62
     7
370
    35
331
15
  1
Color_142
440
        0
330
0
 90
        8
 62
     7
370
    35
331
15
  1
Color_242
440
        0
  0
XRECORD
  5
5214
102
{ACAD_REACTORS
330
11DC
102
}
330
11DC
100
AcDbXrecord
280
     1
 91
     2047
301

290
     0
302
BESCHRIFTUNG
  8
EBENE_5
 90
        8
 62
   242
370
    35
331
15
  1
Color_242
440
        0
  8
EBENE_4
 90
        8
 62
   142
370
    35
331
15
  1
Color_142
440
        0
  8
EBENE_3
 90
        8
 62
   122
370
    35
331
15
  1
Color_122
440
        0
  8
EBENE_2
 90
        8
 62
    62
370
    35
331
15
  1
Color_62
440
        0
  8
EBENE_1
 90
        8
 62
    42
370
    35
331
15
  1
Color_42
440
        0
  8
V3_SANITÄR
 90
        8
 62
    93
370
    25
331
15
  1
Color_93
440
        0
  8
V3_LÜFTUNG
 90
        8
 62
   121
370
    25
331
15
  1
Color_121
440
        0
  8
V3_ELEKTRO
 90
        8
 62
    41
370
    25
331
15
  1
Color_41
440
        0
  8
POS-NR_10
 90
        8
 62
    21
370
    13
331
15
  1
Color_21
440
        0
  8
POS-NR_1
 90
        8
 62
    21
370
    13
331
15
  1
Color_21
440
        0
  8
H2_HILFSLINIE
 90
        8
 62
   220
370
    30
331
0
  1
Color_220
440
        0
  8
V1_010
 90
        8
 62
    11
370
     9
331
15
  1
Color_11
440
        0
  8
SCHRAFFUR_10
 90
        8
 62
     9
370
    -3
331
15
  1
Color_9
440
        0
  8
SCHRAFFUR
 90
        8
 62
     9
370
    -3
331
15
  1
Color_9
440
        0
  8
BESCHRIFTUNG
 90
        8
 62
     7
370
    -3
331
15
  1
Color_7
440
        0
  8
BEM-50
 90
        8
 62
    10
370
    -3
331
15
  1
Color_10
440
        0
  8
Z__FORMATECKEN
 90
        8
 62
     4
370
    -3
331
15
  1
Color_4
440
        0
  8
Z__ANSICHTSFENSTER
 90
        0
 62
    10
370
    -3
331
15
  1
Color_10
440
        0
  8
Z__robert koch cad-support
 90
        8
 62
     7
370
    -3
331
0
  1
Color_7
440
        0
  8
BEM-100
 90
        8
 62
    10
370
    -3
331
15
  1
Color_10
440
        0
  8
OPO Kontur detailliert
 90
        8
 62
   101
370
    35
331
15
  1
Color_101
440
        0
  8
OPO Hilfslinie
 90
        8
 62
     9
370
    25
331
15
  1
Color_9
440
        0
  8
OPO Kontur vereinfacht
 90
        8
 62
   141
370
    -3
331
15
  1
Color_141
440
        0
  8
OPO Schraffur
 90
        8
 62
     9
370
    -3
331
15
  1
Color_9
440
        0
  8
OPO Bemassung Text
 90
        8
 62
     7
370
    -3
331
15
  1
Color_7
440
        0
  8
SP_035
 90
        8
 62
     3
370
    35
331
0
  1
Color_3
440
        0
  8
SS_035
 90
        8
 62
     3
370
    35
331
0
  1
Color_3
440
        0
  8
V2_035
 90
        8
 62
     7
370
    35
331
15
  1
Color_7
440
        0
  8
SYMBOLE_10
 90
        8
 62
     2
370
    -3
331
15
  1
Color_2
440
        0
  8
SYMBOLE_1
 90
        8
 62
     2
370
    -3
331
15
  1
Color_2
440
        0
  8
SS_025
 90
        8
 62
     4
370
    25
331
0
  1
Color_4
440
        0
  8
SPP_035
 90
        8
 62
     3
370
    35
331
0
  1
Color_3
440
        0
  8
SP_050
 90
        8
 62
    14
370
    50
331
0
  1
Color_14
440
        0
  8
SP_025
 90
        8
 62
     4
370
    25
331
0
  1
Color_4
440
        0
  8
V1_070
 90
        8
 62
     6
370
    70
331
15
  1
Color_6
440
        0
  8
BEM-2
 90
        8
 62
    10
370
    -3
331
15
  1
Color_10
440
        0
  8
H1_HILFSLINIE
 90
        8
 62
   253
370
    -3
331
15
  1
Color_253
440
        0
  8
BEM-20
 90
        8
 62
    10
370
    -3
331
15
  1
Color_10
440
        0
  8
BEM-10
 90
        8
 62
    10
370
    -3
331
15
  1
Color_10
440
        0
  8
BEM-1
 90
        8
 62
    10
370
    -3
331
15
  1
Color_10
440
        0
  8
V1_025
 90
        8
 62
     4
370
    25
331
15
  1
Color_4
440
        0
  8
DEFPOINTS
 90
        0
 62
     9
370
    -3
331
15
  1
Color_9
440
        0
  8
V1_035
 90
        8
 62
     3
370
    35
331
15
  1
Color_3
440
        0
  8
0
 90
        8
 62
     7
370
    -3
331
15
  1
Color_7
440
        0
330
0
 90
        8
 62
     7
370
    35
331
15
  1
Color_7
440
        0
  0
XRECORD
  5
25FE
102
{ACAD_REACTORS
330
11DC
102
}
330
11DC
100
AcDbXrecord
280
     1
 91
     1023
301

290
     0
302
V1_035
  8
BEM-100
 90
        8
 62
    10
370
    -3
331
15
  1
Color_10
  8
SS_050
 90
        8
 62
     7
370
    50
331
0
  1
Color_7
  8
SP_050
 90
        8
 62
     7
370
    50
331
0
  1
Color_7
  8
V1_050
 90
        8
 62
     7
370
    50
331
15
  1
Color_7
  8
OPO Schraffur
 90
        8
 62
     9
370
    -3
331
15
  1
Color_9
  8
OPO Kontur vereinfacht
 90
        8
 62
     4
370
    -3
331
15
  1
Color_4
  8
OPO Kontur detailliert
 90
        8
 62
     3
370
    35
331
15
  1
Color_3
  8
OPO Hilfslinie
 90
        8
 62
     1
370
    25
331
15
  1
Color_1
  8
OPO Bemassung Text
 90
        8
 62
     5
370
    -3
331
15
  1
Color_5
  8
SYMBOLE_10
 90
        8
 62
     2
370
    -3
331
15
  1
Color_2
  8
SYMBOLE_1
 90
        8
 62
     2
370
    -3
331
15
  1
Color_2
  8
V1_070
 90
        8
 62
     6
370
    70
331
15
  1
Color_6
  8
BEM-2
 90
        8
 62
    10
370
    -3
331
15
  1
Color_10
  8
A__KOPF
 90
        8
 62
     7
370
    35
331
15
  1
Color_7
  8
RASTER_2
 90
        8
 62
   140
370
    -3
331
15
  1
Color_140
  8
RASTER_1
 90
        8
 62
   130
370
    -3
331
15
  1
Color_130
  8
H1_HILFSLINIE
 90
        8
 62
   253
370
    -3
331
15
  1
Color_253
  8
A__SCHRAFFUR
 90
        8
 62
     9
370
    -3
331
15
  1
Color_9
  8
A__MANSFEN
 90
        0
 62
    10
370
    -3
331
15
  1
Color_10
  8
Z__KOPF_F
 90
        8
 62
     7
370
    -3
331
15
  1
Color_7
  8
Z__KOPF_G
 90
        8
 62
     7
370
    -3
331
15
  1
Color_7
  8
A__FORMATECKEN
 90
        8
 62
     4
370
    -3
331
15
  1
Color_4
  8
BEM-20
 90
        8
 62
    10
370
    -3
331
15
  1
Color_10
  8
BEM-10
 90
        8
 62
    10
370
    -3
331
15
  1
Color_10
  8
BEM-1
 90
        8
 62
    10
370
    -3
331
15
  1
Color_10
  8
SPP_035
 90
        8
 62
     3
370
    35
331
0
  1
Color_3
  8
SP_035
 90
        8
 62
     3
370
    35
331
0
  1
Color_3
  8
SP_025
 90
        8
 62
     4
370
    25
331
0
  1
Color_4
  8
SS_035
 90
        8
 62
     3
370
    35
331
0
  1
Color_3
  8
SS_025
 90
        8
 62
     4
370
    25
331
0
  1
Color_4
  8
V1_100
 90
        8
 62
    12
370
   100
331
15
  1
Color_12
  8
V2_035
 90
        8
 62
     7
370
    35
331
15
  1
Color_7
  8
V1_025
 90
        8
 62
     4
370
    25
331
15
  1
Color_4
  8
DEFPOINTS
 90
        0
 62
     9
370
    -3
331
15
  1
Color_9
  8
V1_035
 90
        8
 62
     3
370
    35
331
15
  1
Color_3
  8
0
 90
        8
 62
     7
370
    -3
331
15
  1
Color_7
330
0
 90
        8
 62
    10
370
    -3
331
15
  1
Color_10
330
0
 90
        8
 62
     7
370
    -3
331
15
  1
Color_10
330
0
 90
        8
 62
     9
370
    -3
331
15
  1
Color_7
330
0
 90
        0
 62
    10
370
    -3
331
15
  1
Color_7
330
0
 90
        8
 62
     4
370
    -3
331
15
  1
Color_7
330
0
 90
        8
 62
     7
370
    35
331
15
  1
Color_7
330
0
 90
        8
 62
     7
370
    -3
331
0
  1
Color_7
330
0
 90
        8
 62
    42
370
    35
331
15
  1
Color_42
440
        0
330
0
 90
        8
 62
    62
370
    35
331
15
  1
Color_62
440
        0
330
0
 90
        8
 62
   122
370
    35
331
15
  1
Color_122
440
        0
330
0
 90
        8
 62
   142
370
    35
331
15
  1
Color_142
440
        0
330
0
 90
        8
 62
   242
370
    35
331
15
  1
Color_242
440
        0
330
0
 90
        8
 62
     9
370
    -3
331
15
  1
Color_253
440
        0
330
0
 90
        8
 62
    11
370
     9
331
15
  1
Color_11
440
        0
330
0
 90
        8
 62
    21
370
    13
331
15
  1
Color_21
440
        0
330
0
 90
        8
 62
    21
370
    13
331
15
  1
Color_21
440
        0
330
0
 90
        8
 62
   222
370
     9
331
0
  1
Color_222
440
        0
330
0
 90
        8
 62
    10
370
    -3
331
15
  1
Color_10
440
        0
330
0
 90
        8
 62
     7
370
    -3
331
15
  1
Color_7
440
        0
330
0
 90
        8
 62
   220
370
    30
331
0
  1
Color_220
440
        0
330
0
 90
        8
 62
    21
370
    13
331
15
  1
Color_21
440
        0
330
0
 90
        8
 62
    21
370
    13
331
15
  1
Color_21
440
        0
330
0
 90
        8
 62
     9
370
    -3
331
15
  1
Color_9
440
        0
330
0
 90
        8
 62
     9
370
    -3
331
15
  1
Color_9
440
        0
330
0
 90
        8
 62
    11
370
     9
331
15
  1
Color_11
440
        0
330
0
 90
        8
 62
   122
370
    25
331
15
  1
Color_122
440
        0
330
0
 90
        8
 62
   133
370
    25
331
15
  1
Color_133
440
        0
330
0
 90
        8
 62
   101
370
    25
331
15
  1
Color_101
440
        0
330
0
 90
        8
 62
     7
370
    -3
331
0
  1
Color_7
440
        0
  0
XRECORD
  5
25C8
102
{ACAD_XDICTIONARY
360
25C9
102
}
102
{ACAD_REACTORS
330
11DC
102
}
330
11DC
100
AcDbXrecord
280
     1
 91
     1023
301
RK-Menü farben mit hellem Hintergrund
290
     0
302
V1_035
330
0
 90
        8
 62
    10
370
    -3
331
15
  1
Color_10
330
0
 90
        8
 62
     7
370
    50
331
0
  1
Color_7
330
0
 90
        8
 62
     7
370
    50
331
0
  1
Color_7
330
0
 90
        8
 62
     7
370
    50
331
15
  1
Color_7
330
0
 90
        8
 62
     9
370
    -3
331
15
  1
Color_9
330
0
 90
        8
 62
   141
370
    -3
331
15
  1
Color_141
330
0
 90
        8
 62
   101
370
    35
331
15
  1
Color_101
330
0
 90
        8
 62
     1
370
    25
331
15
  1
Color_1
330
0
 90
        8
 62
     5
370
    -3
331
15
  1
Color_5
330
0
 90
        8
 62
    20
370
    -3
331
15
  1
Color_20
330
0
 90
        8
 62
    20
370
    -3
331
15
  1
Color_20
330
0
 90
        8
 62
     6
370
    70
331
15
  1
Color_6
330
0
 90
        8
 62
    10
370
    -3
331
15
  1
Color_10
330
0
 90
        8
 62
     7
370
    35
331
15
  1
Color_7
330
0
 90
        8
 62
   140
370
    -3
331
15
  1
Color_140
330
0
 90
        8
 62
   130
370
    -3
331
15
  1
Color_130
330
0
 90
        8
 62
   253
370
    -3
331
15
  1
Color_253
330
0
 90
        8
 62
     9
370
    -3
331
15
  1
Color_9
330
0
 90
        0
 62
    10
370
    -3
331
15
  1
Color_10
330
0
 90
        8
 62
   152
370
    -3
331
15
  1
Color_152
330
0
 90
        8
 62
     7
370
    -3
331
15
  1
Color_7
330
0
 90
        8
 62
   142
370
    -3
331
15
  1
Color_142
330
0
 90
        8
 62
    10
370
    -3
331
15
  1
Color_10
330
0
 90
        8
 62
    10
370
    -3
331
15
  1
Color_10
330
0
 90
        8
 62
    10
370
    -3
331
15
  1
Color_10
330
0
 90
        8
 62
   104
370
    35
331
0
  1
Color_104
330
0
 90
        8
 62
   104
370
    35
331
0
  1
Color_104
330
0
 90
        8
 62
   142
370
    25
331
0
  1
Color_142
330
0
 90
        8
 62
   104
370
    35
331
0
  1
Color_104
330
0
 90
        8
 62
   142
370
    25
331
0
  1
Color_142
330
0
 90
        8
 62
    12
370
   100
331
15
  1
Color_12
330
0
 90
        8
 62
     7
370
    35
331
15
  1
Color_7
330
0
 90
        8
 62
   142
370
    25
331
15
  1
Color_142
330
0
 90
        0
 62
     9
370
    -3
331
15
  1
Color_9
330
0
 90
        8
 62
   104
370
    35
331
15
  1
Color_104
330
F
 90
        8
 62
     7
370
    -3
331
15
  1
Color_7
330
0
 90
        8
 62
    10
370
    -3
331
15
  1
Color_10
330
0
 90
        8
 62
     7
370
    -3
331
15
  1
Color_10
330
0
 90
        8
 62
     7
370
    -3
331
0
  1
Color_7
330
0
 90
        8
 62
    42
370
    35
331
15
  1
Color_42
440
        0
330
0
 90
        8
 62
    62
370
    35
331
15
  1
Color_62
440
        0
330
0
 90
        8
 62
   122
370
    35
331
15
  1
Color_122
440
        0
330
0
 90
        8
 62
   142
370
    35
331
15
  1
Color_142
440
        0
330
0
 90
        8
 62
   242
370
    35
331
15
  1
Color_242
440
        0
330
0
 90
        8
 62
     9
370
    -3
331
15
  1
Color_253
440
        0
330
0
 90
        8
 62
    11
370
     9
331
15
  1
Color_11
440
        0
330
0
 90
        8
 62
     7
370
    -3
331
15
  1
Color_7
440
        0
330
0
 90
        8
 62
    21
370
    13
331
15
  1
Color_21
440
        0
330
0
 90
        8
 62
    21
370
    13
331
15
  1
Color_21
440
        0
330
0
 90
        8
 62
   222
370
     9
331
0
  1
Color_222
440
        0
330
0
 90
        8
 62
    10
370
    -3
331
15
  1
Color_10
440
        0
330
0
 90
        8
 62
    10
370
    -3
331
15
  1
Color_10
440
        0
330
0
 90
        8
 62
    10
370
    -3
331
15
  1
Color_10
440
        0
330
0
 90
        8
 62
    10
370
    -3
331
15
  1
Color_10
440
        0
330
0
 90
        8
 62
    10
370
    -3
331
15
  1
Color_10
440
        0
330
0
 90
        8
 62
    10
370
    -3
331
15
  1
Color_10
440
        0
330
0
 90
        8
 62
     7
370
    -3
331
15
  1
Color_7
440
        0
330
0
 90
        8
 62
   253
370
    -3
331
15
  1
Color_253
440
        0
330
0
 90
        8
 62
   220
370
    30
331
0
  1
Color_220
440
        0
330
0
 90
        8
 62
     7
370
    -3
331
15
  1
Color_7
440
        0
330
0
 90
        8
 62
     9
370
    25
331
15
  1
Color_9
440
        0
330
0
 90
        8
 62
   101
370
    35
331
15
  1
Color_101
440
        0
330
0
 90
        8
 62
   141
370
    -3
331
15
  1
Color_141
440
        0
330
0
 90
        8
 62
     9
370
    -3
331
15
  1
Color_9
440
        0
330
0
 90
        8
 62
    21
370
    13
331
15
  1
Color_21
440
        0
330
0
 90
        8
 62
    21
370
    13
331
15
  1
Color_21
440
        0
330
0
 90
        8
 62
     9
370
    -3
331
15
  1
Color_9
440
        0
330
0
 90
        8
 62
     9
370
    -3
331
15
  1
Color_9
440
        0
330
0
 90
        8
 62
     4
370
    25
331
0
  1
Color_4
440
        0
330
0
 90
        8
 62
     3
370
    35
331
0
  1
Color_3
440
        0
330
0
 90
        8
 62
    14
370
    50
331
0
  1
Color_14
440
        0
330
0
 90
        8
 62
     3
370
    35
331
0
  1
Color_3
440
        0
330
0
 90
        8
 62
     4
370
    25
331
0
  1
Color_4
440
        0
330
0
 90
        8
 62
     3
370
    35
331
0
  1
Color_3
440
        0
330
0
 90
        8
 62
     2
370
    -3
331
15
  1
Color_2
440
        0
330
0
 90
        8
 62
     2
370
    -3
331
15
  1
Color_2
440
        0
330
0
 90
        8
 62
    11
370
     9
331
15
  1
Color_11
440
        0
330
0
 90
        8
 62
     4
370
    25
331
15
  1
Color_4
440
        0
330
0
 90
        8
 62
     6
370
    70
331
15
  1
Color_6
440
        0
330
0
 90
        8
 62
     7
370
    35
331
15
  1
Color_7
440
        0
330
0
 90
        8
 62
   122
370
    25
331
15
  1
Color_122
440
        0
330
0
 90
        8
 62
   133
370
    25
331
15
  1
Color_133
440
        0
330
0
 90
        8
 62
   101
370
    25
331
15
  1
Color_101
440
        0
330
0
 90
        8
 62
     7
370
    -3
331
0
  1
Color_7
440
        0
  0
XRECORD
  5
2D3A
102
{ACAD_REACTORS
330
2D38
102
}
330
2D38
100
AcDbXrecord
280
     1
  1
AcLyLayerGroup
 90
        1
300
frieren in AF Detaildarstellung
330
0
330
0
330
0
330
0
330
0
330
0
330
0
  0
XRECORD
  5
2D3B
102
{ACAD_REACTORS
330
2D38
102
}
330
2D38
100
AcDbXrecord
280
     1
  1
AcLyLayerGroup
 90
        1
300
frieren in AF verkleinerte WZ
330
0
330
0
330
0
330
0
330
0
330
0
330
0
  0
ACDBASSOCNETWORK
  5
E6D4
102
{ACAD_REACTORS
330
E6D3
102
}
330
E6D3
100
AcDbAssocAction
 90
        1
 90
        0
330
AEF6
360
0
 90
       90
 90
        0
 90
        0
100
AcDbAssocNetwork
 90
        0
 90
        2
 90
        1
360
E6D2
 90
        0
  0
ACDB_DYNAMICBLOCKPROXYNODE
  5
E6CA
330
E6C9
100
AcDbEvalExpr
 90
        5
 98
       31
 99
      105
  0
BLOCKUSERPARAMETER
  5
E6CB
330
E6C9
100
AcDbEvalExpr
 90
       10
 98
       31
 99
      105
100
AcDbBlockElement
300

 98
       31
 99
      105
1071
        1
100
AcDbBlockParameter
280
     1
281
     0
100
AcDbBlock1PtParameter
1010
0.0
1020
0.0
1030
0.0
 93
        0
170
     0
171
     0
100
AcDbBlockUserParameter
 90
        0
330
E6D2
301

309
AcDbEvalVariant NULL = -9999
170
     3
  0
BLOCKVISIBILITYPARAMETER
  5
E6CC
330
E6C9
100
AcDbEvalExpr
 90
       11
 98
       31
 99
      105
100
AcDbBlockElement
300
Sichtbarkeitsstatus
 98
       31
 99
      105
1071
        0
100
AcDbBlockParameter
280
     0
281
     0
100
AcDbBlock1PtParameter
1010
-155.1096586774657
1020
39.79678970574935
1030
0.0
 93
       15
170
     0
171
     0
100
AcDbBlockVisibilityParameter
281
     1
301
Sprache
302
Sprache
 91
        0
 93
       16
331
E6B9
331
E6BA
331
E6BB
331
E6BC
331
E6BD
331
E6BE
331
E6BF
331
E6C0
331
E6C1
331
E6C2
331
E6C3
331
E6C4
331
E6C5
331
E6C6
331
E6DD
331
E6DE
 92
        2
303
Deutsch
 94
       14
332
E6BA
332
E6BB
332
E6BC
332
E6BD
332
E6BE
332
E6BF
332
E6C0
332
E6C1
332
E6C2
332
E6C3
332
E6C4
332
E6C6
332
E6DD
332
E6DE
 95
        0
303
Französisch
 94
       13
332
E6B9
332
E6BA
332
E6BB
332
E6BC
332
E6BD
332
E6BE
332
E6BF
332
E6C1
332
E6C2
332
E6C3
332
E6C4
332
E6C5
332
E6C6
 95
        0
  0
BLOCKVISIBILITYGRIP
  5
E6CD
330
E6C9
100
AcDbEvalExpr
 90
       15
 98
       31
 99
      105
100
AcDbBlockElement
300
Griff
 98
       31
 99
      105
1071
        0
100
AcDbBlockGrip
 91
       16
 92
       17
1010
-155.1096586774657
1020
39.79678970574935
1030
0.0
280
     0
 93
       -1
100
AcDbBlockVisibilityGrip
  0
BLOCKGRIPLOCATIONCOMPONENT
  5
E6CE
330
E6C9
100
AcDbEvalExpr
 90
       16
 98
       31
 99
      105
  1

 70
    40
140
-185.9223999802425
100
AcDbBlockGripExpr
 91
       11
300
UpdatedX
  0
BLOCKGRIPLOCATIONCOMPONENT
  5
E6CF
330
E6C9
100
AcDbEvalExpr
 90
       17
 98
       31
 99
      105
  1

 70
    40
140
5.676767961064228
100
AcDbBlockGripExpr
 91
       11
300
UpdatedY
  0
BLOCKVISIBILITYPARAMETER
  5
E3B9
330
E3B8
100
AcDbEvalExpr
 90
        1
 98
       31
 99
      105
100
AcDbBlockElement
300
Sichtbarkeitsstatus
 98
       31
 99
      105
1071
        0
100
AcDbBlockParameter
280
     1
281
     0
100
AcDbBlock1PtParameter
1010
-281.5221708216397
1020
44.80865832515482
1030
0.0
 93
        2
170
     0
171
     0
100
AcDbBlockVisibilityParameter
281
     1
301
Sprache
302
Sprache
 91
        0
 93
       63
331
E372
331
E373
331
E374
331
E375
331
E376
331
E377
331
E378
331
E379
331
E37A
331
E37B
331
E37C
331
E37D
331
E37E
331
E37F
331
E380
331
E381
331
E382
331
E383
331
E384
331
E385
331
E386
331
E387
331
E388
331
E389
331
E38A
331
E38B
331
E38C
331
E38D
331
E38E
331
E38F
331
E390
331
E391
331
E393
331
E394
331
E395
331
E396
331
E397
331
E398
331
E399
331
E39A
331
E39B
331
E39C
331
E39D
331
E39F
331
E3A0
331
E3A1
331
E3A2
331
E3A3
331
E3B3
331
E3B4
331
E3A4
331
E3A5
331
E3A6
331
E3A7
331
E3A8
331
E3A9
331
E3AA
331
E3AC
331
E3AD
331
E3AE
331
E3AF
331
E3B0
331
E3B1
 92
        2
303
Deutsch
 94
       48
332
E372
332
E373
332
E374
332
E375
332
E376
332
E377
332
E378
332
E379
332
E37A
332
E37B
332
E37C
332
E37D
332
E37E
332
E37F
332
E380
332
E381
332
E382
332
E383
332
E384
332
E385
332
E386
332
E387
332
E388
332
E389
332
E38A
332
E38B
332
E38C
332
E38D
332
E38E
332
E38F
332
E390
332
E391
332
E393
332
E394
332
E395
332
E396
332
E397
332
E398
332
E399
332
E39A
332
E39B
332
E39C
332
E39D
332
E39F
332
E3A0
332
E3A1
332
E3A2
332
E3A3
 95
        0
303
Französisch
 94
       48
332
E372
332
E373
332
E374
332
E375
332
E376
332
E377
332
E378
332
E379
332
E37A
332
E37B
332
E37C
332
E37D
332
E37E
332
E37F
332
E380
332
E381
332
E382
332
E383
332
E384
332
E385
332
E386
332
E387
332
E388
332
E389
332
E38A
332
E394
332
E395
332
E397
332
E399
332
E39B
332
E3A0
332
E3A2
332
E3A3
332
E3B4
332
E3B3
332
E3B1
332
E3B0
332
E3AF
332
E3AE
332
E3AD
332
E3AC
332
E3AA
332
E3A9
332
E3A8
332
E3A7
332
E3A6
332
E3A5
332
E3A4
 95
        0
  0
BLOCKVISIBILITYGRIP
  5
E3BA
330
E3B8
100
AcDbEvalExpr
 90
        2
 98
       31
 99
      105
100
AcDbBlockElement
300
Griff
 98
       31
 99
      105
1071
        0
100
AcDbBlockGrip
 91
        3
 92
        4
1010
-281.5221708216397
1020
44.80865832515482
1030
0.0
280
     0
 93
       -1
100
AcDbBlockVisibilityGrip
  0
BLOCKGRIPLOCATIONCOMPONENT
  5
E3BB
330
E3B8
100
AcDbEvalExpr
 90
        3
 98
       31
 99
      105
  1

 70
    40
140
0.0
100
AcDbBlockGripExpr
 91
        1
300
UpdatedX
  0
BLOCKGRIPLOCATIONCOMPONENT
  5
E3BC
330
E3B8
100
AcDbEvalExpr
 90
        4
 98
       31
 99
      105
  1

 70
    40
140
0.0
100
AcDbBlockGripExpr
 91
        1
300
UpdatedY
  0
ACDBASSOCNETWORK
  5
DAD2
102
{ACAD_REACTORS
330
DAD1
102
}
330
DAD1
100
AcDbAssocAction
 90
        1
 90
        0
330
AEF6
360
0
 90
       89
 90
        0
 90
        0
100
AcDbAssocNetwork
 90
        0
 90
        1
 90
        1
360
DACF
 90
        0
  0
ACDBASSOCNETWORK
  5
E6FA
102
{ACAD_REACTORS
330
E6F9
102
}
330
E6F9
100
AcDbAssocAction
 90
        1
 90
        0
330
AEF6
360
0
 90
       91
 90
        0
 90
        0
100
AcDbAssocNetwork
 90
        0
 90
        1
 90
        1
360
E6F7
 90
        0
  0
ACDB_BLOCKREPRESENTATION_DATA
  5
6ABA
102
{ACAD_REACTORS
330
6AB9
102
}
330
6AB9
100
AcDbBlockRepresentationData
 70
     1
340
2CD1
  0
DICTIONARY
  5
AFD3
102
{ACAD_REACTORS
330
6AB9
102
}
330
6AB9
100
AcDbDictionary
280
     1
281
     1
  3
ACAD_ENHANCEDBLOCKDATA
360
E777
  3
ACAD_ENHANCEDBLOCKHDATA
360
AFD7
  3
ACAD_ENHANCEDBLOCKHISTORY
360
E776
  0
ACDB_BLOCKREPRESENTATION_DATA
  5
E108
102
{ACAD_REACTORS
330
E107
102
}
330
E107
100
AcDbBlockRepresentationData
 70
     1
340
C31F
  0
DICTIONARY
  5
E109
102
{ACAD_REACTORS
330
E107
102
}
330
E107
100
AcDbDictionary
280
     1
281
     1
  3
ACAD_ENHANCEDBLOCKDATA
360
E771
  0
DICTIONARY
  5
5075
330
4E0F
100
AcDbDictionary
280
     1
281
     1
  3
ACAD_XREC_ROUNDTRIP
360
E7C0
  0
DICTIONARY
  5
5071
330
41D9
100
AcDbDictionary
280
     1
281
     1
  3
ACAD_XREC_ROUNDTRIP
360
E7BE
  0
DICTIONARY
  5
121F
330
ACE
100
AcDbDictionary
280
     1
281
     1
  0
DICTIONARY
  5
25D9
330
579
100
AcDbDictionary
280
     1
281
     1
  0
DICTIONARY
  5
6059
330
1BD8
100
AcDbDictionary
280
     1
281
     1
  3
FBXASSET
360
605A
  0
XRECORD
  5
E7C3
102
{ACAD_REACTORS
330
E7C2
102
}
330
E7C2
100
AcDbXrecord
280
     1
 70
     2
 71
     3
 72
     0
  0
DICTIONARY
  5
5073
330
4E0E
100
AcDbDictionary
280
     1
281
     1
  3
ACAD_XREC_ROUNDTRIP
360
E7BF
  0
DICTIONARY
  5
506F
330
41D7
100
AcDbDictionary
280
     1
281
     1
  3
ACAD_XREC_ROUNDTRIP
360
E7BD
  0
DICTIONARY
  5
3AF5
330
3AF4
100
AcDbDictionary
280
     1
281
     1
  3
ACAD_ROUNDTRIP_2008_TABLESTYLE_CELLSTYLEMAP
360
E77B
  0
DICTIONARY
  5
2036
330
107F
100
AcDbDictionary
280
     1
281
     1
  3
ACAD_ROUNDTRIP_2008_TABLESTYLE_CELLSTYLEMAP
360
E77A
  0
DICTIONARY
  5
E793
330
1BDF
100
AcDbDictionary
280
     1
281
     1
  3
ACAD_XREC_ROUNDTRIP
360
E794
  0
DICTIONARY
  5
E797
330
1BE1
100
AcDbDictionary
280
     1
281
     1
  3
ACAD_XREC_ROUNDTRIP
360
E798
  0
DICTIONARY
  5
E795
330
1BE0
100
AcDbDictionary
280
     1
281
     1
  3
ACAD_XREC_ROUNDTRIP
360
E796
  0
DICTIONARY
  5
E791
330
1BDE
100
AcDbDictionary
280
     1
281
     1
  3
ACAD_XREC_ROUNDTRIP
360
E792
  0
DICTIONARY
  5
E79F
330
1BE5
100
AcDbDictionary
280
     1
281
     1
  3
ACAD_XREC_ROUNDTRIP
360
E7A0
  0
DICTIONARY
  5
E7A7
330
1BE9
100
AcDbDictionary
280
     1
281
     1
  3
ACAD_XREC_ROUNDTRIP
360
E7A8
  0
DICTIONARY
  5
E799
330
1BE2
100
AcDbDictionary
280
     1
281
     1
  3
ACAD_XREC_ROUNDTRIP
360
E79A
  0
DICTIONARY
  5
E79D
330
1BE4
100
AcDbDictionary
280
     1
281
     1
  3
ACAD_XREC_ROUNDTRIP
360
E79E
  0
DICTIONARY
  5
E7AD
330
2595
100
AcDbDictionary
280
     1
281
     1
  3
ACAD_XREC_ROUNDTRIP
360
E7AE
  0
DICTIONARY
  5
E7A5
330
1BE8
100
AcDbDictionary
280
     1
281
     1
  3
ACAD_XREC_ROUNDTRIP
360
E7A6
  0
DICTIONARY
  5
E789
330
1BDA
100
AcDbDictionary
280
     1
281
     1
  3
ACAD_XREC_ROUNDTRIP
360
E78A
  0
DICTIONARY
  5
E78B
330
1BDB
100
AcDbDictionary
280
     1
281
     1
  3
ACAD_XREC_ROUNDTRIP
360
E78C
  0
DICTIONARY
  5
E78D
330
1BDC
100
AcDbDictionary
280
     1
281
     1
  3
ACAD_XREC_ROUNDTRIP
360
E78E
  0
DICTIONARY
  5
E78F
330
1BDD
100
AcDbDictionary
280
     1
281
     1
  3
ACAD_XREC_ROUNDTRIP
360
E790
  0
DICTIONARY
  5
E7B1
330
2DD0
100
AcDbDictionary
280
     1
281
     1
  3
ACAD_XREC_ROUNDTRIP
360
E7B2
  0
DICTIONARY
  5
E7A9
330
2593
100
AcDbDictionary
280
     1
281
     1
  3
ACAD_XREC_ROUNDTRIP
360
E7AA
  0
DICTIONARY
  5
E7A3
330
1BE7
100
AcDbDictionary
280
     1
281
     1
  3
ACAD_XREC_ROUNDTRIP
360
E7A4
  0
DICTIONARY
  5
E7AB
330
2594
100
AcDbDictionary
280
     1
281
     1
  3
ACAD_XREC_ROUNDTRIP
360
E7AC
  0
DICTIONARY
  5
E79B
330
1BE3
100
AcDbDictionary
280
     1
281
     1
  3
ACAD_XREC_ROUNDTRIP
360
E79C
  0
DICTIONARY
  5
E7BB
330
2DD5
100
AcDbDictionary
280
     1
281
     1
  3
ACAD_XREC_ROUNDTRIP
360
E7BC
  0
DICTIONARY
  5
E7B9
330
2DD4
100
AcDbDictionary
280
     1
281
     1
  3
ACAD_XREC_ROUNDTRIP
360
E7BA
  0
DICTIONARY
  5
E7B3
330
2DD1
100
AcDbDictionary
280
     1
281
     1
  3
ACAD_XREC_ROUNDTRIP
360
E7B4
  0
DICTIONARY
  5
E7B5
330
2DD2
100
AcDbDictionary
280
     1
281
     1
  3
ACAD_XREC_ROUNDTRIP
360
E7B6
  0
DICTIONARY
  5
E7A1
330
1BE6
100
AcDbDictionary
280
     1
281
     1
  3
ACAD_XREC_ROUNDTRIP
360
E7A2
  0
DICTIONARY
  5
E7AF
330
2DCF
100
AcDbDictionary
280
     1
281
     1
  3
ACAD_XREC_ROUNDTRIP
360
E7B0
  0
DICTIONARY
  5
E7B7
330
2DD3
100
AcDbDictionary
280
     1
281
     1
  3
ACAD_XREC_ROUNDTRIP
360
E7B8
  0
XRECORD
  5
E781
102
{ACAD_REACTORS
330
E787
102
}
330
E787
100
AcDbXrecord
280
     1
  1
AcDb_Thumbnail_Schema
102
{ATTRRECORD
341
E782
  2
AcDbDs::TreatedAsObjectData
280
     1
291
     1
102
ATTRRECORD}
102
{ATTRRECORD
341
E783
  2
AcDbDs::Legacy
280
     1
291
     1
102
ATTRRECORD}
  2
AcDbDs::ID
280
    10
 91
        8
102
{ATTRRECORD
341
E784
  2
AcDs:Indexable
280
     1
291
     1
102
ATTRRECORD}
102
{ATTRRECORD
341
E785
  2
AcDbDs::HandleAttribute
280
     7
282
     1
102
ATTRRECORD}
  2
Thumbnail_Data
280
    15
 91
        0
  0
XRECORD
  5
E782
102
{ACAD_REACTORS
330
E787
102
}
330
E787
100
AcDbXrecord
280
     1
  1
AcDbDs::TreatedAsObjectDataSchema
  2
AcDbDs::TreatedAsObjectData
280
     1
 91
        0
  0
XRECORD
  5
E783
102
{ACAD_REACTORS
330
E787
102
}
330
E787
100
AcDbXrecord
280
     1
  1
AcDbDs::LegacySchema
  2
AcDbDs::Legacy
280
     1
 91
        0
  0
XRECORD
  5
E784
102
{ACAD_REACTORS
330
E787
102
}
330
E787
100
AcDbXrecord
280
     1
  1
AcDbDs::IndexedPropertySchema
  2
AcDs:Indexable
280
     1
 91
        0
  0
XRECORD
  5
E785
102
{ACAD_REACTORS
330
E787
102
}
330
E787
100
AcDbXrecord
280
     1
  1
AcDbDs::HandleAttributeSchema
  2
AcDbDs::HandleAttribute
280
     7
 91
        1
284
     1
  0
DICTIONARY
  5
25CC
330
25CB
100
AcDbDictionary
280
     1
281
     1
  3
AcadLayerStateAnnoScale
360
25CD
  0
DICTIONARY
  5
25C9
330
25C8
100
AcDbDictionary
280
     1
281
     1
  3
AcadLayerStateAnnoScale
360
25CA
  0
ACDBASSOCVARIABLE
  5
E6D2
330
E6D4
100
AcDbAssocAction
 90
        1
 90
        0
330
E6D4
360
0
 90
        1
 90
        0
 90
        0
100
AcDbAssocVariable
 90
        2
  1
user1
  1
1
  1
AcDbCalc:1.0
  1

 90
        1
290
     0
290
     0
 90
        0
  0
ACDBASSOCVARIABLE
  5
DACF
330
DAD2
100
AcDbAssocAction
 90
        1
 90
        0
330
DAD2
360
0
 90
        1
 90
        0
 90
        0
100
AcDbAssocVariable
 90
        2
  1
user1
  1
1
  1
AcDbCalc:1.0
  1

 90
        1
290
     0
290
     0
 90
        0
  0
ACDBASSOCVARIABLE
  5
E6F7
330
E6FA
100
AcDbAssocAction
 90
        1
 90
        0
330
E6FA
360
0
 90
        1
 90
        0
 90
        0
100
AcDbAssocVariable
 90
        2
  1
user1
  1
1
  1
AcDbCalc:1.0
  1

 90
        1
290
     0
290
     0
 90
        0
  0
DICTIONARY
  5
E777
102
{ACAD_REACTORS
330
AFD3
102
}
330
AFD3
100
AcDbDictionary
280
     1
281
     1
  3
10
360
E778
  3
11
360
E779
  0
DICTIONARY
  5
AFD7
102
{ACAD_REACTORS
330
AFD3
102
}
330
AFD3
100
AcDbDictionary
281
     1
  3
10
350
AFD8
  0
XRECORD
  5
E776
102
{ACAD_REACTORS
330
AFD3
102
}
330
AFD3
100
AcDbXrecord
280
     1
1070
     3
1071
       11
300
Sprache
  1
Französisch
  0
DICTIONARY
  5
E771
102
{ACAD_REACTORS
330
E109
102
}
330
E109
100
AcDbDictionary
280
     1
281
     1
  3
1
360
E772
  0
XRECORD
  5
E7C0
102
{ACAD_REACTORS
330
5075
102
}
330
5075
100
AcDbXrecord
280
     1
102
DISPLAYNAME
  1
Imperial24
102
FLAGS
 90
        0
  0
XRECORD
  5
E7BE
102
{ACAD_REACTORS
330
5071
102
}
330
5071
100
AcDbXrecord
280
     1
102
DISPLAYNAME
  1
Metric50
102
FLAGS
 90
        0
  0
XRECORD
  5
605A
102
{ACAD_REACTORS
330
6059
102
}
330
6059
100
AcDbXrecord
280
     1
 70
     1
 90
2070111275
 71
     1
  1
7DF25468-CECC-494C-852B-98270A83ADF0
311
504B0304140006080800A75E6F453CC2A371D9000000200100004F00000030303433414237312D323041452D343733382D383645332D4434464544383132323638392F4173736574446174612F446566696E6974696F6E4974657261746F7250726F706572746965732E62696E454E3D6FC23010351D5A75E8C03F40ECC671
311
6C23110195121226BA94A90B3A9C83467212142752C78EFDD7ED590571D2BB779FEFEE8731F67B350AD988F04DFE85788B0D76957DB79F58037B0C15D71EC13DDD7B0F1486748327185C1FB67695B7E81C34D80E7E7C1F9DD4D0931CB859587A26DC0A3E289CFF8F85FB6F84F05260282FC92B788FFD4A9C8E5F42653A5779
311
A1792AB382EB6833E7693A573CCB172ACECDC26853880E7D3B7416BD884574B82A1F2ECDB92AD7CBBEAA71D2408DABA9ED907E2AA7EB38929A4BC9A5D94B99189548F3B11461F20F504B0304140006080800A75E6F45D804EB7C00010000300200004500000030303433414237312D323041452D343733382D383645332D44
311
34464544383132323638392F4173736574446174612F496E7374616E636550726F706572746965732E62696EEB606060F80F0540260323103700495E20ED9E9A975A94991C9C9C919A9BA8021430777133323531B3D075767576D635B13471D6B5303572D2B5B430323770B43076747133604768046931363471713532B5D4
311
35353131D635313332D475727372D13534373670367376B67474B5042A03DBCBA019D37FE8ABC6157B20CD04146B0062181F4C03F940F0C11EA29A8141C08141002C0426541C106CAC2CA046088033B02A030AC2157C6006F21A8018AAF50194E6010A610250382264E08660284CD9E98021862280A91564B406929A0FF62C
311
401E28B6F88038B83CB1243943D7A928312F2535052403520FA4E000C4E7807805AC4B0E2AA30A5781CAC0A51F00504B0304140006080800A75E6F4528BB58AF800100009E0500003D00000030303433414237312D323041452D343733382D383645332D4434464544383132323638392F536368656D61732F436F6D6D6F6E
311
536368656D612E786D6CBD544D4FC23018BEFB2B96DE15493C78601010A34B880709DEDFB52FD0D8B54BD70DF6EFED3AC0B12E6442E2716BFB3CEFF3D18E26FB440405EA8C2B1992E1C323095052C5B8DC842437EBFB673219DF8DA659866649B798C078B48AE6410122242F2A4994AC7F93815DF85C049C8564CA0A901499
311
DD886B2EB9B1E02448F358701A9235880C49A0119892A20C89D1B9FD768815CAD268CB5E0355B40B1E47F3E37A2020464BED06AA57CE8FCC20C3C3446D46761A2632A8C1283D07031EFF2AE7CCB1BFEEE916E406DFAC8E36FFD99A9D60A6944090EEDC3B670C7DC13DE86B6B2C5C240D6E503BB85ACD579D513F1B9F9A69DC
311
9CC22AFA80C426D40AF0B21EA168559156B6276F0F726A6BFF04DCD513A87A62CAD41FB24FCB2858B3952E3D852084DA25B9303C15687973CC8E8AAE11DF2836C38C6A9E765E8C1BA1BFB1DC29CDFE518C8B5A7655A4ED7E77291ABEB80DBD82EC866ADE1B8D05AF9E35CF09D7A061F38A986D9EC412B8F0F65E5D81534D9B
311
231D1E5A8FE577A241F3A5FD01504B0304140006080800A75E6F452CCEBD668A040000E01200003E00000030303433414237312D323041452D343733382D383645332D4434464544383132323638392F536368656D61732F47656E65726963536368656D612E786D6CD5586D6FDB380CFE7EBF42F0F7A649B70E1B90744856
311
B4970F450FCD7A5F05459613EDE4174872DADCAF3F522F8ED3B88D2F1D06AC4050DBA2493EE4438AF2F8EB73AEC8466823CB62928C06C384888297A92C5693A4B6D9D9E7E4EBD51FE3A931C22EF85AE4EC6AFC38BF261BA626C9AD288496DC3F4FCEAFC63366845F7A10452AF41DB320C0D44EC26EAB209187355655826956
311
70811A6A49643A49A6E9069FA4604A64B29016DC4B48552F95E4932463CA888468C1D2B250DB4962750DF7CE273069CE8363F1FF4EDB00E0A21999574AE4A2B00C353B93F3BD4777B8A61ED8F604ABFEDD79CE56A2B7BDFBDBC50996E0ADDE16FED26223C5D30956C29BDF4A55EA686E5E58B112DA45CE67F76F4FA27EFA3F
311
B672FD7372FC388FAECDCA5209E693CAD167BADCD272F943701B3812F8A3D852008B1D2E32DB927B2F833C6EA95879925356D254582695095A3CE982924720BE5774A3CB9CDCDB350427D2DF20DA1B5532EBE2D5D6288D75D4F7E4FD9890A0EF8E3D93EBB8F8BA4758158EF6FB90A6F9520281C93DE7AAC6D24607DA296BB9
311
6018123F821A7D6A5C5884050C475DA4865442732C8B95684A50165CBB3A32F25F783A4A480ED59AD7F924B968AEA50131F46303223E6A397B0E52976030DC1DCA81D7E7C1EDEEA42C19FF27635C505E2BD5198A599020DF50A2330FCB3AAF28CB0124108429553EF1B228802E2265D8F7CC2401042B155BCC7070F1E5C55F
311
13B4A9577362CCCE46C32174E010C3C378C44841A4BDA00FE3A12006CE11EE6AEC59894D3526DDE1CD59D503ECC324017F8061B7F162162FA62EDD81AE3308617770796DCBDAD2B2625C5AE8A63DE20B2C8AA5E95E76E5730823955956E33E705425A2187C185D36489A1B44D3DCEC2172F6BA2105C3546287A7194B233176
311
8EBBE64F6E70A9930ABE0ADEA89E9E2C38523B810287AD67A54A039C1606EAFE68F8304610BB9093DBDDABC0B2AE4E290DCDA15376D7E39F72B556F0B32EAB5D3D498B4C41ABADEC3A1434C422D87E8025A84BDCB2B1417ED750FAE4DA8976863974C577C7F902D3F156AD354DEA3540DE6BEAE2BEA52F7A2EB4CA43802ECE
311
5BF2CE2EDC9347179FFB023CE412E60BE16DA0BE29B374988A553F561DC04615DD35F7D2C8979F60E5955CE93DF29DED8AFA1EE6642D53418086C03C47C377910F75F7E8F5EF665F70B60FFB22AEDF897D119E8423C773E819A3C1E55E550599EE6EDCA34D0C86FD72057DF2CD46F16A470682471C164E4346D5306BF12D7D
311
12D82CFF673D41636C347443FEB51B50D72EA171A8E4A58623A4A16E0FA2B8B10A0D23268D87C33896EE8FB73305A74BF224EDBADFA0BD674AB354D63DB7BD5D83426761C077DE767728235446A552754EB93B755891C3C4CC6CADE37CF0E912A7BB38DBA010F9DE1282EDF470CA69A9CDA482E334C4A6EA4107987980B17E
311
72F31730EBF88BBD39E7C629F56797A3C0009C2C5AE7951D9A05A02773440F02EEB4DE396A3B6A570C72CCFBCD823B0B8ED3F1D5CEDDFED772FA70236C83FB7D86C385D570B87107535572A60A96035F8F7C6A7192F13007246BBE0521855E6AC46F3E27689CEE7D186A6FD679D98CDCAD13333E04EBE7ED6F55FF01504B03
311
04140006080800A75E6F456180134D5F0100006B0300004500000030303433414237312D323041452D343733382D383645332D4434464544383132323638392F536368656D61732F52656E6465724D6174657269616C536368656D612E786D6CA5934D6FC2300C86EFFB1551EEE343DBA41D1A103009551ADAD40EAE28A4A6
311
8D9426284961FCFBE5A340113B2071746D3F765EBF4DC6BFB5407BD0862B49F0B037C0082453059725C18DDD3EBFE3F1E829991803366715D474942CD30FB4A782E00C64017A412D684E454CE3FE28995203B162A6EA5AC94B66997D225E109CD63B0135484BAD1B3C07E9080CA35DB3119C11BCA5C200461A68A1A438126C
311
75E3E230D40FF81FB3F03C91D1E3A3A0AF79FE28E25BC39EC3E17E4C2A2D94A0833A51AF55BCCA7D88572FCBAC529C4140B020FC3AAFA886621DCED7EAD7664CC86024E806DC297DA1BB393E4156543457A4537DB8817349A70F8ACBF09B3EEE2CB2F33E91B65D60786E4E3B39B77E3FEEEF5650424525DA657FB8B46BE6BF
311
064646F0A0F7327C0BC1BC1B4CBBC1C419FA3CCB23500007872A2580CAAE5461865565294E4EDB4617B62FF579DF9A5B2F54E834076A597573A020912FED777F9B3F504B0304140006080800A75E6F45D621868A51000000570000004700000030303433414237312D323041452D343733382D383645332D44344645443831
311
32323638392F4173736574446174612F41737365745461626C654F66436F6E74656E74732E62696E5361606030777133323531B3D075767576D635B13471D6B5303572D2B5B430323770B430767471331002AACB4D2C492DCA4CCC492C28484D2C4ACC4B4E050A82012F90744FCD03CA26072767A4E6260200504B03041400
311
06080800A75E6F45F865834058000000680000004500000030303433414237312D323041452D343733382D383645332D4434464544383132323638392F4173736574446174612F53747265616D56657273696F6E5461626C652E696E66558CBD0A80300C06F73E4B117FB66E451741D041DC5BF98480A492E4FDD18EAEC7DD
311
4555D89EF28DF51A0B1BD8340C4DE7DD848B988C0ACF0649566493F2408C508DDEBB99D5129FF8F1AF8CF5B9503E20FAE5A16B5AF702504B0304140006080800A75E6F45E61D920B340100009A0400003600000030303433414237312D323041452D343733382D383645332D4434464544383132323638392F417373657444
311
6174612F636E782E786D6CCD94314FC3301085FF4AE43D760D544295E30AC1D209242A06B6AB7369AD3A76645F10FC7BEC3403A888A943D7F3BBF3F327BF53EBCFDE551F18930DBE61922F5885DE84D6FA7DC346EAEA7B56ADB58A21D00F19AB3CF4D8B052665AED631887B9D46207A32B5567FD712E3EA484B4859DC3E7EE
311
3178424F8955C6414A0D4BE6803D701829B4988EBC05022E79C414C668304F22DBE33CC94404C296E99B85BCABA5ACE5722BE56A79BB92CB77258A52AB5D086ED6DB7C590C43654EB732BD50A21C6B35463B6BCA5B98FECB23DF59AF44566A9528662673077D0DB90386C1590394D1896008A9CE22845E8993582B5118FC22
311
F1849DF5B6B46CB231A0105FB23D8C64F1EA88FCE7F5F264363E117883D7CBE3DCE1E529BC4E3FE8ED14C82931D796937387DCFAEE022911D31AC9A1295B457F03504B0304140006080800A75E6F450646A495070100004F0300003400000030303433414237312D323041452D343733382D383645332D4434464544383132
311
323638392F536368656D61732F636E782E786D6CCD93314F04211484FF0AA13F58D44DCC85E50A0B2B1BB5B2437877470E781B608DFE7B61A5B84BECB4B80E862F646678C8DD67F0E403527618272AD840094483D6C5C34497B2DFDC53B253322196338C92A8034CB4C954C943C265EE9285BD5E7C53BD8BA72E3E6008185F
311
CC1182A6C4789DF344F3BA657A2968219F98D54533C112645C92817A437101FA0D26812E60A9BA19C4DD46888D185F85D88EB75B31BE49DE4825DF117DE75D2C90702606EB22563B83E4ED58C925B9CEB40C549D7B63B50DC92BA1642EA976D0C9F2355752CFB37746975A155FC11F4649DEA25E047E8408C999EB4C7C61EE
311
DF223F43B4909EEA2B25A7FD7526FFCDE3DF0AE0EBECD711685F417D03504B0304140006080800A75E6F45410A3D5871000000A40000002C00000030303433414237312D323041452D343733382D383645332D4434464544383132323638392F636E782E786D6C55CC4D0E82301086E1AB34B31774E7A22D31F1069E600203
311
34B633A63FC6E34B0909B07DDE2F9FEE7EC1AB2FC5E4840DDC9A2B28E25E06C7938192C7CB1D54677514C9871928C640062A83D55394F2D968A0118BAFEA1DBF377CA444F98919176EAB9FEAAB9F2960DA5BBB1E2ED3FA6FFF504B0304140006080800A75E6F451DF173DC7E000000A300000007000000636E782E786D6C4D
311
8CDF0AC2201C465F457EF796FFD80CD4B198BDC7686E489B86CDE8F1D3D845571F1CBE7354F7D956F476E9E563D0404F04900BF738F9B068C8FB8C25A0CEA814E3FE770314C6CD69A8188C5A52CCCF034D6E1EF35AE9EAC3E3808408DE5F5B8A19E92D162D97583696E341DCEC2029638DBC14E35C9532BF5ED99A375F504B
311
0304140006080800A75E6F4516E99B5DA600000035010000130000005B436F6E74656E745F54797065735D2E786D6C9590410E82301045AFD2740F4517C6180A0BF5065E60AC53688469D30E066F6F91AD9AB89CF9FFFD3F99BA9DC7413C3026E749CB4D59498164FCCD51A7E5C4B6D84BD136F5E5193089ECA5A465CF1C0E
311
4A25D3E308A9F401292BD6C711388FB15301CC1D3A54DBAADA29E38991B8E0254336F5092D4C038BF39CD76B6FC6A538AEBEA54A4B08617006389FA516557DE4AE8E7E70DE30729138228C5F021CD93F02D4FB0DCD0B504B0304140006080800A75E6F453DEE336E64000000790000001B0000006175746F6465736B2D6465
311
7369676E2D7061636B6167652E786D6C35CBC10E83200C00D05F21DCA56CA76D41FC96062B120735B69A7DBE268BB7777961F8D5AF396893C2ADB70FE7ADA196782C2DF776D7A97B5933C430F15651E5469C55D70F80A4992A3ADC954792C525AE70A1E4D6AD9816CC044FEFDF01FE3FDE907802504B0304140006080800A7
311
5E6F455B417041F7000000960100003700000030303433414237312D323041452D343733382D383645332D4434464544383132323638392F4173736574446174612F636F72652E786D6C8550CB6EC32010FC156BEFD8C106378E3091A3F40F7AEA0D01715162B07854FDFC42EC4AEDA9A75DCDCECCEE0E3B7F2D8FEA53FB60
311
9C1D01D707A8B4954E193B8F90E20D1DA13A73E69D8BBF685059B1E8110A0C9CCDDEA57587A4B351DB825AA7F40E8A1074844A3E723342901F7A11B5483133C2BD5E85BC8B59D7B8DE789CA564D42E352ABB999BD11E38212D19F040D0855E3B44A6AE47C3D40D68A0B87FEDE9CBA52747D6143167D12C3FDBA5D7226A05BC
311
3D6082304698BE617CA2DD09D377D614266721FAFCF3BEB47C077C2A575F4514ACD9A67F5CD3AAFE774DC6C6AEDD5D3745008EF391CF01674D4929976784B99644F937504B0304140006080800A75E6F458CB8B5F3F6000000940100003500000030303433414237312D323041452D343733382D383645332D443446454438
311
3132323638392F536368656D61732F636F72652E786D6C8550CB6EC32010FC156BEFD8C106378E3051A2F60BDA536F08888B1283C5A3EAE7176C576A4F3DED6A76667677D8F96B7E549FDA07E3EC08B83E40A5AD74CAD86984146FE808D59933EF5CFC4583CA8A598F5060E06CF22E2D3B249D8DDA16D43AA5775084A02354
311
F2919B1182FCD0B3A8458A9911EEF522E45D4CBAC6F5C6E32C25A376A951D9CDDC8CF6C00969C9800782AEF4B943E4D2F568B874031A28EE5F7AFA74EDC9913545CC5934F3CF76E9B5885A016F0F98208C11A66F189F6877C2F49D3585C959883EFFBC2F2DDF017F5DEF0CACD9667F3CD3A2FEF74CC6C6AEDD3D3745008EF3
311
89EB80B3A66494CB1A60AE254FFE0D504B0304140006080800A75E6F45CC10114902010000D70100002D00000030303433414237312D323041452D343733382D383645332D4434464544383132323638392F636F72652E786D6C9591CB4EC33010457F259ABD93388F36548EABA2862F60C5CEC4D3D46A63477E203E1F9B04
311
013B58D9BA3E77C677861DDFE77BF686D629A37BA0790919EAD148A5A71E82BF900EB22367D618FF03834C8B197B483270365913964D1A8DF6A893AA8DC44D14CEA1876CBCC74B0F6EBCE22C72117C24DC2D5FC4781313E6345F39CEBC9ABFACA345E15102AF4ADA104A096D9F293DB4F581B62FAC48246741695F575B339C
311
5F516666F13112F09615EB6BA482921BA364FCA3BA28B4C0CBB2A94F8F7B4AAAF23490665F77A4DB0D3539374FC3B9A355B5EB1E629168E6CC791B27B3154933F8AB7D35FE4A1616F9CF64ABC301A7DFA18A3466CE8ACF1DC433AD847F00504B0304140006080800A75E6F45A590D18906010000B201000008000000636F72
311
652E786D6C8D50416EC32010FC0ADA3BB6B1C18D234C94A8FD414FBD51435C141B2C0351FBFB42EC4AEDADA74533B33BC3F0D3E73CA1BB5EBD71B607525480B41D9C3276EC21862B3E003A09BE3A177EC9005939EB1E320C828FAB8BCB0E0DCE066D336A9DD23B28BDD701D030A5470F7EF8D0B32C640C49E16FC522879B1C
311
75418A4D277830F3CFEAB06A19B40251578462423061AF841C597324EC8D975929788C46ED5646257773357A0541694D3BD2517C61CF0DA6E7A6C5DDB9E970C748FBD2B2A74B4B0FBCCCCB82FBB0A63FEF4752CE80BCBC675F5E6E94E0EFCE4DBB208552C8D9E90B44C5CB4CFC091D17F58FD0C686A6DE0F6E1B1E0449811E
311
4432CE0DA6F1A837CDDCB6F806504B01021400140006080800A75E6F453CC2A371D9000000200100004F000000000000000000000000000000000030303433414237312D323041452D343733382D383645332D4434464544383132323638392F4173736574446174612F446566696E6974696F6E4974657261746F7250726F
311
706572746965732E62696E504B01021400140006080800A75E6F45D804EB7C000100003002000045000000000000000000000000004601000030303433414237312D323041452D343733382D383645332D4434464544383132323638392F4173736574446174612F496E7374616E636550726F706572746965732E62696E50
311
4B01021400140006080800A75E6F4528BB58AF800100009E0500003D00000000000000000000000000A902000030303433414237312D323041452D343733382D383645332D4434464544383132323638392F536368656D61732F436F6D6D6F6E536368656D612E786D6C504B01021400140006080800A75E6F452CCEBD668A
311
040000E01200003E000000000000000000000000008404000030303433414237312D323041452D343733382D383645332D4434464544383132323638392F536368656D61732F47656E65726963536368656D612E786D6C504B01021400140006080800A75E6F456180134D5F0100006B030000450000000000000000000000
311
00006A09000030303433414237312D323041452D343733382D383645332D4434464544383132323638392F536368656D61732F52656E6465724D6174657269616C536368656D612E786D6C504B01021400140006080800A75E6F45D621868A510000005700000047000000000000000000000000002C0B0000303034334142
311
37312D323041452D343733382D383645332D4434464544383132323638392F4173736574446174612F41737365745461626C654F66436F6E74656E74732E62696E504B01021400140006080800A75E6F45F865834058000000680000004500000000000000000000000000E20B000030303433414237312D323041452D3437
311
33382D383645332D4434464544383132323638392F4173736574446174612F53747265616D56657273696F6E5461626C652E696E66504B01021400140006080800A75E6F45E61D920B340100009A04000036000000000000000000000000009D0C000030303433414237312D323041452D343733382D383645332D44344645
311
44383132323638392F4173736574446174612F636E782E786D6C504B01021400140006080800A75E6F450646A495070100004F0300003400000000000000000000000000250E000030303433414237312D323041452D343733382D383645332D4434464544383132323638392F536368656D61732F636E782E786D6C504B01
311
021400140006080800A75E6F45410A3D5871000000A40000002C000000000000000000000000007E0F000030303433414237312D323041452D343733382D383645332D4434464544383132323638392F636E782E786D6C504B01021400140006080800A75E6F451DF173DC7E000000A3000000070000000000000000000000
311
000039100000636E782E786D6C504B01021400140006080800A75E6F4516E99B5DA6000000350100001300000000000000000000000000DC1000005B436F6E74656E745F54797065735D2E786D6C504B01021400140006080800A75E6F453DEE336E64000000790000001B00000000000000000000000000B3110000617574
311
6F6465736B2D64657369676E2D7061636B6167652E786D6C504B01021400140006080800A75E6F455B417041F70000009601000037000000000000000000000000005012000030303433414237312D323041452D343733382D383645332D4434464544383132323638392F4173736574446174612F636F72652E786D6C504B
311
01021400140006080800A75E6F458CB8B5F3F60000009401000035000000000000000000000000009C13000030303433414237312D323041452D343733382D383645332D4434464544383132323638392F536368656D61732F636F72652E786D6C504B01021400140006080800A75E6F45CC10114902010000D70100002D00
311
000000000000000000000000E514000030303433414237312D323041452D343733382D383645332D4434464544383132323638392F636F72652E786D6C504B01021400140006080800A75E6F45A590D18906010000B2010000080000000000000000000000000032160000636F72652E786D6C504B05060000000011001100
311
5A0600005E1700000000
310
504B0304140006080800A75E6F45000000000000000000000000370000006662782F37463041324144352D453238412D343044372D393242412D3034384432413245373641382F617474726962757465732E62696E504B0304140006080800A75E6F45000000000000000000000000350000006662782F3746304132414435
310
2D453238412D343044372D393242412D3034384432413245373641382F76657274696365732E62696E504B0304140006080800A75E6F45F270F1330600000004000000360000006662782F37463041324144352D453238412D343044372D393242412D3034384432413245373641382F747269616E676C65732E62696E6366
310
60600000504B0304140006080800A75E6F4551464CB48900000043010000360000006662782F37463041324144352D453238412D343044372D393242412D3034384432413245373641382F6469726563746F72792E786D6C9D8F310EC2300C45AF127987122606C71DD918B841D4B851A43646695A717C52A85029031293A5
310
A76FBF6FACEF7DA7264E43906840EF0FA03836E242F406C6DCEE4EA06AC22492573150D1F66C60C640E8938CB705396EEDD86DE9B5042FE27813D640EA63BB001C722AF6E55CB61E4863F58284D5D3F53DD715CE1C3985E63FD7F1B7EBDD617E9F1E504B0304140006080800A75E6F454F02056E3E070000201C0000340000
310
006662782F37463041324144352D453238412D343044372D393242412D3034384432413245373641382F6F626A656374732E786D6CDD595B6FE23814FE2B56F665F721242140614419B5504668D499D1A059ED5B6482A1DE3A1739494BF7D7EFB16387380D90CE455A6D2B15EAD8C7E77CE77E327D7F88187A223CA3497C6D
310
793DD742240E932D8DF7D75691EFECB185DECFD09427495EDB67A11847E4DA12CBD66CBAE74991AAA52DD9E182355797B77FA12C2431B150C870965D5B59F84022DCC3459E6C49F6D8DBE21CF7F6BB43CFEB951B4DB27B8ED387C65529E624CE8155588F818AE2C033FF05919CD9D4111B8C6D7EB76DFD33DB1C29B8C9288D
310
B31CC7E12BAE1AD7F54F70D5B8CEF7068BBBFE70620F0703DF1E8CFA9E7DBBBC5DD8DE95EFCE47F3F9E4E66E62A1D9749324AC52404AE22D68F1C59A7953473CA9C45728B4F11D26714C428566DB862D517429C99A9818C07A52B49A424A596B0B7E47E14F6CEB048AC19281B6164E7FD6AD37D9FC0D20645DAC9467445879
310
9673D0B5C2BEF40777EA94AB865E6886229C134E31438C6E38E6A020D85A2AC82023BC4590420233A9454DAFCE2B18F6655F6AE372573026FCD79A494F0BC01F499E49CEE83F841FB9AFDF063C81B4058DF3B112367F4981C464EAC8C5F299DF570F4B20D18EE13D580B882936F9FD065E73110B560B6BF671B939AC457C68
310
BF3CE5494A782E2C4F3AB3F23BADC19A6981F17500A5C4D5D4DD1195AF00FD2740BEE2054D41739C1E068781969DE338DB253C02ED2017D92EFC7191F8FAEADBD4A90ECF103262E5294CC16D7F12A68618C6DD354867D32730FA84FB4AB8758819D8F43D8D859F83A12096C012C4FBDDE660CD56104C61114E6106D2C3EFD4
310
115F117C947420DE3434D4167E3B284A3B4CD3CF8EBAFA0036C36958A9CA90F114BEC39F82EFCD62FD715DF01D0EC9BD72EC05D9D198E6904CDB193240375CFEDBEA93F4C80F2CD960763C6D6C0AE19A7D22E2468B5AD64A2D48EA05381169B8D48C5CB9A7E0ED8CE1982445A6D6DBE25498B084079B97A074E1D6BBFED436
310
505EA60CA0359641720F394D0526D64C69AB0A84BD9AA06061982B0BDC975A0D36459406384A8A5884DAD7A6D8E403E28CB044A02AA969C3D65EABC96EE96E576410BC5A49CE0D20953F6BC2A5850F208EB5F1CBC98E6348A2491C50C8C1E02CAD37181754E09DE739236C1750C68A28D85106792488707A827E4709EA99EB
310
91BC3C277CDB4AD0B42CED93DA8604E00A580D92CE5665CC573AE5E4898A3253E6339D0D8C1DAA0EB5668313E942648A1640B5314A33BF5A2CFBC3C1686CCFEFE6737B3019CCEDF1B07F6B4FC6FD2BF766ECDF2C96472B91081CA3553DDF812A459963F85FFE50449B1853060F84D8789BBE7B2FB3E7B503A1D1F1E7833BFF
310
6E39B06FBDF9D21EB88B917D7B3BF2819589DFBF1B4E8683E1D2E1244B0A1E92CCE93B6EA04D328DF74DF42EC750286B2E273BADAFA630FFE318DACC098612FFAB41B4B2CA9682B06B1015479B2114878F22450521547DADEED308A24D3EDAE2DC1BE3B2DBF35DF9E37993BE3BE98F27A3CAD8CF066A79CF0FC7B9360942E8
310
3B8B3C48521CD2BC3DA13670E918A7DF945B7ABE3744804EF5B7BAE47C9E51970434C27B12ECB0E8125A02E325095A73D89E2559466392C92EEF55F5D7A0E9F6A09832736E8B11D22C88488EBFC7FE64DBD0B06988CD2C807E341713818B554165D0AA0339455174BF90B8A5FC2F4186A394959DEE250CBCBE8640F7386D16
310
279816573C81BD05380FDC2D91838B4BD42BF6757DD0AAB526F5C977933F018FAE6B7E213CFA8AEEA5536FE84DC4CF1882CA68E8F9575A1197B0D257E5A28F6305749EE14BF04CE8FEA153A1D94D27B592AD2CAA7312411B8BF38277F2D7D1D07D75918A0B0D87A8DDF4C6E250F66FBA8303F4640377AABCAD5D0375288D61
310
CED549905752B49AB0D4859CE989D1D51BFCFAACB2EB547F385EFEF28AB9EE7C911CFE5CC601AAE53200ABE863D4D4AD55B7510F65CF380F2190AEE5A77D0B1EB125DB636366906B2BD1759D7AA97A5E89801AC1C4168B387B2FBEB0AF18540DDD73E67C288B36A75C5F89C4D683E1F4910F836993D6E70FEB061558E97CFA
310
8BC0883C3728A8D5B9E886CF90FAB63AF6FC0D0A4AA26FAB33C7FF131D8556606D8C06D3E02C611486F2648BF62481EC0D63870EDD068F4826B33218AF0A52FA8D4087D34FE54C35C71BA64F870F1806D34CF56245084351C898D7965A47BFC118544C22E570AAF7086D988A61162A38BDB6C062730ADD566F03E32C393C94
310
D41BE34A706C1CEF45BE2F4F55FF1F8F0974202A1DE5AAF674C1454966381314B6A97C4F00555FF96036FD7ED1353B08E7F07553E49530C785A3340A04FD42A0140EA67E8F0ADE031414E7E5F27A728F0149A7C9FC593B28A9DA39E67B395EAFE17DB3F8E288C9F8EA334A59B117EA3CD7FD1A946CD175B3A29C424DC13094
310
98291635E4FC9DF38527F08A29424B0A46807E3F8C477F38F3248A92B85C726ED48B2AB47E80D74E5B478FFCA08D77BDA123A7006AAC1F6C70467A789B3DC202A89653311B2D21360CA08AA63503D01A11BA8063C6FED502A9DAA83621A9875D018F9CE9237024F12E47B84D7D436D0009BE005CC987C72F7A61EA701882CF
310
FE05504B0304140006080800A75E6F45F54771E63C01000046050000300000006662782F37463041324144352D453238412D343044372D393242412D3034384432413245373641382F636E782E786D6CCD94C14E032110865F85705F286A13D3B034F1E0137830DE5876BA6259D8C060ECDB0B755B35A6C643937A23C33FC9
310
FFCDFC19B97E1B1D7985986CF02D156C410978137AEB879666DC34B794AC958C21E01719255E8FD0D25AA64A0E31E4692EF5B0D1D9D5AAB37E3B173562B45D46489418A7536A6932CF306AA633861ED296F51A35132C420A391A28FD684798FB4D048DD05375B510378D108D583E08B15A5EAFC4F249F2AA54B20BC1CD7AEB
310
1162988809E5E18B9985E4F55BC91CEDACA904547D3A639DF592977F255371EB875987BBA9EAA6C959A3B18C890783804D11811E25FF102BC92BEF37EAFBBBC78303D2DB080643DC5D6800E2D4008EC65849C2DFF8F7C2DFB143F752702FB5ED93B0B3ADB3A11ED29A4A5C7FEEBFA448FBC1FDBFD01F8D9D3FF3E594A035FF
310
0FF9E0EB4CC47C7FF2CAD2EB0554EF504B0304140006080800A75E6F459BEE28DF7E000000A30000000B0000006662782F636E782E786D6C4D8CD10AC22018465F45FE7BCB64A5C174FCE17A8FD1DC909C0E9BD1E3A7B18BAE3E387CE7B4DD67F1E46DD3CBC5A0E07460406C78C4D1855941DE262A8174BA4D316E7F372061
310
58AC828A41B7738A79DDD168A721FB4ABD0BCF1D8A3B438EE64C7B2E9136CC087AE537A4AC918623EFC50565318E5529F3EB95AD79FD05504B0304140006080800A75E6F45A6D797065F0000008200000007000000636E782E786D6C4DCB3B0E80201045D1AD90E9FD7516806B51190811670C8A61F982B1B0BAC9C97B72CA
310
7B1037C6D3332918DA1E04D2CAC69353902EDB8C20262D23F3F59B81A079470595414B17391D1F19B4730A5583A7ED43BBE4025D9592775E5ADFFA01504B0304140006080800A75E6F454FEB6A7CA0000000F4000000130000005B436F6E74656E745F54797065735D2E786D6C7D8F4B0EC2300C44AF1279DFA6B0400835ED
310
02B8011730C16D239A8F121795DB93D02D6269CFBC19BBED573B8B17C564BC53B0AB1B10E4B47F18372A5878A88E20FAAEBDBD032591BD2E299898C349CAA427B2986A1FC86565F0D122E7318E32A07EE24872DF3407A9BD63725C71C980AEBDD080CBCCE2BAE6F5D69B7110E7CD57AA146008B3D1C8F92C5954F993BB1BF7
310
87F39A89ABC491D09600F9FDA2FB00504B0304140006080800A75E6F453DEE336E64000000790000001B0000006175746F6465736B2D64657369676E2D7061636B6167652E786D6C35CBC10E83200C00D05F21DCA56CA76D41FC96062B120735B69A7DBE268BB7777961F8D5AF396893C2ADB70FE7ADA196782C2DF776D7A9
310
7B5933C430F15651E5469C55D70F80A4992A3ADC954792C525AE70A1E4D6AD9816CC044FEFDF01FE3FDE907802504B0304140006080800A75E6F453E4E4E3DF8000000960100003B0000006662782F37463041324144352D453238412D343044372D393242412D3034384432413245373641382F7265736F75726365732F63
310
6F72652E786D6C8550CB6E833010FC15B477438C834A22E32880FA053DF566990DB5126CE447D5CFAF1DA8D49E7ADAD5ECCCECEEF0CBD7F2283ED1796D4D07B43C408146D9499BB983186EA485E222B8B336FCA24161E4821D6418049F9D8DEB0E296B029A8C1A3BE10E4AEF3140A11EA9E9C0AB0F5C642963480C7F2F57A9
310
EE72C692961B4FF018F5B44BF594DCF44DA303D19EC6767C61AF64607D4F8E43DF906BCB28A9C7FED0B2E17A1A869157592C78D0CBCF76E550069C40D4077A249412DABC517A6ED89936EFBCCA4CC17D70E9E77D69FE0E84436FA353E879B54DFFB8C675FADF356A1358BDBB6E0A0F82A6239F03C1AB9C522ACF0853CD898A
310
6F504B0304140006080800A75E6F459D311C38F2000000B1010000310000006662782F37463041324144352D453238412D343044372D393242412D3034384432413245373641382F636F72652E786D6C8D50CB6EC32010FC156BEFD886D8B51B61222AA75FD0536F08130725068B47D5CF2FC4AED4DE725A343BC3CC0E3D7D
310
2FF7E24B39AFAD1900973514CA483B69330F10C305F5509C1875D6863F34288C58D4001906466767E3BA43D29AA04C468D9DD40E0AEF558042DED363002FAF6A11A5882131FCAD5C85BC895995B8DC788C06BDFC4AA55322A80918A971833046B8FDC0F8D81E8EB8FDA45566321AA39E762B3D25777DD1CA01EBDE6B4EF8D8
310
A233E9396AEAB143AFE48DA3BAE947C2C9B97BE13DADB298511F5CBA79FF245FF7AC7C13FECB1CD7E989CCDA8403D90D37850786539EC782D12A1798C6A3DD3473D9EC07504B0304140006080800A75E6F457478F10053010000DD0200000C0000006662782F636F72652E786D6C8D525D6F832014FD2B8677B468CD6C8334
310
55B35FB0A7BD51A48E54C12098FEFC811F713EAC5B4C909C7BEF39F79C802FCFAE0D46AE07A1640E50780001974CD5423639B0E60E33105C08D64A991F6D2090B4E339F03020B8D1CAF60BC494345C7A54AA9A2F201D066E40C05A77C9C1C0BE7847436A8DEB181E614FD983363C44E1DC47B0B5A25E4645EDD8C45D700D48
310
76AAB2EA2D7987655214F0581629BC66098271551CB2A4BC9ECAB2C2911F26D8886E55679A53C36B40E2033A4284204A3F103AA7C919A59F38F29D040F463BCF8BA87707C8FDF6C4D18CEFF86C5FFFCD67853449BCF0CD130320C8AD3715088E7C3EEE3785B7CFD009BBFC0CBDB5AB85878346CE8CD24757A995DD4A236D2D
310
77D48760FA7034571DF344F01B4FFC82E735870B8ACAC6AD468DBBDEACF1EAFB9D7AAEE1689E8154BAA3EDB6DCBCE2766E423B4BEB3853ADD2FF995EADAE6146FE61926F504B0304140006080800A75E6F45C6570F3207010000B201000008000000636F72652E786D6C8D50C16E842014FC15F2EEA8E89ABA1B64B36AFA05
310
3DF5468175C92A18814DFBF785D526EDADA74766E6BD19869E3FE7093DD4EAB4352D90AC00A48CB0529BB185E0AFB801746674B5D6FF9201327C562D2418181D571B961D12D67865126AAC543BC89D531E9098E2A305276E6AE6190F3E2ADC3D5BB8B8F3516524DB748C7A3DFFAC8A5571AF24B0B220074C0826F51B21A7BA
310
3A91FA9DE649C968085AEE565A46777DD56A05D61C876678A95E715F751D3EF45D8D2F4D457039744553F59763DF0F344FCB8C3ABFC63FEF47624E8F1C7F245F9A6F14A31FD64EBB208692C89AE90B5841F344FC091D16F98FD0DAF8AADC0F6E1B0E1889819E44344E0DC6F1AC37CED436FB06504B01021400140006080800
310
A75E6F450000000000000000000000003700000000000000000000000000000000006662782F37463041324144352D453238412D343044372D393242412D3034384432413245373641382F617474726962757465732E62696E504B01021400140006080800A75E6F4500000000000000000000000035000000000000000000
310
00000000550000006662782F37463041324144352D453238412D343044372D393242412D3034384432413245373641382F76657274696365732E62696E504B01021400140006080800A75E6F45F270F13306000000040000003600000000000000000000000000A80000006662782F37463041324144352D453238412D3430
310
44372D393242412D3034384432413245373641382F747269616E676C65732E62696E504B01021400140006080800A75E6F4551464CB489000000430100003600000000000000000000000000020100006662782F37463041324144352D453238412D343044372D393242412D3034384432413245373641382F646972656374
310
6F72792E786D6C504B01021400140006080800A75E6F454F02056E3E070000201C00003400000000000000000000000000DF0100006662782F37463041324144352D453238412D343044372D393242412D3034384432413245373641382F6F626A656374732E786D6C504B01021400140006080800A75E6F45F54771E63C01
310
00004605000030000000000000000000000000006F0900006662782F37463041324144352D453238412D343044372D393242412D3034384432413245373641382F636E782E786D6C504B01021400140006080800A75E6F459BEE28DF7E000000A30000000B00000000000000000000000000F90A00006662782F636E782E78
310
6D6C504B01021400140006080800A75E6F45A6D797065F000000820000000700000000000000000000000000A00B0000636E782E786D6C504B01021400140006080800A75E6F454FEB6A7CA0000000F40000001300000000000000000000000000240C00005B436F6E74656E745F54797065735D2E786D6C504B0102140014
310
0006080800A75E6F453DEE336E64000000790000001B00000000000000000000000000F50C00006175746F6465736B2D64657369676E2D7061636B6167652E786D6C504B01021400140006080800A75E6F453E4E4E3DF8000000960100003B00000000000000000000000000920D00006662782F37463041324144352D4532
310
38412D343044372D393242412D3034384432413245373641382F7265736F75726365732F636F72652E786D6C504B01021400140006080800A75E6F459D311C38F2000000B10100003100000000000000000000000000E30E00006662782F37463041324144352D453238412D343044372D393242412D303438443241324537
310
3641382F636F72652E786D6C504B01021400140006080800A75E6F457478F10053010000DD0200000C00000000000000000000000000241000006662782F636F72652E786D6C504B01021400140006080800A75E6F45C6570F3207010000B20100000800000000000000000000000000A1110000636F72652E786D6C504B05
310
06000000000E000E0080040000CE1200000000
  0
XRECORD
  5
E7BF
102
{ACAD_REACTORS
330
5073
102
}
330
5073
100
AcDbXrecord
280
     1
102
DISPLAYNAME
  1
Imperial24
102
FLAGS
 90
        0
  0
XRECORD
  5
E7BD
102
{ACAD_REACTORS
330
506F
102
}
330
506F
100
AcDbXrecord
280
     1
102
DISPLAYNAME
  1
Metric50
102
FLAGS
 90
        0
  0
CELLSTYLEMAP
  5
E77B
102
{ACAD_REACTORS
330
3AF5
102
}
330
3AF5
100
AcDbCellStyleMap
 90
        3
300
CELLSTYLE
  1
TABLEFORMAT_BEGIN
 90
        5
170
     1
 91
        0
 92
    32768
 62
   257
 93
        1
300
CONTENTFORMAT
  1
CONTENTFORMAT_BEGIN
 90
        0
 91
        0
 92
        4
 93
        0
300

 40
0.0
140
1.0
 94
        5
 62
   256
340
10
144
4.0
309
CONTENTFORMAT_END
171
     1
301
MARGIN
  1
CELLMARGIN_BEGIN
 40
1.5
 40
1.5
 40
1.5
 40
1.5
 40
0.18
 40
0.18
309
CELLMARGIN_END
 94
        6
 95
        1
302
GRIDFORMAT
  1
GRIDFORMAT_BEGIN
 90
        0
 91
        1
 62
     0
 92
       -2
340
0
 93
        0
 40
0.045
309
GRIDFORMAT_END
 95
        2
302
GRIDFORMAT
  1
GRIDFORMAT_BEGIN
 90
        0
 91
        1
 62
     0
 92
       -2
340
0
 93
        0
 40
0.045
309
GRIDFORMAT_END
 95
        4
302
GRIDFORMAT
  1
GRIDFORMAT_BEGIN
 90
        0
 91
        1
 62
     0
 92
       -2
340
0
 93
        0
 40
0.045
309
GRIDFORMAT_END
 95
        8
302
GRIDFORMAT
  1
GRIDFORMAT_BEGIN
 90
        0
 91
        1
 62
     0
 92
       -2
340
0
 93
        0
 40
0.045
309
GRIDFORMAT_END
 95
       16
302
GRIDFORMAT
  1
GRIDFORMAT_BEGIN
 90
        0
 91
        1
 62
     0
 92
       -2
340
0
 93
        0
 40
0.045
309
GRIDFORMAT_END
 95
       32
302
GRIDFORMAT
  1
GRIDFORMAT_BEGIN
 90
        0
 91
        1
 62
     0
 92
       -2
340
0
 93
        0
 40
0.045
309
GRIDFORMAT_END
309
TABLEFORMAT_END
  1
CELLSTYLE_BEGIN
 90
        1
 91
        1
300
_TITLE
309
CELLSTYLE_END
300
CELLSTYLE
  1
TABLEFORMAT_BEGIN
 90
        5
170
     1
 91
        0
 92
        0
 62
   257
 93
        1
300
CONTENTFORMAT
  1
CONTENTFORMAT_BEGIN
 90
        0
 91
        0
 92
        4
 93
        0
300

 40
0.0
140
1.0
 94
        5
 62
   256
340
10
144
3.5
309
CONTENTFORMAT_END
171
     1
301
MARGIN
  1
CELLMARGIN_BEGIN
 40
1.5
 40
1.5
 40
1.5
 40
1.5
 40
0.18
 40
0.18
309
CELLMARGIN_END
 94
        6
 95
        1
302
GRIDFORMAT
  1
GRIDFORMAT_BEGIN
 90
        0
 91
        1
 62
     0
 92
       -2
340
0
 93
        0
 40
0.045
309
GRIDFORMAT_END
 95
        2
302
GRIDFORMAT
  1
GRIDFORMAT_BEGIN
 90
        0
 91
        1
 62
     0
 92
       -2
340
0
 93
        0
 40
0.045
309
GRIDFORMAT_END
 95
        4
302
GRIDFORMAT
  1
GRIDFORMAT_BEGIN
 90
        0
 91
        1
 62
     0
 92
       -2
340
0
 93
        0
 40
0.045
309
GRIDFORMAT_END
 95
        8
302
GRIDFORMAT
  1
GRIDFORMAT_BEGIN
 90
        0
 91
        1
 62
     0
 92
       -2
340
0
 93
        0
 40
0.045
309
GRIDFORMAT_END
 95
       16
302
GRIDFORMAT
  1
GRIDFORMAT_BEGIN
 90
        0
 91
        1
 62
     0
 92
       -2
340
0
 93
        0
 40
0.045
309
GRIDFORMAT_END
 95
       32
302
GRIDFORMAT
  1
GRIDFORMAT_BEGIN
 90
        0
 91
        1
 62
     0
 92
       -2
340
0
 93
        0
 40
0.045
309
GRIDFORMAT_END
309
TABLEFORMAT_END
  1
CELLSTYLE_BEGIN
 90
        2
 91
        1
300
_HEADER
309
CELLSTYLE_END
300
CELLSTYLE
  1
TABLEFORMAT_BEGIN
 90
        5
170
     1
 91
        0
 92
        0
 62
   257
 93
        1
300
CONTENTFORMAT
  1
CONTENTFORMAT_BEGIN
 90
        0
 91
        0
 92
        4
 93
        0
300

 40
0.0
140
1.0
 94
        2
 62
   256
340
10
144
2.5
309
CONTENTFORMAT_END
171
     1
301
MARGIN
  1
CELLMARGIN_BEGIN
 40
1.5
 40
1.5
 40
1.5
 40
1.5
 40
0.18
 40
0.18
309
CELLMARGIN_END
 94
        6
 95
        1
302
GRIDFORMAT
  1
GRIDFORMAT_BEGIN
 90
        0
 91
        1
 62
     0
 92
       -2
340
0
 93
        0
 40
0.045
309
GRIDFORMAT_END
 95
        2
302
GRIDFORMAT
  1
GRIDFORMAT_BEGIN
 90
        0
 91
        1
 62
     0
 92
       -2
340
0
 93
        0
 40
0.045
309
GRIDFORMAT_END
 95
        4
302
GRIDFORMAT
  1
GRIDFORMAT_BEGIN
 90
        0
 91
        1
 62
     0
 92
       -2
340
0
 93
        0
 40
0.045
309
GRIDFORMAT_END
 95
        8
302
GRIDFORMAT
  1
GRIDFORMAT_BEGIN
 90
        0
 91
        1
 62
     0
 92
       -2
340
0
 93
        0
 40
0.045
309
GRIDFORMAT_END
 95
       16
302
GRIDFORMAT
  1
GRIDFORMAT_BEGIN
 90
        0
 91
        1
 62
     0
 92
       -2
340
0
 93
        0
 40
0.045
309
GRIDFORMAT_END
 95
       32
302
GRIDFORMAT
  1
GRIDFORMAT_BEGIN
 90
        0
 91
        1
 62
     0
 92
       -2
340
0
 93
        0
 40
0.045
309
GRIDFORMAT_END
309
TABLEFORMAT_END
  1
CELLSTYLE_BEGIN
 90
        3
 91
        2
300
_DATA
309
CELLSTYLE_END
  0
CELLSTYLEMAP
  5
E77A
102
{ACAD_REACTORS
330
2036
102
}
330
2036
100
AcDbCellStyleMap
 90
        3
300
CELLSTYLE
  1
TABLEFORMAT_BEGIN
 90
        5
170
     1
 91
        0
 92
    32768
 62
   257
 93
        1
300
CONTENTFORMAT
  1
CONTENTFORMAT_BEGIN
 90
        0
 91
        0
 92
        4
 93
        0
300

 40
0.0
140
1.0
 94
        5
 62
     0
340
10
144
3.0
309
CONTENTFORMAT_END
171
     1
301
MARGIN
  1
CELLMARGIN_BEGIN
 40
1.5
 40
1.5
 40
1.5
 40
1.5
 40
0.18
 40
0.18
309
CELLMARGIN_END
 94
        6
 95
        1
302
GRIDFORMAT
  1
GRIDFORMAT_BEGIN
 90
        0
 91
        1
 62
     0
 92
       -2
340
0
 93
        0
 40
0.045
309
GRIDFORMAT_END
 95
        2
302
GRIDFORMAT
  1
GRIDFORMAT_BEGIN
 90
        0
 91
        1
 62
     0
 92
       -2
340
0
 93
        0
 40
0.045
309
GRIDFORMAT_END
 95
        4
302
GRIDFORMAT
  1
GRIDFORMAT_BEGIN
 90
        0
 91
        1
 62
     0
 92
       -2
340
0
 93
        0
 40
0.045
309
GRIDFORMAT_END
 95
        8
302
GRIDFORMAT
  1
GRIDFORMAT_BEGIN
 90
        0
 91
        1
 62
     0
 92
       -2
340
0
 93
        0
 40
0.045
309
GRIDFORMAT_END
 95
       16
302
GRIDFORMAT
  1
GRIDFORMAT_BEGIN
 90
        0
 91
        1
 62
     0
 92
       -2
340
0
 93
        0
 40
0.045
309
GRIDFORMAT_END
 95
       32
302
GRIDFORMAT
  1
GRIDFORMAT_BEGIN
 90
        0
 91
        1
 62
     0
 92
       -2
340
0
 93
        0
 40
0.045
309
GRIDFORMAT_END
309
TABLEFORMAT_END
  1
CELLSTYLE_BEGIN
 90
        1
 91
        1
300
_TITLE
309
CELLSTYLE_END
300
CELLSTYLE
  1
TABLEFORMAT_BEGIN
 90
        5
170
     1
 91
        0
 92
        0
 62
   257
 93
        1
300
CONTENTFORMAT
  1
CONTENTFORMAT_BEGIN
 90
        0
 91
        0
 92
        4
 93
        0
300

 40
0.0
140
1.0
 94
        5
 62
     0
340
10
144
2.5
309
CONTENTFORMAT_END
171
     1
301
MARGIN
  1
CELLMARGIN_BEGIN
 40
1.5
 40
1.5
 40
1.5
 40
1.5
 40
0.18
 40
0.18
309
CELLMARGIN_END
 94
        6
 95
        1
302
GRIDFORMAT
  1
GRIDFORMAT_BEGIN
 90
        0
 91
        1
 62
     0
 92
       -2
340
0
 93
        0
 40
0.045
309
GRIDFORMAT_END
 95
        2
302
GRIDFORMAT
  1
GRIDFORMAT_BEGIN
 90
        0
 91
        1
 62
     0
 92
       -2
340
0
 93
        0
 40
0.045
309
GRIDFORMAT_END
 95
        4
302
GRIDFORMAT
  1
GRIDFORMAT_BEGIN
 90
        0
 91
        1
 62
     0
 92
       -2
340
0
 93
        0
 40
0.045
309
GRIDFORMAT_END
 95
        8
302
GRIDFORMAT
  1
GRIDFORMAT_BEGIN
 90
        0
 91
        1
 62
     0
 92
       -2
340
0
 93
        0
 40
0.045
309
GRIDFORMAT_END
 95
       16
302
GRIDFORMAT
  1
GRIDFORMAT_BEGIN
 90
        0
 91
        1
 62
     0
 92
       -2
340
0
 93
        0
 40
0.045
309
GRIDFORMAT_END
 95
       32
302
GRIDFORMAT
  1
GRIDFORMAT_BEGIN
 90
        0
 91
        1
 62
     0
 92
       -2
340
0
 93
        0
 40
0.045
309
GRIDFORMAT_END
309
TABLEFORMAT_END
  1
CELLSTYLE_BEGIN
 90
        2
 91
        1
300
_HEADER
309
CELLSTYLE_END
300
CELLSTYLE
  1
TABLEFORMAT_BEGIN
 90
        5
170
     1
 91
        0
 92
        0
 62
   257
 93
        1
300
CONTENTFORMAT
  1
CONTENTFORMAT_BEGIN
 90
        0
 91
        0
 92
        4
 93
        0
300

 40
0.0
140
1.0
 94
        2
 62
     0
340
10
144
2.0
309
CONTENTFORMAT_END
171
     1
301
MARGIN
  1
CELLMARGIN_BEGIN
 40
1.25
 40
1.25
 40
1.5
 40
1.5
 40
0.18
 40
0.18
309
CELLMARGIN_END
 94
        6
 95
        1
302
GRIDFORMAT
  1
GRIDFORMAT_BEGIN
 90
        0
 91
        1
 62
     0
 92
       -2
340
0
 93
        0
 40
0.045
309
GRIDFORMAT_END
 95
        2
302
GRIDFORMAT
  1
GRIDFORMAT_BEGIN
 90
        0
 91
        1
 62
     0
 92
       -2
340
0
 93
        0
 40
0.045
309
GRIDFORMAT_END
 95
        4
302
GRIDFORMAT
  1
GRIDFORMAT_BEGIN
 90
        0
 91
        1
 62
     0
 92
       -2
340
0
 93
        0
 40
0.045
309
GRIDFORMAT_END
 95
        8
302
GRIDFORMAT
  1
GRIDFORMAT_BEGIN
 90
        0
 91
        1
 62
     0
 92
       -2
340
0
 93
        0
 40
0.045
309
GRIDFORMAT_END
 95
       16
302
GRIDFORMAT
  1
GRIDFORMAT_BEGIN
 90
        0
 91
        1
 62
     0
 92
       -2
340
0
 93
        0
 40
0.045
309
GRIDFORMAT_END
 95
       32
302
GRIDFORMAT
  1
GRIDFORMAT_BEGIN
 90
        0
 91
        1
 62
     0
 92
       -2
340
0
 93
        0
 40
0.045
309
GRIDFORMAT_END
309
TABLEFORMAT_END
  1
CELLSTYLE_BEGIN
 90
        3
 91
        2
300
_DATA
309
CELLSTYLE_END
  0
XRECORD
  5
E794
102
{ACAD_REACTORS
330
E793
102
}
330
E793
100
AcDbXrecord
280
     1
102
RTVSPost2010Prop28
280
     1
102
RTVSPost2010PropOp28
 70
     1
102
RTVSPost2010Prop29
280
     1
102
RTVSPost2010PropOp29
 70
     1
102
RTVSPost2010Prop30
280
     0
102
RTVSPost2010PropOp30
 70
     1
102
RTVSPost2010Prop31
280
     0
102
RTVSPost2010PropOp31
 70
     1
102
RTVSPost2010Prop32
280
     0
102
RTVSPost2010PropOp32
 70
     1
102
RTVSPost2010Prop33
280
     0
102
RTVSPost2010PropOp33
 70
     1
102
RTVSPost2010Prop34
280
     0
102
RTVSPost2010PropOp34
 70
     1
102
RTVSPost2010Prop35
280
     0
102
RTVSPost2010PropOp35
 70
     1
102
RTVSPost2010Prop36
280
     0
102
RTVSPost2010PropOp36
 70
     1
102
RTVSPost2010Prop37
 90
       50
102
RTVSPost2010PropOp37
 70
     1
102
RTVSPost2010Prop38
140
0.0
102
RTVSPost2010PropOp38
 70
     1
102
RTVSPost2010Prop39
140
1.0
102
RTVSPost2010PropOp39
 70
     1
102
RTVSPost2010Prop40
 90
        0
102
RTVSPost2010PropOp40
 70
     1
102
RTVSPost2010Prop41ColorIndex
 90
       18
102
RTVSPost2010Prop41ColorRGB
 90
        0
102
RTVSPost2010PropOp41
 70
     1
102
RTVSPost2010Prop42
 90
       50
102
RTVSPost2010PropOp42
 70
     1
102
RTVSPost2010Prop43
 90
        3
102
RTVSPost2010PropOp43
 70
     1
102
RTVSPost2010Prop44ColorIndex
 90
        5
102
RTVSPost2010Prop44ColorRGB
 90
      255
102
RTVSPost2010PropOp44
 70
     1
102
RTVSPost2010Prop45
280
     0
102
RTVSPost2010PropOp45
 70
     1
102
RTVSPost2010Prop46
 90
       50
102
RTVSPost2010PropOp46
 70
     1
102
RTVSPost2010Prop47
 90
       50
102
RTVSPost2010PropOp47
 70
     1
102
RTVSPost2010Prop48
 90
       50
102
RTVSPost2010PropOp48
 70
     1
102
RTVSPost2010Prop49
280
     0
102
RTVSPost2010PropOp49
 70
     1
102
RTVSPost2010Prop50
 90
       50
102
RTVSPost2010PropOp50
 70
     1
102
RTVSPost2010Prop51ColorIndex
 90
      256
102
RTVSPost2010Prop51ColorRGB
 90
-16777216
102
RTVSPost2010PropOp51
 70
     0
102
RTVSPost2010Prop52
140
1.0
102
RTVSPost2010PropOp52
 70
     0
102
RTVSPost2010Prop53
 90
        2
102
RTVSPost2010PropOp53
 70
     1
102
RTVSPost2010Prop54
  1
strokes_ogs.tif
102
RTVSPost2010PropOp54
 70
     1
102
RTVSPost2010Prop55
280
     0
102
RTVSPost2010PropOp55
 70
     1
102
RTVSPost2010Prop56
140
1.0
102
RTVSPost2010PropOp56
 70
     1
102
RTVSPost2010Prop57
140
1.0
102
RTVSPost2010PropOp57
 70
     1
  0
XRECORD
  5
E798
102
{ACAD_REACTORS
330
E797
102
}
330
E797
100
AcDbXrecord
280
     1
102
RTVSPost2010Prop28
280
     0
102
RTVSPost2010PropOp28
 70
     1
102
RTVSPost2010Prop29
280
     1
102
RTVSPost2010PropOp29
 70
     1
102
RTVSPost2010Prop30
280
     1
102
RTVSPost2010PropOp30
 70
     1
102
RTVSPost2010Prop31
280
     0
102
RTVSPost2010PropOp31
 70
     1
102
RTVSPost2010Prop32
280
     0
102
RTVSPost2010PropOp32
 70
     1
102
RTVSPost2010Prop33
280
     0
102
RTVSPost2010PropOp33
 70
     1
102
RTVSPost2010Prop34
280
     0
102
RTVSPost2010PropOp34
 70
     1
102
RTVSPost2010Prop35
280
     0
102
RTVSPost2010PropOp35
 70
     1
102
RTVSPost2010Prop36
280
     0
102
RTVSPost2010PropOp36
 70
     1
102
RTVSPost2010Prop37
 90
       50
102
RTVSPost2010PropOp37
 70
     1
102
RTVSPost2010Prop38
140
0.0
102
RTVSPost2010PropOp38
 70
     1
102
RTVSPost2010Prop39
140
1.0
102
RTVSPost2010PropOp39
 70
     1
102
RTVSPost2010Prop40
 90
        0
102
RTVSPost2010PropOp40
 70
     1
102
RTVSPost2010Prop41ColorIndex
 90
       18
102
RTVSPost2010Prop41ColorRGB
 90
        0
102
RTVSPost2010PropOp41
 70
     1
102
RTVSPost2010Prop42
 90
       50
102
RTVSPost2010PropOp42
 70
     1
102
RTVSPost2010Prop43
 90
        3
102
RTVSPost2010PropOp43
 70
     1
102
RTVSPost2010Prop44ColorIndex
 90
        5
102
RTVSPost2010Prop44ColorRGB
 90
      255
102
RTVSPost2010PropOp44
 70
     1
102
RTVSPost2010Prop45
280
     0
102
RTVSPost2010PropOp45
 70
     1
102
RTVSPost2010Prop46
 90
       50
102
RTVSPost2010PropOp46
 70
     1
102
RTVSPost2010Prop47
 90
       50
102
RTVSPost2010PropOp47
 70
     1
102
RTVSPost2010Prop48
 90
       50
102
RTVSPost2010PropOp48
 70
     1
102
RTVSPost2010Prop49
280
     0
102
RTVSPost2010PropOp49
 70
     1
102
RTVSPost2010Prop50
 90
       50
102
RTVSPost2010PropOp50
 70
     1
102
RTVSPost2010Prop51ColorIndex
 90
      256
102
RTVSPost2010Prop51ColorRGB
 90
-16777216
102
RTVSPost2010PropOp51
 70
     0
102
RTVSPost2010Prop52
140
1.0
102
RTVSPost2010PropOp52
 70
     0
102
RTVSPost2010Prop53
 90
        2
102
RTVSPost2010PropOp53
 70
     1
102
RTVSPost2010Prop54
  1
strokes_ogs.tif
102
RTVSPost2010PropOp54
 70
     1
102
RTVSPost2010Prop55
280
     0
102
RTVSPost2010PropOp55
 70
     1
102
RTVSPost2010Prop56
140
1.0
102
RTVSPost2010PropOp56
 70
     1
102
RTVSPost2010Prop57
140
1.0
102
RTVSPost2010PropOp57
 70
     1
  0
XRECORD
  5
E796
102
{ACAD_REACTORS
330
E795
102
}
330
E795
100
AcDbXrecord
280
     1
102
RTVSPost2010Prop28
280
     0
102
RTVSPost2010PropOp28
 70
     1
102
RTVSPost2010Prop29
280
     1
102
RTVSPost2010PropOp29
 70
     1
102
RTVSPost2010Prop30
280
     1
102
RTVSPost2010PropOp30
 70
     1
102
RTVSPost2010Prop31
280
     0
102
RTVSPost2010PropOp31
 70
     1
102
RTVSPost2010Prop32
280
     0
102
RTVSPost2010PropOp32
 70
     1
102
RTVSPost2010Prop33
280
     0
102
RTVSPost2010PropOp33
 70
     1
102
RTVSPost2010Prop34
280
     0
102
RTVSPost2010PropOp34
 70
     1
102
RTVSPost2010Prop35
280
     0
102
RTVSPost2010PropOp35
 70
     1
102
RTVSPost2010Prop36
280
     0
102
RTVSPost2010PropOp36
 70
     1
102
RTVSPost2010Prop37
 90
       50
102
RTVSPost2010PropOp37
 70
     1
102
RTVSPost2010Prop38
140
0.0
102
RTVSPost2010PropOp38
 70
     1
102
RTVSPost2010Prop39
140
1.0
102
RTVSPost2010PropOp39
 70
     1
102
RTVSPost2010Prop40
 90
        0
102
RTVSPost2010PropOp40
 70
     1
102
RTVSPost2010Prop41ColorIndex
 90
       18
102
RTVSPost2010Prop41ColorRGB
 90
        0
102
RTVSPost2010PropOp41
 70
     1
102
RTVSPost2010Prop42
 90
       50
102
RTVSPost2010PropOp42
 70
     1
102
RTVSPost2010Prop43
 90
        3
102
RTVSPost2010PropOp43
 70
     1
102
RTVSPost2010Prop44ColorIndex
 90
        5
102
RTVSPost2010Prop44ColorRGB
 90
      255
102
RTVSPost2010PropOp44
 70
     1
102
RTVSPost2010Prop45
280
     0
102
RTVSPost2010PropOp45
 70
     1
102
RTVSPost2010Prop46
 90
       50
102
RTVSPost2010PropOp46
 70
     1
102
RTVSPost2010Prop47
 90
       50
102
RTVSPost2010PropOp47
 70
     1
102
RTVSPost2010Prop48
 90
       50
102
RTVSPost2010PropOp48
 70
     1
102
RTVSPost2010Prop49
280
     0
102
RTVSPost2010PropOp49
 70
     1
102
RTVSPost2010Prop50
 90
       50
102
RTVSPost2010PropOp50
 70
     1
102
RTVSPost2010Prop51ColorIndex
 90
      256
102
RTVSPost2010Prop51ColorRGB
 90
-16777216
102
RTVSPost2010PropOp51
 70
     0
102
RTVSPost2010Prop52
140
1.0
102
RTVSPost2010PropOp52
 70
     0
102
RTVSPost2010Prop53
 90
        2
102
RTVSPost2010PropOp53
 70
     1
102
RTVSPost2010Prop54
  1
strokes_ogs.tif
102
RTVSPost2010PropOp54
 70
     1
102
RTVSPost2010Prop55
280
     0
102
RTVSPost2010PropOp55
 70
     1
102
RTVSPost2010Prop56
140
1.0
102
RTVSPost2010PropOp56
 70
     1
102
RTVSPost2010Prop57
140
1.0
102
RTVSPost2010PropOp57
 70
     1
  0
XRECORD
  5
E792
102
{ACAD_REACTORS
330
E791
102
}
330
E791
100
AcDbXrecord
280
     1
102
RTVSPost2010Prop28
280
     0
102
RTVSPost2010PropOp28
 70
     1
102
RTVSPost2010Prop29
280
     1
102
RTVSPost2010PropOp29
 70
     1
102
RTVSPost2010Prop30
280
     1
102
RTVSPost2010PropOp30
 70
     1
102
RTVSPost2010Prop31
280
     0
102
RTVSPost2010PropOp31
 70
     1
102
RTVSPost2010Prop32
280
     0
102
RTVSPost2010PropOp32
 70
     1
102
RTVSPost2010Prop33
280
     0
102
RTVSPost2010PropOp33
 70
     1
102
RTVSPost2010Prop34
280
     0
102
RTVSPost2010PropOp34
 70
     1
102
RTVSPost2010Prop35
280
     0
102
RTVSPost2010PropOp35
 70
     1
102
RTVSPost2010Prop36
280
     0
102
RTVSPost2010PropOp36
 70
     1
102
RTVSPost2010Prop37
 90
       50
102
RTVSPost2010PropOp37
 70
     1
102
RTVSPost2010Prop38
140
0.0
102
RTVSPost2010PropOp38
 70
     1
102
RTVSPost2010Prop39
140
1.0
102
RTVSPost2010PropOp39
 70
     1
102
RTVSPost2010Prop40
 90
        0
102
RTVSPost2010PropOp40
 70
     1
102
RTVSPost2010Prop41ColorIndex
 90
       18
102
RTVSPost2010Prop41ColorRGB
 90
        0
102
RTVSPost2010PropOp41
 70
     1
102
RTVSPost2010Prop42
 90
       50
102
RTVSPost2010PropOp42
 70
     1
102
RTVSPost2010Prop43
 90
        3
102
RTVSPost2010PropOp43
 70
     1
102
RTVSPost2010Prop44ColorIndex
 90
        5
102
RTVSPost2010Prop44ColorRGB
 90
      255
102
RTVSPost2010PropOp44
 70
     1
102
RTVSPost2010Prop45
280
     0
102
RTVSPost2010PropOp45
 70
     1
102
RTVSPost2010Prop46
 90
       50
102
RTVSPost2010PropOp46
 70
     1
102
RTVSPost2010Prop47
 90
       50
102
RTVSPost2010PropOp47
 70
     1
102
RTVSPost2010Prop48
 90
       50
102
RTVSPost2010PropOp48
 70
     1
102
RTVSPost2010Prop49
280
     0
102
RTVSPost2010PropOp49
 70
     1
102
RTVSPost2010Prop50
 90
       50
102
RTVSPost2010PropOp50
 70
     1
102
RTVSPost2010Prop51ColorIndex
 90
      256
102
RTVSPost2010Prop51ColorRGB
 90
-16777216
102
RTVSPost2010PropOp51
 70
     0
102
RTVSPost2010Prop52
140
1.0
102
RTVSPost2010PropOp52
 70
     0
102
RTVSPost2010Prop53
 90
        2
102
RTVSPost2010PropOp53
 70
     1
102
RTVSPost2010Prop54
  1
strokes_ogs.tif
102
RTVSPost2010PropOp54
 70
     1
102
RTVSPost2010Prop55
280
     0
102
RTVSPost2010PropOp55
 70
     1
102
RTVSPost2010Prop56
140
1.0
102
RTVSPost2010PropOp56
 70
     1
102
RTVSPost2010Prop57
140
1.0
102
RTVSPost2010PropOp57
 70
     1
  0
XRECORD
  5
E7A0
102
{ACAD_REACTORS
330
E79F
102
}
330
E79F
100
AcDbXrecord
280
     1
102
RTVSPost2010Prop28
280
     0
102
RTVSPost2010PropOp28
 70
     1
102
RTVSPost2010Prop29
280
     1
102
RTVSPost2010PropOp29
 70
     1
102
RTVSPost2010Prop30
280
     1
102
RTVSPost2010PropOp30
 70
     1
102
RTVSPost2010Prop31
280
     0
102
RTVSPost2010PropOp31
 70
     1
102
RTVSPost2010Prop32
280
     0
102
RTVSPost2010PropOp32
 70
     1
102
RTVSPost2010Prop33
280
     0
102
RTVSPost2010PropOp33
 70
     1
102
RTVSPost2010Prop34
280
     0
102
RTVSPost2010PropOp34
 70
     1
102
RTVSPost2010Prop35
280
     0
102
RTVSPost2010PropOp35
 70
     1
102
RTVSPost2010Prop36
280
     0
102
RTVSPost2010PropOp36
 70
     1
102
RTVSPost2010Prop37
 90
       50
102
RTVSPost2010PropOp37
 70
     1
102
RTVSPost2010Prop38
140
0.0
102
RTVSPost2010PropOp38
 70
     1
102
RTVSPost2010Prop39
140
1.0
102
RTVSPost2010PropOp39
 70
     1
102
RTVSPost2010Prop40
 90
        0
102
RTVSPost2010PropOp40
 70
     1
102
RTVSPost2010Prop41ColorIndex
 90
       18
102
RTVSPost2010Prop41ColorRGB
 90
        0
102
RTVSPost2010PropOp41
 70
     1
102
RTVSPost2010Prop42
 90
       50
102
RTVSPost2010PropOp42
 70
     1
102
RTVSPost2010Prop43
 90
        3
102
RTVSPost2010PropOp43
 70
     1
102
RTVSPost2010Prop44ColorIndex
 90
        5
102
RTVSPost2010Prop44ColorRGB
 90
      255
102
RTVSPost2010PropOp44
 70
     1
102
RTVSPost2010Prop45
280
     0
102
RTVSPost2010PropOp45
 70
     1
102
RTVSPost2010Prop46
 90
       50
102
RTVSPost2010PropOp46
 70
     1
102
RTVSPost2010Prop47
 90
       50
102
RTVSPost2010PropOp47
 70
     1
102
RTVSPost2010Prop48
 90
       50
102
RTVSPost2010PropOp48
 70
     1
102
RTVSPost2010Prop49
280
     0
102
RTVSPost2010PropOp49
 70
     1
102
RTVSPost2010Prop50
 90
       50
102
RTVSPost2010PropOp50
 70
     1
102
RTVSPost2010Prop51ColorIndex
 90
      256
102
RTVSPost2010Prop51ColorRGB
 90
-16777216
102
RTVSPost2010PropOp51
 70
     0
102
RTVSPost2010Prop52
140
1.0
102
RTVSPost2010PropOp52
 70
     0
102
RTVSPost2010Prop53
 90
        2
102
RTVSPost2010PropOp53
 70
     1
102
RTVSPost2010Prop54
  1
strokes_ogs.tif
102
RTVSPost2010PropOp54
 70
     1
102
RTVSPost2010Prop55
280
     0
102
RTVSPost2010PropOp55
 70
     1
102
RTVSPost2010Prop56
140
1.0
102
RTVSPost2010PropOp56
 70
     1
102
RTVSPost2010Prop57
140
1.0
102
RTVSPost2010PropOp57
 70
     1
  0
XRECORD
  5
E7A8
102
{ACAD_REACTORS
330
E7A7
102
}
330
E7A7
100
AcDbXrecord
280
     1
102
RTVSPost2010Prop28
280
     0
102
RTVSPost2010PropOp28
 70
     1
102
RTVSPost2010Prop29
280
     1
102
RTVSPost2010PropOp29
 70
     1
102
RTVSPost2010Prop30
280
     1
102
RTVSPost2010PropOp30
 70
     1
102
RTVSPost2010Prop31
280
     0
102
RTVSPost2010PropOp31
 70
     1
102
RTVSPost2010Prop32
280
     0
102
RTVSPost2010PropOp32
 70
     1
102
RTVSPost2010Prop33
280
     0
102
RTVSPost2010PropOp33
 70
     1
102
RTVSPost2010Prop34
280
     0
102
RTVSPost2010PropOp34
 70
     1
102
RTVSPost2010Prop35
280
     0
102
RTVSPost2010PropOp35
 70
     1
102
RTVSPost2010Prop36
280
     0
102
RTVSPost2010PropOp36
 70
     1
102
RTVSPost2010Prop37
 90
       50
102
RTVSPost2010PropOp37
 70
     1
102
RTVSPost2010Prop38
140
0.0
102
RTVSPost2010PropOp38
 70
     1
102
RTVSPost2010Prop39
140
1.0
102
RTVSPost2010PropOp39
 70
     1
102
RTVSPost2010Prop40
 90
        0
102
RTVSPost2010PropOp40
 70
     1
102
RTVSPost2010Prop41ColorIndex
 90
       18
102
RTVSPost2010Prop41ColorRGB
 90
        0
102
RTVSPost2010PropOp41
 70
     1
102
RTVSPost2010Prop42
 90
       50
102
RTVSPost2010PropOp42
 70
     1
102
RTVSPost2010Prop43
 90
        3
102
RTVSPost2010PropOp43
 70
     1
102
RTVSPost2010Prop44ColorIndex
 90
        5
102
RTVSPost2010Prop44ColorRGB
 90
      255
102
RTVSPost2010PropOp44
 70
     1
102
RTVSPost2010Prop45
280
     0
102
RTVSPost2010PropOp45
 70
     1
102
RTVSPost2010Prop46
 90
       50
102
RTVSPost2010PropOp46
 70
     1
102
RTVSPost2010Prop47
 90
       50
102
RTVSPost2010PropOp47
 70
     1
102
RTVSPost2010Prop48
 90
       50
102
RTVSPost2010PropOp48
 70
     1
102
RTVSPost2010Prop49
280
     0
102
RTVSPost2010PropOp49
 70
     1
102
RTVSPost2010Prop50
 90
       50
102
RTVSPost2010PropOp50
 70
     1
102
RTVSPost2010Prop51ColorIndex
 90
      256
102
RTVSPost2010Prop51ColorRGB
 90
-16777216
102
RTVSPost2010PropOp51
 70
     0
102
RTVSPost2010Prop52
140
1.0
102
RTVSPost2010PropOp52
 70
     0
102
RTVSPost2010Prop53
 90
        2
102
RTVSPost2010PropOp53
 70
     1
102
RTVSPost2010Prop54
  1
strokes_ogs.tif
102
RTVSPost2010PropOp54
 70
     1
102
RTVSPost2010Prop55
280
     0
102
RTVSPost2010PropOp55
 70
     1
102
RTVSPost2010Prop56
140
1.0
102
RTVSPost2010PropOp56
 70
     1
102
RTVSPost2010Prop57
140
1.0
102
RTVSPost2010PropOp57
 70
     1
  0
XRECORD
  5
E79A
102
{ACAD_REACTORS
330
E799
102
}
330
E799
100
AcDbXrecord
280
     1
102
RTVSPost2010Prop28
280
     0
102
RTVSPost2010PropOp28
 70
     1
102
RTVSPost2010Prop29
280
     1
102
RTVSPost2010PropOp29
 70
     1
102
RTVSPost2010Prop30
280
     1
102
RTVSPost2010PropOp30
 70
     1
102
RTVSPost2010Prop31
280
     0
102
RTVSPost2010PropOp31
 70
     1
102
RTVSPost2010Prop32
280
     0
102
RTVSPost2010PropOp32
 70
     1
102
RTVSPost2010Prop33
280
     0
102
RTVSPost2010PropOp33
 70
     1
102
RTVSPost2010Prop34
280
     0
102
RTVSPost2010PropOp34
 70
     1
102
RTVSPost2010Prop35
280
     0
102
RTVSPost2010PropOp35
 70
     1
102
RTVSPost2010Prop36
280
     0
102
RTVSPost2010PropOp36
 70
     1
102
RTVSPost2010Prop37
 90
       50
102
RTVSPost2010PropOp37
 70
     1
102
RTVSPost2010Prop38
140
0.0
102
RTVSPost2010PropOp38
 70
     1
102
RTVSPost2010Prop39
140
1.0
102
RTVSPost2010PropOp39
 70
     1
102
RTVSPost2010Prop40
 90
        0
102
RTVSPost2010PropOp40
 70
     1
102
RTVSPost2010Prop41ColorIndex
 90
       18
102
RTVSPost2010Prop41ColorRGB
 90
        0
102
RTVSPost2010PropOp41
 70
     1
102
RTVSPost2010Prop42
 90
       50
102
RTVSPost2010PropOp42
 70
     1
102
RTVSPost2010Prop43
 90
        3
102
RTVSPost2010PropOp43
 70
     1
102
RTVSPost2010Prop44ColorIndex
 90
        5
102
RTVSPost2010Prop44ColorRGB
 90
      255
102
RTVSPost2010PropOp44
 70
     1
102
RTVSPost2010Prop45
280
     0
102
RTVSPost2010PropOp45
 70
     1
102
RTVSPost2010Prop46
 90
       50
102
RTVSPost2010PropOp46
 70
     1
102
RTVSPost2010Prop47
 90
       50
102
RTVSPost2010PropOp47
 70
     1
102
RTVSPost2010Prop48
 90
       50
102
RTVSPost2010PropOp48
 70
     1
102
RTVSPost2010Prop49
280
     0
102
RTVSPost2010PropOp49
 70
     1
102
RTVSPost2010Prop50
 90
       50
102
RTVSPost2010PropOp50
 70
     1
102
RTVSPost2010Prop51ColorIndex
 90
      256
102
RTVSPost2010Prop51ColorRGB
 90
-16777216
102
RTVSPost2010PropOp51
 70
     0
102
RTVSPost2010Prop52
140
1.0
102
RTVSPost2010PropOp52
 70
     0
102
RTVSPost2010Prop53
 90
        2
102
RTVSPost2010PropOp53
 70
     1
102
RTVSPost2010Prop54
  1
strokes_ogs.tif
102
RTVSPost2010PropOp54
 70
     1
102
RTVSPost2010Prop55
280
     0
102
RTVSPost2010PropOp55
 70
     1
102
RTVSPost2010Prop56
140
1.0
102
RTVSPost2010PropOp56
 70
     1
102
RTVSPost2010Prop57
140
1.0
102
RTVSPost2010PropOp57
 70
     1
  0
XRECORD
  5
E79E
102
{ACAD_REACTORS
330
E79D
102
}
330
E79D
100
AcDbXrecord
280
     1
102
RTVSPost2010Prop28
280
     0
102
RTVSPost2010PropOp28
 70
     1
102
RTVSPost2010Prop29
280
     1
102
RTVSPost2010PropOp29
 70
     1
102
RTVSPost2010Prop30
280
     1
102
RTVSPost2010PropOp30
 70
     1
102
RTVSPost2010Prop31
280
     0
102
RTVSPost2010PropOp31
 70
     1
102
RTVSPost2010Prop32
280
     0
102
RTVSPost2010PropOp32
 70
     1
102
RTVSPost2010Prop33
280
     0
102
RTVSPost2010PropOp33
 70
     1
102
RTVSPost2010Prop34
280
     0
102
RTVSPost2010PropOp34
 70
     1
102
RTVSPost2010Prop35
280
     0
102
RTVSPost2010PropOp35
 70
     1
102
RTVSPost2010Prop36
280
     0
102
RTVSPost2010PropOp36
 70
     1
102
RTVSPost2010Prop37
 90
       50
102
RTVSPost2010PropOp37
 70
     1
102
RTVSPost2010Prop38
140
0.0
102
RTVSPost2010PropOp38
 70
     1
102
RTVSPost2010Prop39
140
1.0
102
RTVSPost2010PropOp39
 70
     1
102
RTVSPost2010Prop40
 90
        0
102
RTVSPost2010PropOp40
 70
     1
102
RTVSPost2010Prop41ColorIndex
 90
       18
102
RTVSPost2010Prop41ColorRGB
 90
        0
102
RTVSPost2010PropOp41
 70
     1
102
RTVSPost2010Prop42
 90
       50
102
RTVSPost2010PropOp42
 70
     1
102
RTVSPost2010Prop43
 90
        3
102
RTVSPost2010PropOp43
 70
     1
102
RTVSPost2010Prop44ColorIndex
 90
        5
102
RTVSPost2010Prop44ColorRGB
 90
      255
102
RTVSPost2010PropOp44
 70
     1
102
RTVSPost2010Prop45
280
     0
102
RTVSPost2010PropOp45
 70
     1
102
RTVSPost2010Prop46
 90
       50
102
RTVSPost2010PropOp46
 70
     1
102
RTVSPost2010Prop47
 90
       50
102
RTVSPost2010PropOp47
 70
     1
102
RTVSPost2010Prop48
 90
       50
102
RTVSPost2010PropOp48
 70
     1
102
RTVSPost2010Prop49
280
     0
102
RTVSPost2010PropOp49
 70
     1
102
RTVSPost2010Prop50
 90
       50
102
RTVSPost2010PropOp50
 70
     1
102
RTVSPost2010Prop51ColorIndex
 90
      256
102
RTVSPost2010Prop51ColorRGB
 90
-16777216
102
RTVSPost2010PropOp51
 70
     0
102
RTVSPost2010Prop52
140
1.0
102
RTVSPost2010PropOp52
 70
     0
102
RTVSPost2010Prop53
 90
        2
102
RTVSPost2010PropOp53
 70
     1
102
RTVSPost2010Prop54
  1
strokes_ogs.tif
102
RTVSPost2010PropOp54
 70
     1
102
RTVSPost2010Prop55
280
     0
102
RTVSPost2010PropOp55
 70
     1
102
RTVSPost2010Prop56
140
1.0
102
RTVSPost2010PropOp56
 70
     1
102
RTVSPost2010Prop57
140
1.0
102
RTVSPost2010PropOp57
 70
     1
  0
XRECORD
  5
E7AE
102
{ACAD_REACTORS
330
E7AD
102
}
330
E7AD
100
AcDbXrecord
280
     1
102
RTVSPost2010Prop28
280
     0
102
RTVSPost2010PropOp28
 70
     1
102
RTVSPost2010Prop29
280
     1
102
RTVSPost2010PropOp29
 70
     1
102
RTVSPost2010Prop30
280
     1
102
RTVSPost2010PropOp30
 70
     1
102
RTVSPost2010Prop31
280
     0
102
RTVSPost2010PropOp31
 70
     1
102
RTVSPost2010Prop32
280
     0
102
RTVSPost2010PropOp32
 70
     1
102
RTVSPost2010Prop33
280
     0
102
RTVSPost2010PropOp33
 70
     1
102
RTVSPost2010Prop34
280
     0
102
RTVSPost2010PropOp34
 70
     1
102
RTVSPost2010Prop35
280
     0
102
RTVSPost2010PropOp35
 70
     1
102
RTVSPost2010Prop36
280
     0
102
RTVSPost2010PropOp36
 70
     1
102
RTVSPost2010Prop37
 90
       50
102
RTVSPost2010PropOp37
 70
     1
102
RTVSPost2010Prop38
140
0.0
102
RTVSPost2010PropOp38
 70
     1
102
RTVSPost2010Prop39
140
1.0
102
RTVSPost2010PropOp39
 70
     1
102
RTVSPost2010Prop40
 90
        0
102
RTVSPost2010PropOp40
 70
     1
102
RTVSPost2010Prop41ColorIndex
 90
       18
102
RTVSPost2010Prop41ColorRGB
 90
        0
102
RTVSPost2010PropOp41
 70
     1
102
RTVSPost2010Prop42
 90
       50
102
RTVSPost2010PropOp42
 70
     1
102
RTVSPost2010Prop43
 90
        3
102
RTVSPost2010PropOp43
 70
     1
102
RTVSPost2010Prop44ColorIndex
 90
        5
102
RTVSPost2010Prop44ColorRGB
 90
      255
102
RTVSPost2010PropOp44
 70
     1
102
RTVSPost2010Prop45
280
     0
102
RTVSPost2010PropOp45
 70
     1
102
RTVSPost2010Prop46
 90
       50
102
RTVSPost2010PropOp46
 70
     1
102
RTVSPost2010Prop47
 90
       50
102
RTVSPost2010PropOp47
 70
     1
102
RTVSPost2010Prop48
 90
       50
102
RTVSPost2010PropOp48
 70
     1
102
RTVSPost2010Prop49
280
     0
102
RTVSPost2010PropOp49
 70
     1
102
RTVSPost2010Prop50
 90
       50
102
RTVSPost2010PropOp50
 70
     1
102
RTVSPost2010Prop51ColorIndex
 90
      256
102
RTVSPost2010Prop51ColorRGB
 90
-16777216
102
RTVSPost2010PropOp51
 70
     0
102
RTVSPost2010Prop52
140
1.0
102
RTVSPost2010PropOp52
 70
     0
102
RTVSPost2010Prop53
 90
        2
102
RTVSPost2010PropOp53
 70
     1
102
RTVSPost2010Prop54
  1
strokes_ogs.tif
102
RTVSPost2010PropOp54
 70
     1
102
RTVSPost2010Prop55
280
     0
102
RTVSPost2010PropOp55
 70
     1
102
RTVSPost2010Prop56
140
1.0
102
RTVSPost2010PropOp56
 70
     1
102
RTVSPost2010Prop57
140
1.0
102
RTVSPost2010PropOp57
 70
     1
  0
XRECORD
  5
E7A6
102
{ACAD_REACTORS
330
E7A5
102
}
330
E7A5
100
AcDbXrecord
280
     1
102
RTVSPost2010Prop28
280
     0
102
RTVSPost2010PropOp28
 70
     1
102
RTVSPost2010Prop29
280
     1
102
RTVSPost2010PropOp29
 70
     1
102
RTVSPost2010Prop30
280
     1
102
RTVSPost2010PropOp30
 70
     1
102
RTVSPost2010Prop31
280
     0
102
RTVSPost2010PropOp31
 70
     1
102
RTVSPost2010Prop32
280
     0
102
RTVSPost2010PropOp32
 70
     1
102
RTVSPost2010Prop33
280
     0
102
RTVSPost2010PropOp33
 70
     1
102
RTVSPost2010Prop34
280
     0
102
RTVSPost2010PropOp34
 70
     1
102
RTVSPost2010Prop35
280
     0
102
RTVSPost2010PropOp35
 70
     1
102
RTVSPost2010Prop36
280
     0
102
RTVSPost2010PropOp36
 70
     1
102
RTVSPost2010Prop37
 90
       50
102
RTVSPost2010PropOp37
 70
     1
102
RTVSPost2010Prop38
140
0.0
102
RTVSPost2010PropOp38
 70
     1
102
RTVSPost2010Prop39
140
1.0
102
RTVSPost2010PropOp39
 70
     1
102
RTVSPost2010Prop40
 90
        0
102
RTVSPost2010PropOp40
 70
     1
102
RTVSPost2010Prop41ColorIndex
 90
       18
102
RTVSPost2010Prop41ColorRGB
 90
        0
102
RTVSPost2010PropOp41
 70
     1
102
RTVSPost2010Prop42
 90
       50
102
RTVSPost2010PropOp42
 70
     1
102
RTVSPost2010Prop43
 90
        3
102
RTVSPost2010PropOp43
 70
     1
102
RTVSPost2010Prop44ColorIndex
 90
        5
102
RTVSPost2010Prop44ColorRGB
 90
      255
102
RTVSPost2010PropOp44
 70
     1
102
RTVSPost2010Prop45
280
     0
102
RTVSPost2010PropOp45
 70
     1
102
RTVSPost2010Prop46
 90
       50
102
RTVSPost2010PropOp46
 70
     1
102
RTVSPost2010Prop47
 90
       50
102
RTVSPost2010PropOp47
 70
     1
102
RTVSPost2010Prop48
 90
       50
102
RTVSPost2010PropOp48
 70
     1
102
RTVSPost2010Prop49
280
     0
102
RTVSPost2010PropOp49
 70
     1
102
RTVSPost2010Prop50
 90
       50
102
RTVSPost2010PropOp50
 70
     1
102
RTVSPost2010Prop51ColorIndex
 90
      256
102
RTVSPost2010Prop51ColorRGB
 90
-16777216
102
RTVSPost2010PropOp51
 70
     0
102
RTVSPost2010Prop52
140
1.0
102
RTVSPost2010PropOp52
 70
     0
102
RTVSPost2010Prop53
 90
        2
102
RTVSPost2010PropOp53
 70
     1
102
RTVSPost2010Prop54
  1
strokes_ogs.tif
102
RTVSPost2010PropOp54
 70
     1
102
RTVSPost2010Prop55
280
     0
102
RTVSPost2010PropOp55
 70
     1
102
RTVSPost2010Prop56
140
1.0
102
RTVSPost2010PropOp56
 70
     1
102
RTVSPost2010Prop57
140
1.0
102
RTVSPost2010PropOp57
 70
     1
  0
XRECORD
  5
E78A
102
{ACAD_REACTORS
330
E789
102
}
330
E789
100
AcDbXrecord
280
     1
102
RTVSPost2010Prop28
280
     0
102
RTVSPost2010PropOp28
 70
     1
102
RTVSPost2010Prop29
280
     1
102
RTVSPost2010PropOp29
 70
     1
102
RTVSPost2010Prop30
280
     1
102
RTVSPost2010PropOp30
 70
     1
102
RTVSPost2010Prop31
280
     0
102
RTVSPost2010PropOp31
 70
     1
102
RTVSPost2010Prop32
280
     0
102
RTVSPost2010PropOp32
 70
     1
102
RTVSPost2010Prop33
280
     0
102
RTVSPost2010PropOp33
 70
     1
102
RTVSPost2010Prop34
280
     0
102
RTVSPost2010PropOp34
 70
     1
102
RTVSPost2010Prop35
280
     0
102
RTVSPost2010PropOp35
 70
     1
102
RTVSPost2010Prop36
280
     0
102
RTVSPost2010PropOp36
 70
     1
102
RTVSPost2010Prop37
 90
       50
102
RTVSPost2010PropOp37
 70
     1
102
RTVSPost2010Prop38
140
0.0
102
RTVSPost2010PropOp38
 70
     1
102
RTVSPost2010Prop39
140
1.0
102
RTVSPost2010PropOp39
 70
     1
102
RTVSPost2010Prop40
 90
        0
102
RTVSPost2010PropOp40
 70
     1
102
RTVSPost2010Prop41ColorIndex
 90
       18
102
RTVSPost2010Prop41ColorRGB
 90
        0
102
RTVSPost2010PropOp41
 70
     1
102
RTVSPost2010Prop42
 90
       50
102
RTVSPost2010PropOp42
 70
     1
102
RTVSPost2010Prop43
 90
        3
102
RTVSPost2010PropOp43
 70
     1
102
RTVSPost2010Prop44ColorIndex
 90
        5
102
RTVSPost2010Prop44ColorRGB
 90
      255
102
RTVSPost2010PropOp44
 70
     1
102
RTVSPost2010Prop45
280
     0
102
RTVSPost2010PropOp45
 70
     1
102
RTVSPost2010Prop46
 90
       50
102
RTVSPost2010PropOp46
 70
     1
102
RTVSPost2010Prop47
 90
       50
102
RTVSPost2010PropOp47
 70
     1
102
RTVSPost2010Prop48
 90
       50
102
RTVSPost2010PropOp48
 70
     1
102
RTVSPost2010Prop49
280
     0
102
RTVSPost2010PropOp49
 70
     1
102
RTVSPost2010Prop50
 90
       50
102
RTVSPost2010PropOp50
 70
     1
102
RTVSPost2010Prop51ColorIndex
 90
      256
102
RTVSPost2010Prop51ColorRGB
 90
-16777216
102
RTVSPost2010PropOp51
 70
     0
102
RTVSPost2010Prop52
140
1.0
102
RTVSPost2010PropOp52
 70
     0
102
RTVSPost2010Prop53
 90
        2
102
RTVSPost2010PropOp53
 70
     1
102
RTVSPost2010Prop54
  1
strokes_ogs.tif
102
RTVSPost2010PropOp54
 70
     1
102
RTVSPost2010Prop55
280
     0
102
RTVSPost2010PropOp55
 70
     1
102
RTVSPost2010Prop56
140
1.0
102
RTVSPost2010PropOp56
 70
     1
102
RTVSPost2010Prop57
140
1.0
102
RTVSPost2010PropOp57
 70
     1
  0
XRECORD
  5
E78C
102
{ACAD_REACTORS
330
E78B
102
}
330
E78B
100
AcDbXrecord
280
     1
102
RTVSPost2010Prop28
280
     0
102
RTVSPost2010PropOp28
 70
     1
102
RTVSPost2010Prop29
280
     1
102
RTVSPost2010PropOp29
 70
     1
102
RTVSPost2010Prop30
280
     1
102
RTVSPost2010PropOp30
 70
     1
102
RTVSPost2010Prop31
280
     0
102
RTVSPost2010PropOp31
 70
     1
102
RTVSPost2010Prop32
280
     0
102
RTVSPost2010PropOp32
 70
     1
102
RTVSPost2010Prop33
280
     0
102
RTVSPost2010PropOp33
 70
     1
102
RTVSPost2010Prop34
280
     0
102
RTVSPost2010PropOp34
 70
     1
102
RTVSPost2010Prop35
280
     0
102
RTVSPost2010PropOp35
 70
     1
102
RTVSPost2010Prop36
280
     0
102
RTVSPost2010PropOp36
 70
     1
102
RTVSPost2010Prop37
 90
       50
102
RTVSPost2010PropOp37
 70
     1
102
RTVSPost2010Prop38
140
0.0
102
RTVSPost2010PropOp38
 70
     1
102
RTVSPost2010Prop39
140
1.0
102
RTVSPost2010PropOp39
 70
     1
102
RTVSPost2010Prop40
 90
        0
102
RTVSPost2010PropOp40
 70
     1
102
RTVSPost2010Prop41ColorIndex
 90
       18
102
RTVSPost2010Prop41ColorRGB
 90
        0
102
RTVSPost2010PropOp41
 70
     1
102
RTVSPost2010Prop42
 90
       50
102
RTVSPost2010PropOp42
 70
     1
102
RTVSPost2010Prop43
 90
        3
102
RTVSPost2010PropOp43
 70
     1
102
RTVSPost2010Prop44ColorIndex
 90
        5
102
RTVSPost2010Prop44ColorRGB
 90
      255
102
RTVSPost2010PropOp44
 70
     1
102
RTVSPost2010Prop45
280
     0
102
RTVSPost2010PropOp45
 70
     1
102
RTVSPost2010Prop46
 90
       50
102
RTVSPost2010PropOp46
 70
     1
102
RTVSPost2010Prop47
 90
       50
102
RTVSPost2010PropOp47
 70
     1
102
RTVSPost2010Prop48
 90
       50
102
RTVSPost2010PropOp48
 70
     1
102
RTVSPost2010Prop49
280
     0
102
RTVSPost2010PropOp49
 70
     1
102
RTVSPost2010Prop50
 90
       50
102
RTVSPost2010PropOp50
 70
     1
102
RTVSPost2010Prop51ColorIndex
 90
      256
102
RTVSPost2010Prop51ColorRGB
 90
-16777216
102
RTVSPost2010PropOp51
 70
     0
102
RTVSPost2010Prop52
140
1.0
102
RTVSPost2010PropOp52
 70
     0
102
RTVSPost2010Prop53
 90
        2
102
RTVSPost2010PropOp53
 70
     1
102
RTVSPost2010Prop54
  1
strokes_ogs.tif
102
RTVSPost2010PropOp54
 70
     1
102
RTVSPost2010Prop55
280
     0
102
RTVSPost2010PropOp55
 70
     1
102
RTVSPost2010Prop56
140
1.0
102
RTVSPost2010PropOp56
 70
     1
102
RTVSPost2010Prop57
140
1.0
102
RTVSPost2010PropOp57
 70
     1
  0
XRECORD
  5
E78E
102
{ACAD_REACTORS
330
E78D
102
}
330
E78D
100
AcDbXrecord
280
     1
102
RTVSPost2010Prop28
280
     0
102
RTVSPost2010PropOp28
 70
     1
102
RTVSPost2010Prop29
280
     1
102
RTVSPost2010PropOp29
 70
     1
102
RTVSPost2010Prop30
280
     1
102
RTVSPost2010PropOp30
 70
     1
102
RTVSPost2010Prop31
280
     0
102
RTVSPost2010PropOp31
 70
     1
102
RTVSPost2010Prop32
280
     0
102
RTVSPost2010PropOp32
 70
     1
102
RTVSPost2010Prop33
280
     0
102
RTVSPost2010PropOp33
 70
     1
102
RTVSPost2010Prop34
280
     0
102
RTVSPost2010PropOp34
 70
     1
102
RTVSPost2010Prop35
280
     0
102
RTVSPost2010PropOp35
 70
     1
102
RTVSPost2010Prop36
280
     0
102
RTVSPost2010PropOp36
 70
     1
102
RTVSPost2010Prop37
 90
       50
102
RTVSPost2010PropOp37
 70
     1
102
RTVSPost2010Prop38
140
0.0
102
RTVSPost2010PropOp38
 70
     1
102
RTVSPost2010Prop39
140
1.0
102
RTVSPost2010PropOp39
 70
     1
102
RTVSPost2010Prop40
 90
        0
102
RTVSPost2010PropOp40
 70
     1
102
RTVSPost2010Prop41ColorIndex
 90
       18
102
RTVSPost2010Prop41ColorRGB
 90
        0
102
RTVSPost2010PropOp41
 70
     1
102
RTVSPost2010Prop42
 90
       50
102
RTVSPost2010PropOp42
 70
     1
102
RTVSPost2010Prop43
 90
        3
102
RTVSPost2010PropOp43
 70
     1
102
RTVSPost2010Prop44ColorIndex
 90
        5
102
RTVSPost2010Prop44ColorRGB
 90
      255
102
RTVSPost2010PropOp44
 70
     1
102
RTVSPost2010Prop45
280
     0
102
RTVSPost2010PropOp45
 70
     1
102
RTVSPost2010Prop46
 90
       50
102
RTVSPost2010PropOp46
 70
     1
102
RTVSPost2010Prop47
 90
       50
102
RTVSPost2010PropOp47
 70
     1
102
RTVSPost2010Prop48
 90
       50
102
RTVSPost2010PropOp48
 70
     1
102
RTVSPost2010Prop49
280
     0
102
RTVSPost2010PropOp49
 70
     1
102
RTVSPost2010Prop50
 90
       50
102
RTVSPost2010PropOp50
 70
     1
102
RTVSPost2010Prop51ColorIndex
 90
      256
102
RTVSPost2010Prop51ColorRGB
 90
-16777216
102
RTVSPost2010PropOp51
 70
     0
102
RTVSPost2010Prop52
140
1.0
102
RTVSPost2010PropOp52
 70
     0
102
RTVSPost2010Prop53
 90
        2
102
RTVSPost2010PropOp53
 70
     1
102
RTVSPost2010Prop54
  1
strokes_ogs.tif
102
RTVSPost2010PropOp54
 70
     1
102
RTVSPost2010Prop55
280
     0
102
RTVSPost2010PropOp55
 70
     1
102
RTVSPost2010Prop56
140
1.0
102
RTVSPost2010PropOp56
 70
     1
102
RTVSPost2010Prop57
140
1.0
102
RTVSPost2010PropOp57
 70
     1
  0
XRECORD
  5
E790
102
{ACAD_REACTORS
330
E78F
102
}
330
E78F
100
AcDbXrecord
280
     1
102
RTVSPost2010Prop28
280
     0
102
RTVSPost2010PropOp28
 70
     1
102
RTVSPost2010Prop29
280
     1
102
RTVSPost2010PropOp29
 70
     1
102
RTVSPost2010Prop30
280
     1
102
RTVSPost2010PropOp30
 70
     1
102
RTVSPost2010Prop31
280
     0
102
RTVSPost2010PropOp31
 70
     1
102
RTVSPost2010Prop32
280
     0
102
RTVSPost2010PropOp32
 70
     1
102
RTVSPost2010Prop33
280
     0
102
RTVSPost2010PropOp33
 70
     1
102
RTVSPost2010Prop34
280
     0
102
RTVSPost2010PropOp34
 70
     1
102
RTVSPost2010Prop35
280
     0
102
RTVSPost2010PropOp35
 70
     1
102
RTVSPost2010Prop36
280
     0
102
RTVSPost2010PropOp36
 70
     1
102
RTVSPost2010Prop37
 90
       50
102
RTVSPost2010PropOp37
 70
     1
102
RTVSPost2010Prop38
140
0.0
102
RTVSPost2010PropOp38
 70
     1
102
RTVSPost2010Prop39
140
1.0
102
RTVSPost2010PropOp39
 70
     1
102
RTVSPost2010Prop40
 90
        0
102
RTVSPost2010PropOp40
 70
     1
102
RTVSPost2010Prop41ColorIndex
 90
       18
102
RTVSPost2010Prop41ColorRGB
 90
        0
102
RTVSPost2010PropOp41
 70
     1
102
RTVSPost2010Prop42
 90
       50
102
RTVSPost2010PropOp42
 70
     1
102
RTVSPost2010Prop43
 90
        3
102
RTVSPost2010PropOp43
 70
     1
102
RTVSPost2010Prop44ColorIndex
 90
        5
102
RTVSPost2010Prop44ColorRGB
 90
      255
102
RTVSPost2010PropOp44
 70
     1
102
RTVSPost2010Prop45
280
     0
102
RTVSPost2010PropOp45
 70
     1
102
RTVSPost2010Prop46
 90
       50
102
RTVSPost2010PropOp46
 70
     1
102
RTVSPost2010Prop47
 90
       50
102
RTVSPost2010PropOp47
 70
     1
102
RTVSPost2010Prop48
 90
       50
102
RTVSPost2010PropOp48
 70
     1
102
RTVSPost2010Prop49
280
     0
102
RTVSPost2010PropOp49
 70
     1
102
RTVSPost2010Prop50
 90
       50
102
RTVSPost2010PropOp50
 70
     1
102
RTVSPost2010Prop51ColorIndex
 90
      256
102
RTVSPost2010Prop51ColorRGB
 90
-16777216
102
RTVSPost2010PropOp51
 70
     0
102
RTVSPost2010Prop52
140
1.0
102
RTVSPost2010PropOp52
 70
     0
102
RTVSPost2010Prop53
 90
        2
102
RTVSPost2010PropOp53
 70
     1
102
RTVSPost2010Prop54
  1
strokes_ogs.tif
102
RTVSPost2010PropOp54
 70
     1
102
RTVSPost2010Prop55
280
     0
102
RTVSPost2010PropOp55
 70
     1
102
RTVSPost2010Prop56
140
1.0
102
RTVSPost2010PropOp56
 70
     1
102
RTVSPost2010Prop57
140
1.0
102
RTVSPost2010PropOp57
 70
     1
  0
XRECORD
  5
E7B2
102
{ACAD_REACTORS
330
E7B1
102
}
330
E7B1
100
AcDbXrecord
280
     1
102
RTVSPost2010Prop28
280
     0
102
RTVSPost2010PropOp28
 70
     1
102
RTVSPost2010Prop29
280
     1
102
RTVSPost2010PropOp29
 70
     1
102
RTVSPost2010Prop30
280
     1
102
RTVSPost2010PropOp30
 70
     1
102
RTVSPost2010Prop31
280
     0
102
RTVSPost2010PropOp31
 70
     1
102
RTVSPost2010Prop32
280
     0
102
RTVSPost2010PropOp32
 70
     1
102
RTVSPost2010Prop33
280
     0
102
RTVSPost2010PropOp33
 70
     1
102
RTVSPost2010Prop34
280
     0
102
RTVSPost2010PropOp34
 70
     1
102
RTVSPost2010Prop35
280
     0
102
RTVSPost2010PropOp35
 70
     1
102
RTVSPost2010Prop36
280
     0
102
RTVSPost2010PropOp36
 70
     1
102
RTVSPost2010Prop37
 90
       50
102
RTVSPost2010PropOp37
 70
     1
102
RTVSPost2010Prop38
140
0.0
102
RTVSPost2010PropOp38
 70
     1
102
RTVSPost2010Prop39
140
1.0
102
RTVSPost2010PropOp39
 70
     1
102
RTVSPost2010Prop40
 90
        0
102
RTVSPost2010PropOp40
 70
     1
102
RTVSPost2010Prop41ColorIndex
 90
       18
102
RTVSPost2010Prop41ColorRGB
 90
        0
102
RTVSPost2010PropOp41
 70
     1
102
RTVSPost2010Prop42
 90
       50
102
RTVSPost2010PropOp42
 70
     1
102
RTVSPost2010Prop43
 90
        3
102
RTVSPost2010PropOp43
 70
     1
102
RTVSPost2010Prop44ColorIndex
 90
        5
102
RTVSPost2010Prop44ColorRGB
 90
      255
102
RTVSPost2010PropOp44
 70
     1
102
RTVSPost2010Prop45
280
     0
102
RTVSPost2010PropOp45
 70
     1
102
RTVSPost2010Prop46
 90
       50
102
RTVSPost2010PropOp46
 70
     1
102
RTVSPost2010Prop47
 90
       50
102
RTVSPost2010PropOp47
 70
     1
102
RTVSPost2010Prop48
 90
       50
102
RTVSPost2010PropOp48
 70
     1
102
RTVSPost2010Prop49
280
     0
102
RTVSPost2010PropOp49
 70
     1
102
RTVSPost2010Prop50
 90
       50
102
RTVSPost2010PropOp50
 70
     1
102
RTVSPost2010Prop51ColorIndex
 90
      256
102
RTVSPost2010Prop51ColorRGB
 90
-16777216
102
RTVSPost2010PropOp51
 70
     0
102
RTVSPost2010Prop52
140
1.0
102
RTVSPost2010PropOp52
 70
     0
102
RTVSPost2010Prop53
 90
        2
102
RTVSPost2010PropOp53
 70
     1
102
RTVSPost2010Prop54
  1
strokes_ogs.tif
102
RTVSPost2010PropOp54
 70
     1
102
RTVSPost2010Prop55
280
     0
102
RTVSPost2010PropOp55
 70
     1
102
RTVSPost2010Prop56
140
1.0
102
RTVSPost2010PropOp56
 70
     1
102
RTVSPost2010Prop57
140
1.0
102
RTVSPost2010PropOp57
 70
     1
  0
XRECORD
  5
E7AA
102
{ACAD_REACTORS
330
E7A9
102
}
330
E7A9
100
AcDbXrecord
280
     1
102
RTVSPost2010Prop28
280
     0
102
RTVSPost2010PropOp28
 70
     1
102
RTVSPost2010Prop29
280
     1
102
RTVSPost2010PropOp29
 70
     1
102
RTVSPost2010Prop30
280
     1
102
RTVSPost2010PropOp30
 70
     1
102
RTVSPost2010Prop31
280
     0
102
RTVSPost2010PropOp31
 70
     1
102
RTVSPost2010Prop32
280
     0
102
RTVSPost2010PropOp32
 70
     1
102
RTVSPost2010Prop33
280
     0
102
RTVSPost2010PropOp33
 70
     1
102
RTVSPost2010Prop34
280
     0
102
RTVSPost2010PropOp34
 70
     1
102
RTVSPost2010Prop35
280
     0
102
RTVSPost2010PropOp35
 70
     1
102
RTVSPost2010Prop36
280
     0
102
RTVSPost2010PropOp36
 70
     1
102
RTVSPost2010Prop37
 90
       50
102
RTVSPost2010PropOp37
 70
     1
102
RTVSPost2010Prop38
140
0.0
102
RTVSPost2010PropOp38
 70
     1
102
RTVSPost2010Prop39
140
1.0
102
RTVSPost2010PropOp39
 70
     1
102
RTVSPost2010Prop40
 90
        0
102
RTVSPost2010PropOp40
 70
     1
102
RTVSPost2010Prop41ColorIndex
 90
       18
102
RTVSPost2010Prop41ColorRGB
 90
        0
102
RTVSPost2010PropOp41
 70
     1
102
RTVSPost2010Prop42
 90
       50
102
RTVSPost2010PropOp42
 70
     1
102
RTVSPost2010Prop43
 90
        3
102
RTVSPost2010PropOp43
 70
     1
102
RTVSPost2010Prop44ColorIndex
 90
        5
102
RTVSPost2010Prop44ColorRGB
 90
      255
102
RTVSPost2010PropOp44
 70
     1
102
RTVSPost2010Prop45
280
     0
102
RTVSPost2010PropOp45
 70
     1
102
RTVSPost2010Prop46
 90
       50
102
RTVSPost2010PropOp46
 70
     1
102
RTVSPost2010Prop47
 90
       50
102
RTVSPost2010PropOp47
 70
     1
102
RTVSPost2010Prop48
 90
       50
102
RTVSPost2010PropOp48
 70
     1
102
RTVSPost2010Prop49
280
     0
102
RTVSPost2010PropOp49
 70
     1
102
RTVSPost2010Prop50
 90
       50
102
RTVSPost2010PropOp50
 70
     1
102
RTVSPost2010Prop51ColorIndex
 90
      256
102
RTVSPost2010Prop51ColorRGB
 90
-16777216
102
RTVSPost2010PropOp51
 70
     0
102
RTVSPost2010Prop52
140
1.0
102
RTVSPost2010PropOp52
 70
     0
102
RTVSPost2010Prop53
 90
        2
102
RTVSPost2010PropOp53
 70
     1
102
RTVSPost2010Prop54
  1
strokes_ogs.tif
102
RTVSPost2010PropOp54
 70
     1
102
RTVSPost2010Prop55
280
     0
102
RTVSPost2010PropOp55
 70
     1
102
RTVSPost2010Prop56
140
1.0
102
RTVSPost2010PropOp56
 70
     1
102
RTVSPost2010Prop57
140
1.0
102
RTVSPost2010PropOp57
 70
     1
  0
XRECORD
  5
E7A4
102
{ACAD_REACTORS
330
E7A3
102
}
330
E7A3
100
AcDbXrecord
280
     1
102
RTVSPost2010Prop28
280
     0
102
RTVSPost2010PropOp28
 70
     1
102
RTVSPost2010Prop29
280
     1
102
RTVSPost2010PropOp29
 70
     1
102
RTVSPost2010Prop30
280
     1
102
RTVSPost2010PropOp30
 70
     1
102
RTVSPost2010Prop31
280
     0
102
RTVSPost2010PropOp31
 70
     1
102
RTVSPost2010Prop32
280
     0
102
RTVSPost2010PropOp32
 70
     1
102
RTVSPost2010Prop33
280
     0
102
RTVSPost2010PropOp33
 70
     1
102
RTVSPost2010Prop34
280
     0
102
RTVSPost2010PropOp34
 70
     1
102
RTVSPost2010Prop35
280
     0
102
RTVSPost2010PropOp35
 70
     1
102
RTVSPost2010Prop36
280
     0
102
RTVSPost2010PropOp36
 70
     1
102
RTVSPost2010Prop37
 90
       50
102
RTVSPost2010PropOp37
 70
     1
102
RTVSPost2010Prop38
140
0.0
102
RTVSPost2010PropOp38
 70
     1
102
RTVSPost2010Prop39
140
1.0
102
RTVSPost2010PropOp39
 70
     1
102
RTVSPost2010Prop40
 90
        0
102
RTVSPost2010PropOp40
 70
     1
102
RTVSPost2010Prop41ColorIndex
 90
       18
102
RTVSPost2010Prop41ColorRGB
 90
        0
102
RTVSPost2010PropOp41
 70
     1
102
RTVSPost2010Prop42
 90
       50
102
RTVSPost2010PropOp42
 70
     1
102
RTVSPost2010Prop43
 90
        3
102
RTVSPost2010PropOp43
 70
     1
102
RTVSPost2010Prop44ColorIndex
 90
        5
102
RTVSPost2010Prop44ColorRGB
 90
      255
102
RTVSPost2010PropOp44
 70
     1
102
RTVSPost2010Prop45
280
     0
102
RTVSPost2010PropOp45
 70
     1
102
RTVSPost2010Prop46
 90
       50
102
RTVSPost2010PropOp46
 70
     1
102
RTVSPost2010Prop47
 90
       50
102
RTVSPost2010PropOp47
 70
     1
102
RTVSPost2010Prop48
 90
       50
102
RTVSPost2010PropOp48
 70
     1
102
RTVSPost2010Prop49
280
     0
102
RTVSPost2010PropOp49
 70
     1
102
RTVSPost2010Prop50
 90
       50
102
RTVSPost2010PropOp50
 70
     1
102
RTVSPost2010Prop51ColorIndex
 90
      256
102
RTVSPost2010Prop51ColorRGB
 90
-16777216
102
RTVSPost2010PropOp51
 70
     0
102
RTVSPost2010Prop52
140
1.0
102
RTVSPost2010PropOp52
 70
     0
102
RTVSPost2010Prop53
 90
        2
102
RTVSPost2010PropOp53
 70
     1
102
RTVSPost2010Prop54
  1
strokes_ogs.tif
102
RTVSPost2010PropOp54
 70
     1
102
RTVSPost2010Prop55
280
     0
102
RTVSPost2010PropOp55
 70
     1
102
RTVSPost2010Prop56
140
1.0
102
RTVSPost2010PropOp56
 70
     1
102
RTVSPost2010Prop57
140
1.0
102
RTVSPost2010PropOp57
 70
     1
  0
XRECORD
  5
E7AC
102
{ACAD_REACTORS
330
E7AB
102
}
330
E7AB
100
AcDbXrecord
280
     1
102
RTVSPost2010Prop28
280
     0
102
RTVSPost2010PropOp28
 70
     1
102
RTVSPost2010Prop29
280
     1
102
RTVSPost2010PropOp29
 70
     1
102
RTVSPost2010Prop30
280
     1
102
RTVSPost2010PropOp30
 70
     1
102
RTVSPost2010Prop31
280
     0
102
RTVSPost2010PropOp31
 70
     1
102
RTVSPost2010Prop32
280
     0
102
RTVSPost2010PropOp32
 70
     1
102
RTVSPost2010Prop33
280
     0
102
RTVSPost2010PropOp33
 70
     1
102
RTVSPost2010Prop34
280
     0
102
RTVSPost2010PropOp34
 70
     1
102
RTVSPost2010Prop35
280
     0
102
RTVSPost2010PropOp35
 70
     1
102
RTVSPost2010Prop36
280
     0
102
RTVSPost2010PropOp36
 70
     1
102
RTVSPost2010Prop37
 90
       50
102
RTVSPost2010PropOp37
 70
     1
102
RTVSPost2010Prop38
140
0.0
102
RTVSPost2010PropOp38
 70
     1
102
RTVSPost2010Prop39
140
1.0
102
RTVSPost2010PropOp39
 70
     1
102
RTVSPost2010Prop40
 90
        0
102
RTVSPost2010PropOp40
 70
     1
102
RTVSPost2010Prop41ColorIndex
 90
       18
102
RTVSPost2010Prop41ColorRGB
 90
        0
102
RTVSPost2010PropOp41
 70
     1
102
RTVSPost2010Prop42
 90
       50
102
RTVSPost2010PropOp42
 70
     1
102
RTVSPost2010Prop43
 90
        3
102
RTVSPost2010PropOp43
 70
     1
102
RTVSPost2010Prop44ColorIndex
 90
        5
102
RTVSPost2010Prop44ColorRGB
 90
      255
102
RTVSPost2010PropOp44
 70
     1
102
RTVSPost2010Prop45
280
     0
102
RTVSPost2010PropOp45
 70
     1
102
RTVSPost2010Prop46
 90
       50
102
RTVSPost2010PropOp46
 70
     1
102
RTVSPost2010Prop47
 90
       50
102
RTVSPost2010PropOp47
 70
     1
102
RTVSPost2010Prop48
 90
       50
102
RTVSPost2010PropOp48
 70
     1
102
RTVSPost2010Prop49
280
     0
102
RTVSPost2010PropOp49
 70
     1
102
RTVSPost2010Prop50
 90
       50
102
RTVSPost2010PropOp50
 70
     1
102
RTVSPost2010Prop51ColorIndex
 90
      256
102
RTVSPost2010Prop51ColorRGB
 90
-16777216
102
RTVSPost2010PropOp51
 70
     0
102
RTVSPost2010Prop52
140
1.0
102
RTVSPost2010PropOp52
 70
     0
102
RTVSPost2010Prop53
 90
        2
102
RTVSPost2010PropOp53
 70
     1
102
RTVSPost2010Prop54
  1
strokes_ogs.tif
102
RTVSPost2010PropOp54
 70
     1
102
RTVSPost2010Prop55
280
     0
102
RTVSPost2010PropOp55
 70
     1
102
RTVSPost2010Prop56
140
1.0
102
RTVSPost2010PropOp56
 70
     1
102
RTVSPost2010Prop57
140
1.0
102
RTVSPost2010PropOp57
 70
     1
  0
XRECORD
  5
E79C
102
{ACAD_REACTORS
330
E79B
102
}
330
E79B
100
AcDbXrecord
280
     1
102
RTVSPost2010Prop28
280
     0
102
RTVSPost2010PropOp28
 70
     1
102
RTVSPost2010Prop29
280
     1
102
RTVSPost2010PropOp29
 70
     1
102
RTVSPost2010Prop30
280
     1
102
RTVSPost2010PropOp30
 70
     1
102
RTVSPost2010Prop31
280
     0
102
RTVSPost2010PropOp31
 70
     1
102
RTVSPost2010Prop32
280
     0
102
RTVSPost2010PropOp32
 70
     1
102
RTVSPost2010Prop33
280
     0
102
RTVSPost2010PropOp33
 70
     1
102
RTVSPost2010Prop34
280
     0
102
RTVSPost2010PropOp34
 70
     1
102
RTVSPost2010Prop35
280
     0
102
RTVSPost2010PropOp35
 70
     1
102
RTVSPost2010Prop36
280
     0
102
RTVSPost2010PropOp36
 70
     1
102
RTVSPost2010Prop37
 90
       50
102
RTVSPost2010PropOp37
 70
     1
102
RTVSPost2010Prop38
140
0.0
102
RTVSPost2010PropOp38
 70
     1
102
RTVSPost2010Prop39
140
1.0
102
RTVSPost2010PropOp39
 70
     1
102
RTVSPost2010Prop40
 90
        0
102
RTVSPost2010PropOp40
 70
     1
102
RTVSPost2010Prop41ColorIndex
 90
       18
102
RTVSPost2010Prop41ColorRGB
 90
        0
102
RTVSPost2010PropOp41
 70
     1
102
RTVSPost2010Prop42
 90
       50
102
RTVSPost2010PropOp42
 70
     1
102
RTVSPost2010Prop43
 90
        3
102
RTVSPost2010PropOp43
 70
     1
102
RTVSPost2010Prop44ColorIndex
 90
        5
102
RTVSPost2010Prop44ColorRGB
 90
      255
102
RTVSPost2010PropOp44
 70
     1
102
RTVSPost2010Prop45
280
     0
102
RTVSPost2010PropOp45
 70
     1
102
RTVSPost2010Prop46
 90
       50
102
RTVSPost2010PropOp46
 70
     1
102
RTVSPost2010Prop47
 90
       50
102
RTVSPost2010PropOp47
 70
     1
102
RTVSPost2010Prop48
 90
       50
102
RTVSPost2010PropOp48
 70
     1
102
RTVSPost2010Prop49
280
     0
102
RTVSPost2010PropOp49
 70
     1
102
RTVSPost2010Prop50
 90
       50
102
RTVSPost2010PropOp50
 70
     1
102
RTVSPost2010Prop51ColorIndex
 90
      256
102
RTVSPost2010Prop51ColorRGB
 90
-16777216
102
RTVSPost2010PropOp51
 70
     0
102
RTVSPost2010Prop52
140
1.0
102
RTVSPost2010PropOp52
 70
     0
102
RTVSPost2010Prop53
 90
        2
102
RTVSPost2010PropOp53
 70
     1
102
RTVSPost2010Prop54
  1
strokes_ogs.tif
102
RTVSPost2010PropOp54
 70
     1
102
RTVSPost2010Prop55
280
     0
102
RTVSPost2010PropOp55
 70
     1
102
RTVSPost2010Prop56
140
1.0
102
RTVSPost2010PropOp56
 70
     1
102
RTVSPost2010Prop57
140
1.0
102
RTVSPost2010PropOp57
 70
     1
  0
XRECORD
  5
E7BC
102
{ACAD_REACTORS
330
E7BB
102
}
330
E7BB
100
AcDbXrecord
280
     1
102
RTVSPost2010Prop28
280
     0
102
RTVSPost2010PropOp28
 70
     1
102
RTVSPost2010Prop29
280
     1
102
RTVSPost2010PropOp29
 70
     1
102
RTVSPost2010Prop30
280
     1
102
RTVSPost2010PropOp30
 70
     1
102
RTVSPost2010Prop31
280
     0
102
RTVSPost2010PropOp31
 70
     1
102
RTVSPost2010Prop32
280
     0
102
RTVSPost2010PropOp32
 70
     1
102
RTVSPost2010Prop33
280
     0
102
RTVSPost2010PropOp33
 70
     1
102
RTVSPost2010Prop34
280
     0
102
RTVSPost2010PropOp34
 70
     1
102
RTVSPost2010Prop35
280
     0
102
RTVSPost2010PropOp35
 70
     1
102
RTVSPost2010Prop36
280
     0
102
RTVSPost2010PropOp36
 70
     1
102
RTVSPost2010Prop37
 90
       50
102
RTVSPost2010PropOp37
 70
     1
102
RTVSPost2010Prop38
140
0.0
102
RTVSPost2010PropOp38
 70
     1
102
RTVSPost2010Prop39
140
1.0
102
RTVSPost2010PropOp39
 70
     1
102
RTVSPost2010Prop40
 90
        0
102
RTVSPost2010PropOp40
 70
     1
102
RTVSPost2010Prop41ColorIndex
 90
       18
102
RTVSPost2010Prop41ColorRGB
 90
        0
102
RTVSPost2010PropOp41
 70
     1
102
RTVSPost2010Prop42
 90
       50
102
RTVSPost2010PropOp42
 70
     1
102
RTVSPost2010Prop43
 90
        3
102
RTVSPost2010PropOp43
 70
     1
102
RTVSPost2010Prop44ColorIndex
 90
        5
102
RTVSPost2010Prop44ColorRGB
 90
      255
102
RTVSPost2010PropOp44
 70
     1
102
RTVSPost2010Prop45
280
     0
102
RTVSPost2010PropOp45
 70
     1
102
RTVSPost2010Prop46
 90
       50
102
RTVSPost2010PropOp46
 70
     1
102
RTVSPost2010Prop47
 90
       50
102
RTVSPost2010PropOp47
 70
     1
102
RTVSPost2010Prop48
 90
       50
102
RTVSPost2010PropOp48
 70
     1
102
RTVSPost2010Prop49
280
     0
102
RTVSPost2010PropOp49
 70
     1
102
RTVSPost2010Prop50
 90
       50
102
RTVSPost2010PropOp50
 70
     1
102
RTVSPost2010Prop51ColorIndex
 90
      256
102
RTVSPost2010Prop51ColorRGB
 90
-16777216
102
RTVSPost2010PropOp51
 70
     0
102
RTVSPost2010Prop52
140
1.0
102
RTVSPost2010PropOp52
 70
     0
102
RTVSPost2010Prop53
 90
        2
102
RTVSPost2010PropOp53
 70
     1
102
RTVSPost2010Prop54
  1
strokes_ogs.tif
102
RTVSPost2010PropOp54
 70
     1
102
RTVSPost2010Prop55
280
     0
102
RTVSPost2010PropOp55
 70
     1
102
RTVSPost2010Prop56
140
1.0
102
RTVSPost2010PropOp56
 70
     1
102
RTVSPost2010Prop57
140
1.0
102
RTVSPost2010PropOp57
 70
     1
  0
XRECORD
  5
E7BA
102
{ACAD_REACTORS
330
E7B9
102
}
330
E7B9
100
AcDbXrecord
280
     1
102
RTVSPost2010Prop28
280
     0
102
RTVSPost2010PropOp28
 70
     1
102
RTVSPost2010Prop29
280
     1
102
RTVSPost2010PropOp29
 70
     1
102
RTVSPost2010Prop30
280
     1
102
RTVSPost2010PropOp30
 70
     1
102
RTVSPost2010Prop31
280
     0
102
RTVSPost2010PropOp31
 70
     1
102
RTVSPost2010Prop32
280
     0
102
RTVSPost2010PropOp32
 70
     1
102
RTVSPost2010Prop33
280
     0
102
RTVSPost2010PropOp33
 70
     1
102
RTVSPost2010Prop34
280
     0
102
RTVSPost2010PropOp34
 70
     1
102
RTVSPost2010Prop35
280
     0
102
RTVSPost2010PropOp35
 70
     1
102
RTVSPost2010Prop36
280
     0
102
RTVSPost2010PropOp36
 70
     1
102
RTVSPost2010Prop37
 90
       50
102
RTVSPost2010PropOp37
 70
     1
102
RTVSPost2010Prop38
140
0.0
102
RTVSPost2010PropOp38
 70
     1
102
RTVSPost2010Prop39
140
1.0
102
RTVSPost2010PropOp39
 70
     1
102
RTVSPost2010Prop40
 90
        0
102
RTVSPost2010PropOp40
 70
     1
102
RTVSPost2010Prop41ColorIndex
 90
       18
102
RTVSPost2010Prop41ColorRGB
 90
        0
102
RTVSPost2010PropOp41
 70
     1
102
RTVSPost2010Prop42
 90
       50
102
RTVSPost2010PropOp42
 70
     1
102
RTVSPost2010Prop43
 90
        3
102
RTVSPost2010PropOp43
 70
     1
102
RTVSPost2010Prop44ColorIndex
 90
        5
102
RTVSPost2010Prop44ColorRGB
 90
      255
102
RTVSPost2010PropOp44
 70
     1
102
RTVSPost2010Prop45
280
     0
102
RTVSPost2010PropOp45
 70
     1
102
RTVSPost2010Prop46
 90
       50
102
RTVSPost2010PropOp46
 70
     1
102
RTVSPost2010Prop47
 90
       50
102
RTVSPost2010PropOp47
 70
     1
102
RTVSPost2010Prop48
 90
       50
102
RTVSPost2010PropOp48
 70
     1
102
RTVSPost2010Prop49
280
     0
102
RTVSPost2010PropOp49
 70
     1
102
RTVSPost2010Prop50
 90
       50
102
RTVSPost2010PropOp50
 70
     1
102
RTVSPost2010Prop51ColorIndex
 90
      256
102
RTVSPost2010Prop51ColorRGB
 90
-16777216
102
RTVSPost2010PropOp51
 70
     0
102
RTVSPost2010Prop52
140
1.0
102
RTVSPost2010PropOp52
 70
     0
102
RTVSPost2010Prop53
 90
        2
102
RTVSPost2010PropOp53
 70
     1
102
RTVSPost2010Prop54
  1
strokes_ogs.tif
102
RTVSPost2010PropOp54
 70
     1
102
RTVSPost2010Prop55
280
     0
102
RTVSPost2010PropOp55
 70
     1
102
RTVSPost2010Prop56
140
1.0
102
RTVSPost2010PropOp56
 70
     1
102
RTVSPost2010Prop57
140
1.0
102
RTVSPost2010PropOp57
 70
     1
  0
XRECORD
  5
E7B4
102
{ACAD_REACTORS
330
E7B3
102
}
330
E7B3
100
AcDbXrecord
280
     1
102
RTVSPost2010Prop28
280
     0
102
RTVSPost2010PropOp28
 70
     1
102
RTVSPost2010Prop29
280
     1
102
RTVSPost2010PropOp29
 70
     1
102
RTVSPost2010Prop30
280
     1
102
RTVSPost2010PropOp30
 70
     1
102
RTVSPost2010Prop31
280
     0
102
RTVSPost2010PropOp31
 70
     1
102
RTVSPost2010Prop32
280
     0
102
RTVSPost2010PropOp32
 70
     1
102
RTVSPost2010Prop33
280
     0
102
RTVSPost2010PropOp33
 70
     1
102
RTVSPost2010Prop34
280
     0
102
RTVSPost2010PropOp34
 70
     1
102
RTVSPost2010Prop35
280
     0
102
RTVSPost2010PropOp35
 70
     1
102
RTVSPost2010Prop36
280
     0
102
RTVSPost2010PropOp36
 70
     1
102
RTVSPost2010Prop37
 90
       50
102
RTVSPost2010PropOp37
 70
     1
102
RTVSPost2010Prop38
140
0.0
102
RTVSPost2010PropOp38
 70
     1
102
RTVSPost2010Prop39
140
1.0
102
RTVSPost2010PropOp39
 70
     1
102
RTVSPost2010Prop40
 90
        0
102
RTVSPost2010PropOp40
 70
     1
102
RTVSPost2010Prop41ColorIndex
 90
       18
102
RTVSPost2010Prop41ColorRGB
 90
        0
102
RTVSPost2010PropOp41
 70
     1
102
RTVSPost2010Prop42
 90
       50
102
RTVSPost2010PropOp42
 70
     1
102
RTVSPost2010Prop43
 90
        3
102
RTVSPost2010PropOp43
 70
     1
102
RTVSPost2010Prop44ColorIndex
 90
        5
102
RTVSPost2010Prop44ColorRGB
 90
      255
102
RTVSPost2010PropOp44
 70
     1
102
RTVSPost2010Prop45
280
     0
102
RTVSPost2010PropOp45
 70
     1
102
RTVSPost2010Prop46
 90
       50
102
RTVSPost2010PropOp46
 70
     1
102
RTVSPost2010Prop47
 90
       50
102
RTVSPost2010PropOp47
 70
     1
102
RTVSPost2010Prop48
 90
       50
102
RTVSPost2010PropOp48
 70
     1
102
RTVSPost2010Prop49
280
     0
102
RTVSPost2010PropOp49
 70
     1
102
RTVSPost2010Prop50
 90
       50
102
RTVSPost2010PropOp50
 70
     1
102
RTVSPost2010Prop51ColorIndex
 90
      256
102
RTVSPost2010Prop51ColorRGB
 90
-16777216
102
RTVSPost2010PropOp51
 70
     0
102
RTVSPost2010Prop52
140
1.0
102
RTVSPost2010PropOp52
 70
     0
102
RTVSPost2010Prop53
 90
        2
102
RTVSPost2010PropOp53
 70
     1
102
RTVSPost2010Prop54
  1
strokes_ogs.tif
102
RTVSPost2010PropOp54
 70
     1
102
RTVSPost2010Prop55
280
     0
102
RTVSPost2010PropOp55
 70
     1
102
RTVSPost2010Prop56
140
1.0
102
RTVSPost2010PropOp56
 70
     1
102
RTVSPost2010Prop57
140
1.0
102
RTVSPost2010PropOp57
 70
     1
  0
XRECORD
  5
E7B6
102
{ACAD_REACTORS
330
E7B5
102
}
330
E7B5
100
AcDbXrecord
280
     1
102
RTVSPost2010Prop28
280
     0
102
RTVSPost2010PropOp28
 70
     1
102
RTVSPost2010Prop29
280
     1
102
RTVSPost2010PropOp29
 70
     1
102
RTVSPost2010Prop30
280
     1
102
RTVSPost2010PropOp30
 70
     1
102
RTVSPost2010Prop31
280
     0
102
RTVSPost2010PropOp31
 70
     1
102
RTVSPost2010Prop32
280
     0
102
RTVSPost2010PropOp32
 70
     1
102
RTVSPost2010Prop33
280
     0
102
RTVSPost2010PropOp33
 70
     1
102
RTVSPost2010Prop34
280
     0
102
RTVSPost2010PropOp34
 70
     1
102
RTVSPost2010Prop35
280
     0
102
RTVSPost2010PropOp35
 70
     1
102
RTVSPost2010Prop36
280
     0
102
RTVSPost2010PropOp36
 70
     1
102
RTVSPost2010Prop37
 90
       50
102
RTVSPost2010PropOp37
 70
     1
102
RTVSPost2010Prop38
140
0.0
102
RTVSPost2010PropOp38
 70
     1
102
RTVSPost2010Prop39
140
1.0
102
RTVSPost2010PropOp39
 70
     1
102
RTVSPost2010Prop40
 90
        0
102
RTVSPost2010PropOp40
 70
     1
102
RTVSPost2010Prop41ColorIndex
 90
       18
102
RTVSPost2010Prop41ColorRGB
 90
        0
102
RTVSPost2010PropOp41
 70
     1
102
RTVSPost2010Prop42
 90
       50
102
RTVSPost2010PropOp42
 70
     1
102
RTVSPost2010Prop43
 90
        3
102
RTVSPost2010PropOp43
 70
     1
102
RTVSPost2010Prop44ColorIndex
 90
        5
102
RTVSPost2010Prop44ColorRGB
 90
      255
102
RTVSPost2010PropOp44
 70
     1
102
RTVSPost2010Prop45
280
     0
102
RTVSPost2010PropOp45
 70
     1
102
RTVSPost2010Prop46
 90
       50
102
RTVSPost2010PropOp46
 70
     1
102
RTVSPost2010Prop47
 90
       50
102
RTVSPost2010PropOp47
 70
     1
102
RTVSPost2010Prop48
 90
       50
102
RTVSPost2010PropOp48
 70
     1
102
RTVSPost2010Prop49
280
     0
102
RTVSPost2010PropOp49
 70
     1
102
RTVSPost2010Prop50
 90
       50
102
RTVSPost2010PropOp50
 70
     1
102
RTVSPost2010Prop51ColorIndex
 90
      256
102
RTVSPost2010Prop51ColorRGB
 90
-16777216
102
RTVSPost2010PropOp51
 70
     0
102
RTVSPost2010Prop52
140
1.0
102
RTVSPost2010PropOp52
 70
     0
102
RTVSPost2010Prop53
 90
        2
102
RTVSPost2010PropOp53
 70
     1
102
RTVSPost2010Prop54
  1
strokes_ogs.tif
102
RTVSPost2010PropOp54
 70
     1
102
RTVSPost2010Prop55
280
     0
102
RTVSPost2010PropOp55
 70
     1
102
RTVSPost2010Prop56
140
1.0
102
RTVSPost2010PropOp56
 70
     1
102
RTVSPost2010Prop57
140
1.0
102
RTVSPost2010PropOp57
 70
     1
  0
XRECORD
  5
E7A2
102
{ACAD_REACTORS
330
E7A1
102
}
330
E7A1
100
AcDbXrecord
280
     1
102
RTVSPost2010Prop28
280
     0
102
RTVSPost2010PropOp28
 70
     1
102
RTVSPost2010Prop29
280
     1
102
RTVSPost2010PropOp29
 70
     1
102
RTVSPost2010Prop30
280
     1
102
RTVSPost2010PropOp30
 70
     1
102
RTVSPost2010Prop31
280
     0
102
RTVSPost2010PropOp31
 70
     1
102
RTVSPost2010Prop32
280
     0
102
RTVSPost2010PropOp32
 70
     1
102
RTVSPost2010Prop33
280
     0
102
RTVSPost2010PropOp33
 70
     1
102
RTVSPost2010Prop34
280
     0
102
RTVSPost2010PropOp34
 70
     1
102
RTVSPost2010Prop35
280
     0
102
RTVSPost2010PropOp35
 70
     1
102
RTVSPost2010Prop36
280
     0
102
RTVSPost2010PropOp36
 70
     1
102
RTVSPost2010Prop37
 90
       50
102
RTVSPost2010PropOp37
 70
     1
102
RTVSPost2010Prop38
140
0.0
102
RTVSPost2010PropOp38
 70
     1
102
RTVSPost2010Prop39
140
1.0
102
RTVSPost2010PropOp39
 70
     1
102
RTVSPost2010Prop40
 90
        0
102
RTVSPost2010PropOp40
 70
     1
102
RTVSPost2010Prop41ColorIndex
 90
       18
102
RTVSPost2010Prop41ColorRGB
 90
        0
102
RTVSPost2010PropOp41
 70
     1
102
RTVSPost2010Prop42
 90
       50
102
RTVSPost2010PropOp42
 70
     1
102
RTVSPost2010Prop43
 90
        3
102
RTVSPost2010PropOp43
 70
     1
102
RTVSPost2010Prop44ColorIndex
 90
        5
102
RTVSPost2010Prop44ColorRGB
 90
      255
102
RTVSPost2010PropOp44
 70
     1
102
RTVSPost2010Prop45
280
     0
102
RTVSPost2010PropOp45
 70
     1
102
RTVSPost2010Prop46
 90
       50
102
RTVSPost2010PropOp46
 70
     1
102
RTVSPost2010Prop47
 90
       50
102
RTVSPost2010PropOp47
 70
     1
102
RTVSPost2010Prop48
 90
       50
102
RTVSPost2010PropOp48
 70
     1
102
RTVSPost2010Prop49
280
     0
102
RTVSPost2010PropOp49
 70
     1
102
RTVSPost2010Prop50
 90
       50
102
RTVSPost2010PropOp50
 70
     1
102
RTVSPost2010Prop51ColorIndex
 90
      256
102
RTVSPost2010Prop51ColorRGB
 90
-16777216
102
RTVSPost2010PropOp51
 70
     0
102
RTVSPost2010Prop52
140
1.0
102
RTVSPost2010PropOp52
 70
     0
102
RTVSPost2010Prop53
 90
        2
102
RTVSPost2010PropOp53
 70
     1
102
RTVSPost2010Prop54
  1
strokes_ogs.tif
102
RTVSPost2010PropOp54
 70
     1
102
RTVSPost2010Prop55
280
     0
102
RTVSPost2010PropOp55
 70
     1
102
RTVSPost2010Prop56
140
1.0
102
RTVSPost2010PropOp56
 70
     1
102
RTVSPost2010Prop57
140
1.0
102
RTVSPost2010PropOp57
 70
     1
  0
XRECORD
  5
E7B0
102
{ACAD_REACTORS
330
E7AF
102
}
330
E7AF
100
AcDbXrecord
280
     1
102
RTVSPost2010Prop28
280
     0
102
RTVSPost2010PropOp28
 70
     1
102
RTVSPost2010Prop29
280
     1
102
RTVSPost2010PropOp29
 70
     1
102
RTVSPost2010Prop30
280
     1
102
RTVSPost2010PropOp30
 70
     1
102
RTVSPost2010Prop31
280
     0
102
RTVSPost2010PropOp31
 70
     1
102
RTVSPost2010Prop32
280
     0
102
RTVSPost2010PropOp32
 70
     1
102
RTVSPost2010Prop33
280
     0
102
RTVSPost2010PropOp33
 70
     1
102
RTVSPost2010Prop34
280
     0
102
RTVSPost2010PropOp34
 70
     1
102
RTVSPost2010Prop35
280
     0
102
RTVSPost2010PropOp35
 70
     1
102
RTVSPost2010Prop36
280
     0
102
RTVSPost2010PropOp36
 70
     1
102
RTVSPost2010Prop37
 90
       50
102
RTVSPost2010PropOp37
 70
     1
102
RTVSPost2010Prop38
140
0.0
102
RTVSPost2010PropOp38
 70
     1
102
RTVSPost2010Prop39
140
1.0
102
RTVSPost2010PropOp39
 70
     1
102
RTVSPost2010Prop40
 90
        0
102
RTVSPost2010PropOp40
 70
     1
102
RTVSPost2010Prop41ColorIndex
 90
       18
102
RTVSPost2010Prop41ColorRGB
 90
        0
102
RTVSPost2010PropOp41
 70
     1
102
RTVSPost2010Prop42
 90
       50
102
RTVSPost2010PropOp42
 70
     1
102
RTVSPost2010Prop43
 90
        3
102
RTVSPost2010PropOp43
 70
     1
102
RTVSPost2010Prop44ColorIndex
 90
        5
102
RTVSPost2010Prop44ColorRGB
 90
      255
102
RTVSPost2010PropOp44
 70
     1
102
RTVSPost2010Prop45
280
     0
102
RTVSPost2010PropOp45
 70
     1
102
RTVSPost2010Prop46
 90
       50
102
RTVSPost2010PropOp46
 70
     1
102
RTVSPost2010Prop47
 90
       50
102
RTVSPost2010PropOp47
 70
     1
102
RTVSPost2010Prop48
 90
       50
102
RTVSPost2010PropOp48
 70
     1
102
RTVSPost2010Prop49
280
     0
102
RTVSPost2010PropOp49
 70
     1
102
RTVSPost2010Prop50
 90
       50
102
RTVSPost2010PropOp50
 70
     1
102
RTVSPost2010Prop51ColorIndex
 90
      256
102
RTVSPost2010Prop51ColorRGB
 90
-16777216
102
RTVSPost2010PropOp51
 70
     0
102
RTVSPost2010Prop52
140
1.0
102
RTVSPost2010PropOp52
 70
     0
102
RTVSPost2010Prop53
 90
        2
102
RTVSPost2010PropOp53
 70
     1
102
RTVSPost2010Prop54
  1
strokes_ogs.tif
102
RTVSPost2010PropOp54
 70
     1
102
RTVSPost2010Prop55
280
     0
102
RTVSPost2010PropOp55
 70
     1
102
RTVSPost2010Prop56
140
1.0
102
RTVSPost2010PropOp56
 70
     1
102
RTVSPost2010Prop57
140
1.0
102
RTVSPost2010PropOp57
 70
     1
  0
XRECORD
  5
E7B8
102
{ACAD_REACTORS
330
E7B7
102
}
330
E7B7
100
AcDbXrecord
280
     1
102
RTVSPost2010Prop28
280
     0
102
RTVSPost2010PropOp28
 70
     1
102
RTVSPost2010Prop29
280
     1
102
RTVSPost2010PropOp29
 70
     1
102
RTVSPost2010Prop30
280
     1
102
RTVSPost2010PropOp30
 70
     1
102
RTVSPost2010Prop31
280
     0
102
RTVSPost2010PropOp31
 70
     1
102
RTVSPost2010Prop32
280
     0
102
RTVSPost2010PropOp32
 70
     1
102
RTVSPost2010Prop33
280
     0
102
RTVSPost2010PropOp33
 70
     1
102
RTVSPost2010Prop34
280
     0
102
RTVSPost2010PropOp34
 70
     1
102
RTVSPost2010Prop35
280
     0
102
RTVSPost2010PropOp35
 70
     1
102
RTVSPost2010Prop36
280
     0
102
RTVSPost2010PropOp36
 70
     1
102
RTVSPost2010Prop37
 90
       50
102
RTVSPost2010PropOp37
 70
     1
102
RTVSPost2010Prop38
140
0.0
102
RTVSPost2010PropOp38
 70
     1
102
RTVSPost2010Prop39
140
1.0
102
RTVSPost2010PropOp39
 70
     1
102
RTVSPost2010Prop40
 90
        0
102
RTVSPost2010PropOp40
 70
     1
102
RTVSPost2010Prop41ColorIndex
 90
       18
102
RTVSPost2010Prop41ColorRGB
 90
        0
102
RTVSPost2010PropOp41
 70
     1
102
RTVSPost2010Prop42
 90
       50
102
RTVSPost2010PropOp42
 70
     1
102
RTVSPost2010Prop43
 90
        3
102
RTVSPost2010PropOp43
 70
     1
102
RTVSPost2010Prop44ColorIndex
 90
        5
102
RTVSPost2010Prop44ColorRGB
 90
      255
102
RTVSPost2010PropOp44
 70
     1
102
RTVSPost2010Prop45
280
     0
102
RTVSPost2010PropOp45
 70
     1
102
RTVSPost2010Prop46
 90
       50
102
RTVSPost2010PropOp46
 70
     1
102
RTVSPost2010Prop47
 90
       50
102
RTVSPost2010PropOp47
 70
     1
102
RTVSPost2010Prop48
 90
       50
102
RTVSPost2010PropOp48
 70
     1
102
RTVSPost2010Prop49
280
     0
102
RTVSPost2010PropOp49
 70
     1
102
RTVSPost2010Prop50
 90
       50
102
RTVSPost2010PropOp50
 70
     1
102
RTVSPost2010Prop51ColorIndex
 90
      256
102
RTVSPost2010Prop51ColorRGB
 90
-16777216
102
RTVSPost2010PropOp51
 70
     0
102
RTVSPost2010Prop52
140
1.0
102
RTVSPost2010PropOp52
 70
     0
102
RTVSPost2010Prop53
 90
        2
102
RTVSPost2010PropOp53
 70
     1
102
RTVSPost2010Prop54
  1
strokes_ogs.tif
102
RTVSPost2010PropOp54
 70
     1
102
RTVSPost2010Prop55
280
     0
102
RTVSPost2010PropOp55
 70
     1
102
RTVSPost2010Prop56
140
1.0
102
RTVSPost2010PropOp56
 70
     1
102
RTVSPost2010Prop57
140
1.0
102
RTVSPost2010PropOp57
 70
     1
  0
XRECORD
  5
25CD
102
{ACAD_REACTORS
330
25CC
102
}
330
25CC
100
AcDbXrecord
280
     1
330
1F3B
  0
XRECORD
  5
25CA
102
{ACAD_REACTORS
330
25C9
102
}
330
25C9
100
AcDbXrecord
280
     1
330
1F3B
  0
XRECORD
  5
E778
102
{ACAD_REACTORS
330
E777
102
}
330
E777
100
AcDbXrecord
280
     1
1071
  6894073
1071
  9375021
 70
    25
 70
   104
 10
0.0
 20
0.0
 30
0.0
 40
1.0
  0
XRECORD
  5
E779
102
{ACAD_REACTORS
330
E777
102
}
330
E777
100
AcDbXrecord
280
     1
1071
135625452
1071
184556386
 70
    25
 70
   104
 10
-155.1096586774657
 20
39.79678970574935
 30
0.0
  1
Französisch
  0
XRECORD
  5
AFD8
102
{ACAD_REACTORS
330
AFD7
102
}
330
AFD7
100
AcDbXrecord
280
     1
1071
  6894073
1071
  9375021
 70
    25
 70
   104
 10
0.0
 20
0.0
 30
0.0
 40
1.0
  0
XRECORD
  5
E772
102
{ACAD_REACTORS
330
E771
102
}
330
E771
100
AcDbXrecord
280
     1
1071
135625452
1071
184556386
 70
    25
 70
   104
 10
-281.5221708216397
 20
44.80865832515482
 30
0.0
  1
Französisch
  0
ENDSEC
  0
EOF
